This file was generated by Ched 2.7.0.0.
#TITLE ""
#ARTIST ""
#DESIGNER ""
#DIFFICULTY 0
#PLAYLEVEL
#SONGID ""
#WAVE ""
#WAVEOFFSET 0
#JACKET ""
#REQUEST "ticks_per_beat 480"
#00002: 4
#BPM01: 140
#00008: 01
#TIL00: ""
#VOLUME: ""
#HISPEED 00
#MEASUREHS 00
#0091b:1300001300000013
#00912:2613
#00917:0013000000001300
#00916:0000000000130000
#00910:41
#01114:0013000000000000
#01116:00000013000014000000000000001400
#01118:00130000
#0111b:13001313
#01112:13131300
#01119:0000000000130000
#01117:00000000000000000000001300000000
#01115:00000013
#01218:00000000130000000013001300001300
#01215:00000000000000000000130013000013
#0121b:1313
#01212:13131300
#01214:0013000000000000
#01216:00000013000014000000000000000000
#0151b:0013130013000000
#01516:28000013000000000000000000000000
#01512:1300001428131300
#01517:00000000000000000000001300000000
#0151a:0000000000000014
#01017:0000001300130000
#01012:1400000000130000
#01018:00140000000000000000000000000000
#0101a:00000014000000000000000000000000
#01016:00141313
#01014:0014000000000000
#0101b:0013
#01612:0014000024000000
#0161a:0000001400002400
#01616:2400240000140014
#01817:00000012
#01818:00000000120012000000000000000013
#01816:00000000001200120000000000000000
#01812:1c1c
#01815:0000000000000013
#01912:2313130000130000
#01914:0000001300000000
#01916:00001313
#0191b:13000013
#01917:0000130000130000
#01915:00000000000000000000000000000013
#01918:0000000000000013
#01910:41
#02112:13001300000013000000130013000013
#02117:00001300000013000000001300000000
#0211b:1300000013000013
#02116:00130000
#02217:13000000000000000000001300000000
#02215:0013000000000000
#02218:00000013000000000000000000000000
#02216:0013
#02212:0000130000131300
#0221b:0000001313000013
#02214:00000000000000000000000000000013
#0231b:0013130000130000
#02312:1300001313001300
#02318:00000000000000000000000000000013
#02315:0000000000000013
#02317:23000000000000130000000013000000
#02316:00130000
#02612:13000013000000000000001300000000
#02617:0000130000131300
#0261b:00001300000000001300000000000013
#02616:0000001313000013
#00818:00000000000000000000000000000013
#00815:0000000000000013
#00817:00000012
#00812:2c
#02012:13000013
#02017:00001313
#0201b:1313130000130000
#02019:0000001300000000
#02016:0000130000130000
#02018:00000000000000000000000000000013
#02015:0000000000000013
#02412:1313130000131300
#0241b:1300001313001300
#02417:00000013000000000000000000000000
#02416:0013
#02418:0000000000000013
#02415:00000000000000000000000000000013
#0351b:2313000013001300
#03515:0000000000000013
#03518:00000000000000000000000000000013
#03512:00000000130000000000001300000000
#03516:0000001300000000
#03517:0000000000130000
#03510:41
#03618:0000000000000013
#03615:00000000000000000000000000000013
#03612:1313000013001300
#0361b:00000000130000000000001300000000
#03617:0000001300000000
#03616:0000000000130000
#0381b:0013130013001300
#03816:00000013000000001300000000000000
#03818:0000000000130000
#03815:00000000000000000000001300000000
#03812:1300001300000013
#03817:00000000000000000000000000000013
#0391b:00001300000000000000001300000000
#03917:23130000
#03912:00001313
#03916:0000001300130000
#03918:00000000000000000000000000000013
#03914:0000000000000013
#04216:1400141424142414
#0421b:00000013000000000000000000000000
#04212:0013000000240000
#0421a:00001414
#04312:2313001300000000
#0431b:13000000130000130000000000001300
#04316:00001313
#04317:0000000000130000
#04310:41
#04412:1300001300130000
#04416:0013130000000013
#0441b:00000013000000001300000000000000
#04417:13000000000013000000001300000000
#04414:00000013
#04714:0000001200001200
#04712:00120000
#0471c:1212
#04716:0000000012000012
#04718:0000000000120000
#0471a:00000012
#04717:12
#0471f:11
#04912:00120000
#04917:1200001212001200
#0491c:1212
#04915:0000000000000012
#04919:0000000000000012
#05013:12120000
#0501c:0012000000000000
#0501b:12120000
#05019:0000001200000000
#05015:0000001200000000
#05016:0000000000000012
#05018:00000000000000000000000000000012
#05012:0012000000000000
#03016:00000014000000002400140024000000
#03012:0013140014001413
#0301b:00000000000013000000000000000013
#0301a:1400000000240000
#02912:00131314
#02916:24001400140014000000140000000014
#0291b:00001300000013000000001300001300
#02917:0013
#03116:1300001300000000
#03118:00130000
#03117:0013000000000000
#03112:0013000023000023
#0311b:23000000000013000000002300000000
#03216:18
#03212:2418
#0321a:0024
#0651a:1414000014000000
#06518:00000014000000000000000000000000
#06516:0000141400001414
#06512:1400000014140000
#06514:00000000000000000000001400000000
#06615:00000000000000000016000000001300
#06618:00000014000000000000000000000013
#06612:1400001c
#06613:00000000000000000000001a00000000
#06614:0000000000180000
#06616:0000141414000000
#0661a:1414000000000000
#06912:24001400180000001400001400001800
#0691a:14000014000000002400140000000000
#06916:0000001800001800
#06418:0000001600000000
#06419:00130000000000000000000000000000
#0641b:00000013000000000000000013000000
#06414:0016000000000000
#06412:16001314
#06416:00160000
#06415:0000000000160016
#0641a:0014
#06312:24130000
#06316:0000001300000000
#0631b:0000000000130013
#06317:00000013
#0631a:24
#03314:0013000000000000
#0331a:00000013000014000000000000000000
#0331b:13000013
#03316:13000013
#03317:00131300
#03312:0000130013000014
#03319:0000000000130000
#03313:00000000000000000000001300000000
#03415:00000000000000000013001300001300
#03418:00000000000000000000130013000013
#03412:00131300
#03414:0013000000000000
#0341a:00000013000014000000000000000000
#0341b:1313
#03416:13
#03417:00130000
#01716:0013000013000000
#01714:00130000
#01712:24000000000013000000001300000000
#01717:1300000000130000
#01719:00000013
#0171b:00000013000000000000000000001300
#0171a:0014
#01312:1300001300000013
#0131b:0013
#01316:0013000000001300
#01317:0000000000130000
#01318:26
#01416:0000141300130000
#0141b:0000000000130000
#01414:00140000000000000000000000000000
#01412:00000014000000001300000000000000
#01417:00001313
#01418:0014000000000000
#0141a:14
#02816:14
#0281a:0000000000140000
#0281b:0013001300001300
#02817:00131300
#02815:0000000000000013
#02812:00000000000000000000000000000013
#02818:00000000000000000000000000130000
#0271b:00000013
#02716:24131313
#02712:00001300000013000000140000000013
#02717:0000000000000013
#02710:41
#04012:00001300000000000000001300000000
#04016:13130000
#0401b:00001313
#04017:0000001300130000
#04018:00000000000000000000000000000013
#04015:0000000000000013
#04512:1824
#04516:0018
#0451a:24
#04818:12
#04814:00120000000000000000000000000000
#0481a:0012000000000000
#0481c:00120000
#04817:0000001222000000
#04816:0000000000001200000000000000000000000000000000140000000000000000
#04815:000000000000000000000000000000000000000000000000000000000000000000000000000000000000000000000000000000000000001600000000000000000000000000000000000000000000000000000000000000000000000000000000
#0511a:0000001200001200
#0511c:00120000
#05112:1212
#05118:0000000012000012
#05116:0000000000120000
#05114:00000012
#05216:12
#0521a:00120000000000000000000000000000
#05214:0012000000000000
#05218:00000012000000000000000000000000
#05212:00120000
#05217:0000001200000000
#05316:14141414
#05314:0000001200000012
#0531a:0000001200000012
#05312:0012000012000000
#0531c:1200000000120000
#05317:0012000000120000
#05418:00120013001400150016000016000000
#05416:0012000000000000
#05412:1400000000160000
#05415:00130000
#05413:0015
#0541a:14
#05414:0000001400000000
#00717:0012001200120000
#0071b:1313
#00712:0000000000000013
#00715:26
#00316:0000000000121200
#00318:00000000000000000000001200000000
#00315:26
#00412:1313
#00418:0000120012121200
#00416:00000000000000000012001200000000
#00415:26
#0051b:1313
#00512:0000000000000013
#00516:0000120012121200
#00518:00000000000000000012001200000000
#00515:26
#00612:1313
#00617:00120012
#00615:26
#05517:00131313
#05512:13
#05516:2413001300000000
#0551b:0023002300230023
#0551f:21
#05617:13130000000013000000130000000000
#0561b:00000013130000001300000000000000
#05612:1323002300230023
#05616:00131313
#05610:41
#05716:1400000000140000
#05712:0014000014000013
#0571b:1323132300230023
#05714:0000001300000000
#05717:00001313
#05916:24131313
#0591b:13
#05917:0013001300000000
#05912:0023002300230023
#06016:13130000000013000000130000000000
#06012:00000013130000001300000000000000
#0601b:1323002300230023
#06017:00131313
#05815:16
#05814:00180000
#05812:0023001300231c13
#05813:001a
#0581b:0013002300130023
#06116:1400000013141300
#0611a:0014000014000000
#06112:1323132300230023
#06119:0000001300000000
#0611b:0000000000000013
#06216:1414140014140000
#06215:0000000000001313
#06218:00000000000000000000000000130013
#0621a:0014
#06212:1400001300230000
#0621b:0023002300000000
#06812:00000013000016001400000013000000
#06814:00130000160000000000000000000000
#06816:0016000000000000
#06818:16
#0681b:0013
#06815:0000000000160016
#0681a:00000014
#0671b:00130000
#06717:0000001300000000
#06712:2400000000130013
#06716:00000013
#0671a:24
#07016:2814001400140014
#07012:00280026
#07018:0026
#0711b:0013000013000000
#07119:00130000
#07117:00000000000013000000001300000000
#07112:1300000014130000
#07116:00000013000000000000000000001300
#07114:00000013
#0711a:24
#02517:00000000130000000000000000000013
#02516:00001300000013000000001300000000
#0251b:1313001300131300
#02512:1300000013000013
#03718:00000000000000000000000000000013
#0371b:1300000000130000
#03717:0013000013001300
#03715:0000000000000013
#03712:00000000130000000000001300000000
#03716:0000001300000000
#04115:00000000000000000000000000000013
#04112:1300000000130000
#04116:0013000013001300
#04118:0000000000000013
#0411b:00000000130000000000001300000000
#04117:0000001300000000
#0461a:0000000000140000
#04612:1300230013241526
#04618:0000000000000016
#0461b:23132300
#04617:0023000000000000
#04616:0000002300000000
#04619:00000025
#00015:26
#00215:26
#00115:26
#07212:2c2c
#01158:00530000
#01155:00000063
#0155b:00636300
#01552:53000053
#0105b:00005343
#01057:0000000000230000
#01056:00540043
#02257:53
#02252:00530053
#0225b:0063
#00952:16
#0095b:53
#00957:0023000000000000
#01952:0000000000130000
#0195b:63
#01957:00230000
#0235b:0000230000130000
#02352:2323
#03956:0000000000130000
#04356:00002323
#04357:0000000000230000
#04352:0053000000000000
#0435b:63630000
#04456:00630000
#04457:00000000000000000000002300000000
#04452:0000002300000000
#0445b:0063
#0295b:0000005300000000
#02957:0023
#02952:00000054
#03156:63
#03158:00530000
#03152:0023000000000000
#0315b:0000002300000000
#03256:48
#03252:0038
#0645a:0044
#06452:00000034
#01258:00530000
#01452:00006333
#01456:0000640000230000
#01457:00000033
#01352:63
#01356:0023000000000000
#01358:16
#01757:53
#0175b:00000023000000000000000000000000
#01756:0063
#01752:00000000000000000000002300000000
#0205b:0000000000130000
#02052:53
#02056:00230000
#02452:0000230000130000
#0245b:2323
#02652:53
#02657:00530053
#02656:0063
#0285a:0000000000140000
#02752:0000000000140000
#0305a:64
#03052:00540000
#03352:00530000
#0335b:00000063
#03452:00530000
#03557:0000000000130000
#03656:0000000000130000
#03852:53
#0385b:00630063
#03856:0063
#04057:0000000000130000
#04256:54640000
#04552:38
#04556:0048
#0475c:62
#05152:52
#05352:0052
#0535c:62
#05357:0022000000220000
#0495c:62
#04957:0062
#05552:63
#05556:1423000000000000
#05756:6400000000240000
#05752:0024000054000000
#0565b:00005343
#05657:0000000000230000
#0595b:53
#05957:0023000000000000
#05956:14
#06052:00006333
#06056:0000000000230000
#06156:5400000000240000
#0615a:0024000064000000
#06256:0024000000240000
#0625a:0064
#06252:54
#06552:54
#06556:0000241400002414
#0655a:0064
#06352:34
#0635a:44
#06952:1400680024000068
#0695a:2414
#06956:0000005800005800
#06652:54
#06656:0000241400000000
#0685a:00000044
#06852:0034
#01852:3c4c
#00155:16
#00055:16
#00255:16
#00355:16
#00455:16
#00555:16
#00655:16
#00755:16
#00852:1c
#07056:48
#07052:00380036
#07058:0046
#07152:63
#07156:00000023000000000000000000000000
#0715b:0053
#07157:00000000000000000000002300000000
#0715a:44
#07252:3c4c
#06752:34
#0675a:44
#02552:6353
#02557:00530000
#0255b:0000002300006300
#02556:0023000000000000
#0215b:5363
#02156:00630000
#02152:0000002300005300
#02157:0023000000000000
#03757:00000053
#04156:00000063
#05458:00000046
#05452:0000000000360000
#04855:000000000000000000000000000000000000000000000000000000000000000000000000000000000000000000000000000000000000002600000000000000000000000000000000000000000000000000000000000000000000000000000000
#04857:0052
#04856:0000000000000000000000000000000000000000000000240000000000000000
#0465a:0000000000440000
#04652:33003335
#04658:0000000000000046
#0465b:00430000
#0093b0:13230000
#009370:0053000000000000
#009321:0000132300000000
#009371:0013
#0093b1:0000000000230000
#009321:00000013
#009361:0000000000000023
#010361:00140000
#010321:0000002400000000
#0103b1:00001323
#010371:0000000000530000
#011381:00130000
#0113b1:0000002300000000
#011351:00000013
#011321:0000000000000023
#012381:00130000
#0123b1:0000002300000000
#013321:13230000
#013361:0053000000000000
#0133b0:0000132300000000
#013360:0013
#013320:0000000000230000
#0133b0:00000013
#013370:0000000000000023
#014360:00140000
#0143a0:0000002400000000
#014320:00001323
#014360:0000000000530000
#015320:13
#015360:0023000000000000
#0153b0:00130000
#015370:0000002300000000
#0153b0:0013
#015370:0000000000230000
#015320:00000013
#015360:0000000000000023
#0163a0:14
#016360:0024000000000000
#016320:00140000
#016360:0000002400000000
#016360:0014
#0163a0:0000000000240000
#016360:00000014
#016320:0000000000000024
#017370:1300002300000000
#0173b0:00000053000000000000000000000000
#017360:0000000013000023
#017320:00000000000000000000005300000000
#0193b0:1323
#019370:00330000
#020320:1323
#020360:00330000
#0213b0:13230000
#021370:0053000000000000
#021361:00132300
#021321:0000005300000000
#0213b0:0013
#021370:0000000000230000
#021320:00000013
#021360:0000000000000023
#022370:13
#0223b0:0023000000000000
#022320:00130000
#022360:0000002300000000
#0223b0:0013
#022370:0000000000230000
#022320:00000013
#022360:0000000000000023
#023320:13
#023360:0023000000000000
#0233b0:00130000
#023370:0000002300000000
#023320:0013
#023360:0000000000230000
#0243b0:13
#024370:0023000000000000
#024320:00130000
#024360:0000002300000000
#0243b0:0013
#024370:0000000000230000
#025320:13230000
#025360:0053000000000000
#025371:00132300
#0253b1:0000005300000000
#025320:0013
#025360:0000000000230000
#0253b0:00000013
#025370:0000000000000023
#026320:13
#026360:0023000000000000
#026370:00130000
#0263b0:0000002300000000
#026360:0013
#026320:0000000000230000
#026370:00000013
#0263b0:0000000000000023
#0273b0:13333300
#027370:0033003300230000
#028320:13333300
#028360:0033003300230000
#0293b0:0000001300230000
#029370:0053
#029320:00000014
#029360:0000000000000024
#0303a0:14
#030360:0024000000000000
#030320:00140000
#030360:0000002400000000
#031360:13
#031320:0053000000000000
#031350:00230000
#031381:00130000
#0313b1:0000005300000000
#031371:0023
#031361:00000000000000000000132300000000
#031371:00000000000000000000000000132300
#033321:00130000
#033361:0000002300000000
#0333b1:00000013
#033371:0000000000000023
#034321:00130000
#034361:0000002300000000
#035321:13
#035361:0023000000000000
#035371:00130000
#0353b1:0000002300000000
#035361:0013
#035321:0000000000230000
#0363b1:13
#036371:0023000000000000
#036361:00130000
#036321:0000002300000000
#036371:0013
#0363b1:0000000000230000
#037321:1323000000000000
#0373b1:0000132300000000
#037321:0000000013230000
#037371:00000013
#0373b1:0000000000000023
#038321:13
#038361:0023000000000000
#0383b1:00130000
#038371:0000002300000000
#038361:0013
#038321:0000000000230000
#0383b1:00000013
#038371:0000000000000023
#039321:13230000
#039361:0033000000000000
#0393b1:0000001300230000
#039371:0033
#0403b1:13230000
#040371:0033000000000000
#040321:0000001300230000
#040361:0033
#0413b1:1323000000000000
#041321:0000132300000000
#0413b1:0000000013230000
#041361:00000013
#041321:0000000000000023
#042361:14
#0423a1:0024000000000000
#042361:00140000
#042321:0000002400000000
#0433b1:13
#043371:0023000000000000
#043320:0013000000000000
#043360:00230000
#0433b1:00130000
#043371:0000002300000000
#043361:0013
#043321:0000000000230000
#043370:0000000000130000
#0433b0:00000023
#043361:00000013
#043321:0000000000000023
#044361:00132300
#044321:0000005300000000
#0443b0:0000000013000023
#044370:00000000000000000000005300000000
#0473c0:12
#047380:00220000
#048370:000000000000000000000000000000000000000000000000120000000052000000000000220000000000000000000000
#048350:000000000000000000000000000000000000000000000000000000000000000000000000000000000000000000000000000000000000005600000000000000000000000000000000000000000000000000000000000000000000000000000000
#048360:0000000000000000000000000000000000000000000000540000000000000000
#0493c0:12
#049370:00220000
#049370:0012
#049320:00000022
#050370:00001222
#051320:12
#051360:00220000
#0523c0:0012
#052320:00000022
#052321:0012
#0523c1:00000022
#0533c1:12220000
#053371:0052000000000000
#053321:00001222
#053371:0000000000520000
#055321:13230000
#055361:0053000000000000
#055321:00001333
#055361:0000000000330023
#0563b1:00001323
#056371:0000000000530000
#057361:14240000
#057321:0054000000000000
#057321:00001424
#057361:0000000000540000
#0593b1:13230000
#059371:0053000000000000
#0593b1:00001333
#059371:0000000000330023
#060321:00001323
#060361:0000000000530000
#061361:14240000
#0613a1:0054000000000000
#0613a1:00001424
#061361:0000000000540000
#062321:14240000
#062361:0054000000000000
#0623a1:00001424
#062361:0000000000540000
#063371:00132300
#0633b1:0000003300000000
#063320:00001333
#063360:0000000000330023
#065320:14
#065360:0024000000000000
#065360:00140000
#065320:0000002400000000
#0653a0:0014
#065360:0000000000240000
#065360:00000014
#0653a0:0000000000000024
#066320:14
#066360:0024000000000000
#066360:00140000
#066320:0000002400000000
#067360:00132300
#067320:0000003300000000
#0673b1:00001333
#067371:0000000000330023
#0693a1:14
#069361:0028000000000000
#069321:0000182400000000
#069360:0000001800000000
#0693a0:0024
#069321:0000000014280000
#069361:00000018
#0693a1:0000000000000024
#069320:0000000000000018
#070320:24
#071320:1300002300000000
#071360:00000053000000000000000000000000
#0713b0:0000000013000023
#071370:00000000000000000000005300000000
