This file was generated by Ched 2.7.0.0.
#TITLE ""
#ARTIST ""
#DESIGNER ""
#DIFFICULTY 0
#PLAYLEVEL
#SONGID ""
#WAVE ""
#WAVEOFFSET 0
#JACKET ""
#REQUEST "ticks_per_beat 480"
#00002: 4
#BPM01: 140
#00008: 01
#TIL00: ""
#VOLUME: ""
#HISPEED 00
#MEASUREHS 00
#01818:0014
#0201a:1414
#02014:00140000
#02112:1414
#0211a:00140014
#02218:00140000
#02214:1414
#03212:0014
#04512:16
#04518:0016
#04614:1414
#04618:00140000
#05512:00140000
#05518:0014
#05514:00000014
#0551a:24
#0551f:21
#0561a:14
#05612:00140000
#05618:00001414
#05614:0000000000140000
#05610:41
#00918:0014
#00914:00140000
#00912:00000014
#0091a:24
#00910:41
#0101a:14
#01016:00140000
#0111a:00140000
#01118:00000014
#0121a:00140000
#01219:0034
#01314:0014
#01318:00140000
#0131a:00000014
#01312:14
#01412:14
#01416:00140000
#01512:14
#01514:0014
#01712:14
#0161a:00140000
#01614:0014
#01618:00000014
#01918:00140000
#01912:1414
#01910:41
#02412:1414
#02418:00140000
#0251a:1414
#02512:00140014
#02614:00140000
#02618:1414
#02314:00140000
#0231a:1414
#0311a:14000000000000000000003400000000
#03118:0014
#02912:1414
#0291a:00140014
#03014:1414
#03018:00140000
#03318:00140000
#0331a:00000014
#03418:00140000
#03419:0034
#03512:14
#03518:00140000
#03514:0014
#0351a:00000014
#03510:41
#03612:14
#03614:0014
#03618:00140000
#0361a:00000014
#03712:1414
#03718:00140014
#0381a:00140000
#03814:14
#0391a:14
#03914:00140000
#03918:0014
#03912:00000014
#0401a:14
#04018:0014
#04014:00140000
#04012:00000014
#0411a:1414
#04114:00140014
#04212:00140000
#04218:14
#0471a:14
#0471f:11
#04812:14
#04918:14
#05014:14
#0511a:14
#05118:00140000
#05212:14
#05214:00140000
#05318:14
#0531a:00140000
#05414:14
#05412:00140000
#05714:14
#0571a:0014
#05814:1400001400000000
#05818:00141400
#0591a:00140000
#05914:0014
#05918:00000014
#05912:24
#06012:14
#0601a:00140000
#06014:00001414
#06018:0000000000140000
#06118:14
#06112:0014
#06218:1400001400000000
#06214:00141400
#06316:0014
#06312:00140000
#0631a:14000014
#06412:14
#06418:00140000
#0651a:00000014
#06518:00140000
#06618:00140000
#06619:0034
#06716:0014
#0671a:00140000
#06712:14000014
#0681a:14
#06814:00140000
#06914:14
#06912:0014
#0721a:0014
#07018:00140000
#07012:0014
#0701a:00000014
#07114:14
#0001a:24
#0011a:24
#00612:24
#00712:24
#00812:24
#0081a:24
#00212:24
#00312:24
#0041a:24
#0051a:24
#02710:41
#04310:41
#04558:0016
#04552:16
#03252:0014
#0325a:14
#0555a:14
#0095a:14
#01052:00000014
#0115a:00640000
#01158:00000054
#0125a:00640000
#0145a:00000014
#01552:54
#01554:0064
#01752:54
#01854:14
#01858:0014
#0315a:64
#03158:0054
#03358:00540000
#0335a:00000064
#03458:00540000
#0475a:64
#04852:54
#04958:54
#05054:64
#0515a:64
#05158:00240000
#05252:54
#05254:00240000
#05358:54
#0535a:00240000
#05454:64
#05452:00240000
#05754:64
#0575a:0064
#05858:0054
#06158:54
#06152:0054
#06254:0064
#05952:14
#06452:00000014
#0655a:00000064
#06558:00540000
#06658:00540000
#0685a:00000014
#06954:64
#06952:0054
#0725a:0014
#07252:14
#07154:64
#01352:14
#0635a:14
#06752:14
#010320:00001424
#0113a0:14340000
#011380:00000034
#0123a0:00340000
#012390:0034
#012380:00000024
#0143a0:00001424
#015320:14
#015340:0034
#016320:24
#017320:14
#018340:24
#027320:14
#027330:00340000
#027340:0024
#0283a0:14
#028390:00340000
#028380:0024
#0313a0:14000000000000000000003400003400
#031380:0034
#0323a0:24
#033380:14340000
#0333a0:00000034
#034380:00340000
#034390:0034
#0343a0:00000024
#038340:00001424
#042380:00001424
#043320:14
#043340:00240000
#0433a0:0014
#043380:00000024
#044340:14
#044320:00240000
#044380:0014
#0443a0:00000024
#0473a0:14
#047380:0024
#048320:14
#048340:0024
#049380:14
#0493a0:0024
#050340:14
#050320:0024
#0513a0:1424
#051380:00540000
#052320:1424
#052340:00540000
#053380:1424
#0533a0:00540000
#054340:1424
#054320:00540000
#057340:14
#057320:00240000
#0573a0:0014
#057380:00000024
#058380:0014
#0583a0:00000024
#061380:14
#0613a0:00240000
#061320:0014
#061340:00000024
#062340:0014
#062320:00000024
#064320:00001424
#065380:14340000
#0653a0:00000034
#066380:00340000
#066390:0034
#0663a0:00000024
#0683a0:00001424
#069340:14
#069320:0034
#070340:24
#071340:14
#072320:24
