This file was generated by Ched 2.7.0.0.
#TITLE ""
#ARTIST ""
#DESIGNER ""
#DIFFICULTY 0
#PLAYLEVEL
#SONGID ""
#WAVE ""
#WAVEOFFSET 0
#JACKET ""
#REQUEST "ticks_per_beat 480"
#00002: 4
#BPM01: 160
#00008: 01
#TIL00: ""
#VOLUME: ""
#HISPEED 00
#MEASUREHS 00
#00614:0014
#0071a:0014
#00812:0014
#01014:0014
#0111a:0014
#01212:0014
#0141a:0014
#01514:0014
#01510:0041
#01614:0014
#01718:0014
#01818:0014
#01912:0014
#02012:0014
#03014:0014
#0311a:0014
#03214:0014
#03412:0014
#03518:0014
#03612:0014
#03812:16
#03818:0016
#03810:0041
#03918:16
#03912:0016
#04018:16
#04118:0016
#04212:16
#04218:0016
#04318:16
#04312:0016
#04418:16
#04412:0016
#04618:16
#04612:0016
#04610:0041
#04712:16
#04718:0016
#04812:16
#04912:0016
#05018:16
#05012:0016
#05112:16
#05118:0016
#05212:16
#05218:0016
#05418:0016
#05412:16
#05410:0041
#05518:16
#05512:0016
#00518:0014
#00510:0041
#00918:0014
#0131a:0014
#04518:16
#04512:0026
#05312:16
#05318:0026
#05618:16
#05612:0016
#05712:16
#05718:0026
#06012:0016
#06018:26
#06112:16
#05818:0016
#05812:26
#05918:16
#05912:0026
#0291f:0011
#0291a:0024
#03318:0024
#03718:0026
#0371f:0021
#02710:0041
#001340:0014
#003320:3434
#005340:24
#021380:0014
#022380:0024
#023340:0014
#024340:0024
#0253a0:0014
#0263a0:0024
#027320:0014
#028320:0024
#040320:0016
#041320:26
#048380:0016
#049380:26
#061380:0000000014000034
#062380:0034
#0643a0:0024
