This file was generated by Ched 2.7.0.0.
#TITLE ""
#ARTIST ""
#DESIGNER ""
#DIFFICULTY 0
#PLAYLEVEL
#SONGID ""
#WAVE ""
#WAVEOFFSET 0
#JACKET ""
#REQUEST "ticks_per_beat 480"
#00002: 4
#BPM01: 160
#00008: 01
#TIL00: ""
#VOLUME: ""
#HISPEED 00
#MEASUREHS 00
#00514:0000000000130000
#00512:00130000000000000000000013000000
#00517:00000000000000000000000000130000
#00516:0023
#0051b:0023000023000000
#00510:0041
#00617:0013000000000013
#00619:00130000
#00616:0000001300131300
#0061b:00000013
#00716:13
#00712:0013000013000000
#0071b:00130000
#00717:0000001300000000
#00715:00000000000000000000130000130000
#00718:00000013
#00816:0013000000230000
#00814:00130000
#00819:00130000
#00817:0000001300000000
#00812:0000002300000000
#0081b:0000000000230000
#00918:0013000000000000
#0091b:13130013
#00914:0000001300000000
#00915:00130000000000000000000000000000
#00916:00000000130000000000000000130000
#00919:0000000000130000
#00917:0023
#00912:0023
#03712:0000130000131313
#0371b:00132300
#03718:0000001300000000
#03715:00000000000000130000000000000000
#03717:00000000000000000000001300130000
#0371a:1414000000000000
#03716:00140000000000000000000000000000
#0371f:0021
#03812:00000013
#0381b:0013131300001300
#03817:0000000000000013
#03816:00000013001300000000140000000000
#03810:0041
#03912:1300000013000013
#03916:0013000000000000
#03917:00130000
#03915:0000000000131300
#03918:00000000000000000000001300000000
#0391b:0000000000000013
#06116:00001400000000000012001200120000
#06118:0000260000121200
#06114:00000000000000000000000000000012
#06112:1400002600000000
#0611a:00140000000000002400000000002400
#06218:1200001200000000
#0621a:0012120000000000
#06216:00120000001200000000000000000000
#06214:00000012000000120000000000000000
#06418:00000000000000000013000000000000
#06412:0000000000130000
#06415:0013
#00415:0000000013000013
#00412:00000000000000000000001300000000
#0041a:0000001200000000
#00418:00001200000000000023000000000023
#00416:00120000
#0041b:00000023
#00114:0012
#0011a:0012
#00116:0000000000120000
#00118:00000012
#00112:0000000000000012
#0021a:0000001200000000
#00218:0012000000001200
#00216:00120000
#00214:0000000000120000
#00212:0000000000000012
#0031a:1212
#0031c:0012000000000000
#00316:0000001200120000
#00314:00121200
#00318:00000012
#00312:0000000000000012
#01315:0013000000000013
#01312:13131300
#0131b:0013
#01319:0000001300000000
#01318:00130000000000000000000000000000
#01317:00130000
#01412:1313
#0141b:1313
#01415:0000001300000013
#01517:13002313
#01519:0013000000000000
#0151b:00130000
#01515:0000000000120012
#01512:0013
#01510:0041
#02312:00132300
#02315:0000000000130000
#02314:00000013
#02313:0000000000000013
#02316:0014001400000000
#0231b:13
#0251b:00130000
#02516:0014000000000000
#02512:1323
#02517:0013
#02515:0000000000131313
#0271b:1323
#02712:00130000
#02716:0014000013000000
#02718:0000000000131313
#02710:0041
#01616:0013001300140014
#01619:23130000
#0161b:00002313
#01612:1313
#02418:0013000000000000
#02419:00130000
#0241a:0000001300000000
#02415:0000000000130000
#02414:00000013
#02413:0000000000000013
#02612:1323
#0261b:0013131300000000
#02617:0013
#02615:0000000000131313
#02618:23
#02915:00160000
#02912:1314
#0291a:0000000024141414
#0291b:0013000000000000
#02916:00000014
#0291f:0011
#03119:0000000000130000
#03114:0000000000000013
#03117:00000013
#03112:1414141400001300
#0311a:14
#03116:00000014000000001300000000000000
#0311b:0023
#03219:0013001300000000
#03214:0013001300000000
#03216:1313
#03212:00130013
#03217:00130023
#0321b:2323
#0331b:0013130000000000
#03315:00000013000000130000000000000000
#03318:2300001300000000
#03312:00130000001300002400140024001400
#0331a:0014
#03316:00000014
#04919:0000000000130000
#04917:00000013
#0491b:0013
#04916:0014001400000000
#0491a:14240000
#04912:24142424
#05019:00130013
#05017:0013000000000013
#0501b:0000000000130000
#05012:24242424
#05119:13
#0511b:0013000000000000
#05117:00130000
#05114:0000000000130000
#05116:00000013
#05112:24241300
#0511a:00002424
#01712:13131300
#01718:0000000000000013
#0171b:0013
#01715:0013000000000000
#0181b:1313
#01812:1313
#01818:0000001300000013
#01916:13002313
#01914:0013000000000000
#01912:00130000
#01919:0000000000120012
#0191b:0013
#0281b:1323
#02812:0013131300000000
#02816:0013
#02818:0000000000131313
#02815:23
#0211b:13132300
#02118:0013000000130000
#02119:00000013
#0211a:0000000000000013
#01016:0013000000000013
#01014:00130000
#01017:0000001300131300
#01012:00000013
#01117:13
#0111b:0013000013000000
#01112:00130000
#01116:0000001300000000
#01118:00000000000000000000130000130000
#01115:00000013
#01217:0013000000230000
#01219:00130000
#01214:00130000
#01216:0000001300000000
#0121b:0000002300000000
#01212:0000000000230000
#0201b:1313
#02017:0013001300000000
#02014:23130000
#02016:0000000000140014
#02012:00002313
#02215:0013000000000000
#02214:00130000
#02213:0000001300000000
#02218:0000000000130000
#02219:00000013
#0221a:0000000000000013
#04112:0013230000130000
#04118:00000000000000000000001300130000
#04115:0000000000001313
#04116:14140000
#0411b:2300001323000000
#0421b:0013000000000013
#04215:00000013001300000000130000001300
#04218:0000131300001300
#04315:0000000000130000
#04318:00001313
#04317:13
#04312:0000230000000013
#0431b:0000230000000013
#04316:0024000000000000
#04418:00130000
#04415:0000001300000000
#04419:0000000000130000
#04414:0000000000000013
#04417:0013
#04416:00000013
#04412:0023
#0441b:00000023
#0461b:00000013
#04612:0013131300001300
#04616:0000000000140013
#04617:00000013001300000000000000000000
#04610:0041
#0471b:1300000013000013
#04717:0013000000000000
#04716:00130000
#04718:0000000000131300
#04715:00000000000000000000001300000000
#04712:0000000000000013
#05216:0013000000000000
#05214:00130000
#0521a:24242424
#05514:14
#05513:00140000
#0551a:0014
#05519:00000014
#05512:00002313
#05515:0000000000000014
#05516:0000001400140000
#05517:0014000000000000
#0551b:23230000
#05416:0000001414000000
#05415:0014000000001400
#05419:0000140000140000
#05418:1400000000000014
#0541b:00001313
#05412:13130000
#05410:0041
#03514:0000000000130000
#03519:0000000000000013
#03516:00000014000000000000000013000000
#0351a:2414241400000000
#03512:1423
#03517:0023
#0351b:00000023
#03617:13
#03616:00000000230000000014001400000014
#03612:2300000024141400
#0361b:00130000
#03614:0013001300000000
#03619:0013001300000000
#0361a:0000000000000024
#04012:0013000000132300
#04015:00131300
#04018:0000001300001300
#0401b:0000000023000013
#0481b:0013000013002300
#04818:0000130000130000
#04815:0000001300000013
#04812:00002313
#05319:0014000000000000
#05318:00140000
#05317:0000001400001400
#05313:0000000000140000
#05314:0000000000000014
#05312:00000013
#05316:0014
#0531a:24
#05716:0014000024000000
#0571a:00140000000024000000000000000000
#05712:1400240013132400
#0571b:0000000000001313
#03012:1400000014141414
#0301a:1414141414000000
#03016:00000014
#03018:0000000000000034
#0341a:1400000024142414
#03412:2414240014000000
#03416:0000001400001400
#03418:0034000000000000
#03414:0000000000340034
#05618:14
#05617:0000140000000014
#05612:13131400
#05614:0014000000000000
#0561b:00001313
#05615:0000001400000000
#05616:0000000000140000
#05613:00000014
#05812:1313000013130000
#0581b:0000131300001313
#0581a:0024
#05816:00000024
#05818:24
#05814:00240000
#05916:0014001400002400
#05912:2400240013130000
#0591b:0000000000001313
#0591a:24242400
#0601b:0000131300001313
#06012:1313000013132400
#06014:00240000
#06018:24
#06016:0024
#0451b:1300230000131313
#04516:00001400000014000000001300130000
#04512:23132300
#00752:0023000000000000
#00756:63130000
#0075b:13631300
#00757:0000002300000000
#0385b:0000001300006300
#03857:0000000000000023
#03852:00000013
#03952:63130000
#03956:0023000000000000
#03957:00630000
#0395b:1300000013000063
#00152:0000000000000062
#0025a:0000006200000000
#02352:00330000
#0235b:43
#0255b:00430000
#02552:33
#02557:0053
#0275b:43
#02752:00330000
#02756:0063
#0055b:0013
#00352:0000000000000062
#02652:53
#02657:0053
#02952:3354
#02955:00160000
#0295b:0043000000000000
#02956:00000054
#03256:0063
#03252:00000053
#0325b:0063
#03257:00000053
#03752:0000000000000013
#0375b:0013
#0285b:63
#02856:0063
#0065b:00000063
#00657:0000000000000023
#00656:00000013
#01157:53130000
#0115b:0023000000000000
#01152:13531300
#01156:0000002300000000
#01057:00000013
#01052:00000053
#01056:0000000000000023
#00952:0013
#04155:0000000000000013
#0415b:0013
#04258:0000001300000000
#0425b:0000000000000063
#04357:23
#04352:0000000000000053
#0435b:0000000000000063
#0465b:00000013
#04652:0000001300005300
#04656:0000000000000023
#0475b:53130000
#04757:0023000000000000
#04756:00530000
#04752:1300000013000053
#04952:0014
#06152:0000001600000000
#06158:00160000
#03052:54
#0305a:0064
#03056:00000064
#0315a:64
#03156:00000024000000000000000000000000
#0335a:0064
#03356:00000064
#0345a:64
#03452:0054
#03456:00000054
#03552:54
#03556:00000024000000000000000000000000
#0595a:1414
#05952:00140000
#05956:00000014
#05752:00000014
#05756:0014
#0585a:0014
#05856:00000014
#05858:14
#05854:00140000
#06054:00140000
#06058:14
#06052:00000014
#06056:0014
#05356:0044
#05357:00000044
#05458:44
#05459:00440000
#05456:0034
#05455:00000034
#0555a:0044
#05559:00000044
#05554:34
#05553:00340000
#05658:44
#05657:00440000
#05652:0034
#05653:00000034
#0455b:0000000000000013
#04552:0013
#0135b:0013
#00856:0000000000230000
#01257:0000000000230000
#01752:0013
#001320:0000000000000012
#002340:0022000000000000
#0023a0:0000001200000000
#0023c0:0000000000220000
#003320:0000000000000012
#004340:0022000000000000
#005320:0000000000000013
#006320:0023000000000000
#0063b0:0000001300230000
#0063b0:00000013
#006370:0000000000000053
#0073b0:23
#007361:13230000
#007321:0053000000000000
#0073b0:00132300
#007370:0000005300000000
#0073b0:0000000000000013
#0083b0:0023000000000000
#008360:0000000000130000
#009320:23
#0093b0:0000000000000013
#0103b0:0023000000000000
#010320:0000001300230000
#010320:00000013
#010360:0000000000000053
#011320:23
#011371:13230000
#0113b1:0053000000000000
#011320:00132300
#011360:0000005300000000
#011320:0000000000000013
#012320:0023000000000000
#012370:0000000000130000
#0133b0:23
#013350:0000000000132300
#013381:00000013
#013391:0000000000000023
#014351:0013230000000000
#014380:00130000
#0143a0:0000002300000000
#014350:0000000000132300
#014381:00000013
#0143b1:0000000000000023
#015321:13
#015361:00230000
#0173b1:13230000
#017381:0033000000000000
#017381:0000000000132300
#017350:00000013
#017340:0000000000000023
#018380:0013230000000000
#018351:00130000
#018331:0000002300000000
#018381:0000000000132300
#018350:00000013
#018320:0000000000000023
#0193b0:13
#019370:00230000
#021320:13230000
#021350:0033000000000000
#021320:0013
#022360:23
#0223b1:13
#022371:0023
#022320:0013
#023360:23
#0233b0:0013
#024370:23
#024321:13
#024361:0023
#0243b0:0013
#025370:23
#025370:0013
#0253b0:0000000000000023
#026320:13
#026360:0000002300000000
#026370:0013
#0263b0:0000000000000023
#027360:0013
#027320:0000000000000023
#0283b0:13
#028370:0000002300000000
#028360:0013
#028320:0000000000000023
#029320:0014
#029360:00000034
#030320:34
#030360:00240000
#0303a0:0014
#030360:00000034
#030380:0000000000000034
#0313a0:3400002400000000
#031360:00000054000000000000000000000000
#0323b0:0013
#032370:0000000000230000
#032361:0013
#032321:0000000000230000
#032321:00000013
#032361:0000000000000023
#032370:00000013
#0323b0:0000000000000023
#0333a0:0014
#033360:00000034
#0343a0:34
#034380:0034000000000000
#034360:00240000
#034320:0014
#034340:0000000000340034
#034360:00000034
#035320:3400002400000000
#035360:00000054000000000000000000000000
#0383b0:00000013
#038370:0000000000000033
#0393b0:23
#039321:13230000
#039361:0033000000000000
#039370:00130000
#0393b0:0023
#0393b0:0000000000000013
#040370:0023000000000000
#0423b0:0000000000000013
#043370:53
#0433b0:0023000000000000
#043320:0000000000000013
#044350:5323000000000000
#0433b1:0000000000000013
#044381:5323000000000000
#046321:00000013
#046361:0000000000000033
#047321:23
#0473b0:13230000
#047370:0033000000000000
#047361:00130000
#047321:0023
#047321:0000000000000013
#048361:0023000000000000
#049371:0000000000000013
#050371:23
#0503b1:0000001323000000
#051361:0000000000000013
#052361:23
#052321:0000001323000000
#052341:0000000000132300
#052361:0000000000000013
#053361:33
#053321:0023
#0623a1:000000000000000000000000000000000000000000000000000000000000000000000000000000000000000000000000140054005400540054005400540054005400540054005400540000540000540000540000540000540000540000540000
#062391:000000000000000000000000000000000000000000000000000000000000000000000000000000000000000000000000000000000000000000000000000000000000000000000000000000000000000000000000000000000000000000000000000054000000540000005400000054000000540000005400000054000000540000005400000054000000540000005400000000540000000000540000000000540000000000540000000000540000000000540000000000540000000000540000
#0633a1:540000540000540000540000540000540000540000540000540000005400000054000000540000005400000054000000540000005400000054000000540000005400000054000000540000000000540000000000540000000000540000000000
#063391:000000540000000000540000000000540000000000540000000000540000000000540000000000540000000000540000000000005400000000000000540000000000000054000000000000005400000000000000540000000000000054000000000000005400000000000000540000000000000054000000000000005400000000000000540000000000000054000000000000000000540000000000000000000000540000000000000000000000540000000000000000000000540000000000
#0643a1:54545454540054002400000000000000
#064391:0054005400540054000054000000540000000000000000000000000000000000
