This file was generated by Ched 2.7.0.0.
#TITLE " "
#ARTIST ""
#DESIGNER ""
#DIFFICULTY 0
#PLAYLEVEL
#SONGID ""
#WAVE ""
#WAVEOFFSET 0
#JACKET ""
#REQUEST "ticks_per_beat 480"
#00002: 4
#BPM01: 160
#00008: 01
#TIL00: ""
#VOLUME: ""
#HISPEED 00
#MEASUREHS 00
#00912:0014000000130000
#00918:00140013
#00914:0000001400000000
#0091a:0024
#05312:13
#0531b:0013000000000000
#05315:00130000
#05318:0000001300000000
#00415:00000000000000001300001300001300
#00418:00000000000012000023000023000023
#00416:00120000
#00515:00130000000000000000000013000000
#0051b:0000000000130000
#00518:0023000000000000
#00512:0024
#00510:0041
#00114:0012
#00118:0000000000120000
#00116:00000012
#00214:00000012
#00216:00120000
#00219:0000000000000012
#00316:12120012
#0031b:0012000000000000
#00319:0000001200000000
#00314:0012
#00318:0000000000120000
#01415:13
#01412:0013
#01419:00330000
#0141a:00000033
#02118:0000000000130000
#02115:00000013
#0211b:0000000000000013
#02112:1423
#02116:0014000000000000
#0211a:00140000
#0311b:0000000000130000
#03118:1300000000000013
#03112:00000013
#03115:0023
#0321b:0013000000000000
#03218:0000001300000000
#03212:00130013
#03215:2323
#0371b:0000000000000013
#03715:00000013
#03718:2300000000130000
#03712:0024
#0371f:0021
#03815:0013000000001300
#03818:0000130000130000
#03812:0000001300000000
#03813:0000000000000033
#03810:0041
#03915:0000000000130000
#0391b:00000013
#03918:0013
#03912:13
#03913:0033000000000000
#04018:00130000
#04015:0000001300000000
#04016:0000000000140014
#0401a:0024
#04012:00000024
#04115:0000000000130000
#04118:00000013
#04112:0000240000000013
#04116:0014001400000000
#0411a:2424
#04218:0013000000001300
#04215:0000130000130000
#0421b:0000001300000000
#04418:0000001300000000
#04416:0000000000140014
#04415:00130000
#04412:0024
#0441a:00000024
#01516:0000000000130013
#0151b:00002313
#01514:14
#01518:0014000000000000
#01512:00140000
#01510:0041
#01614:0013001300000000
#01619:23130000
#01617:00002313
#01612:0000000000130013
#02218:0013000000130000
#02212:00132300
#0221b:0000001300000013
#02215:23000013
#02515:0000000000130000
#02518:0014000000001300
#02512:0000000000000013
#02514:14140000
#0251b:0023
#02615:0013000000130000
#0261b:00132300
#02612:0000001300000000
#02618:23000013
#03018:0013
#0301b:00000013
#03015:13
#03012:00130000
#03318:00000013
#0331b:0013
#03315:13
#0341b:13
#03412:00000013
#03415:0013
#03418:00130000
#03413:0000000000330033
#03419:0000003300000000
#0341a:0033000000000000
#03512:0000130000130013
#03515:13
#03518:00002323
#03615:0013001300000013
#03612:0000000000130000
#03618:0023
#0361b:23230023
#00615:00130000
#0061b:0000001300000000
#00612:0000000000130000
#00618:00000013
#0071b:13
#00712:0000000000130000
#00718:00130013
#00818:00130000
#00812:0000002400000000
#0081a:0000000000240000
#01018:00130000
#01012:0000001300000000
#0101b:0000000000130000
#01015:00000013
#01112:13
#0111b:0000000000130000
#01115:00130013
#01215:00130000
#0121a:0000002400000000
#01212:0000000000240000
#01312:0014
#0131a:0014000000003300
#01314:00140000
#01318:0000001400000000
#0171a:1414
#01716:0014000000000000
#01712:00140000
#01713:00000033
#01918:14
#01914:0014000000000000
#0191a:00140000
#01917:0000000000130013
#01912:00002313
#01818:13
#0181b:0013
#01814:00330000
#01813:00000033
#02019:0013001300000000
#02014:23130000
#02016:00002313
#0201b:0000000000130013
#02318:0013000000130000
#02312:00000013
#0231b:0000000000000013
#02315:0023
#02319:33330000
#02418:0013000000130000
#02415:00132300
#0241b:0000001300000013
#02412:23000013
#02715:0000000000130000
#0271b:00000013
#02712:0000000000000013
#02718:0023
#02710:0041
#02815:0013000000130000
#02818:00132300
#02812:0000001300000013
#0281b:23000013
#02918:14140000
#02914:0014000000000000
#02915:0013
#02912:00000013
#0291f:0011
#04516:0014001400000000
#0451b:0000000000000013
#04515:00000013
#04518:0000000000130000
#04512:2424
#0451a:00240000
#04615:0013000000001300
#04618:0000130000130000
#04612:0000001300000000
#04613:0000000000000033
#04610:0041
#04715:0000000000130000
#0471b:00000013
#04718:0013
#04712:13
#04713:0033000000000000
#04818:00130000
#04815:0000001300000000
#04816:0000000000140014
#0481a:0024
#04812:00000024
#04916:0014001400000000
#04915:0000000000130000
#04918:00000013
#0491a:2424
#04912:00240000
#0501b:00130000
#05018:00000013
#05015:0000000000000013
#0511b:13
#05112:0013000024000000
#05118:0000130000130000
#05115:00000013
#05212:00130000
#05418:0013000000000013
#05415:00130013
#05410:0041
#05715:1313000000000000
#05718:00130000000000000000000000000000
#0571a:00240000
#0571b:0023
#05712:0000002400000000
#0561b:0013000000000013
#05615:00130013
#0551a:0014001400000000
#05512:24240000
#05815:0013000000000013
#05818:00130013
#06118:1313000000000000
#06115:00130000000000000000000033000000
#0611b:0000000000000013
#06112:00241300
#0611a:00000000000024000000000000000033
#06113:00000000000000000033330000000000
#06114:00000000000000000000003300000000
#06116:00000000000000000000000000330000
#06012:0013000000000013
#06018:00130013
#05912:0014001400000000
#0591a:24240000
#05918:0023
#06217:00000000333333331300000000000000
#0621a:33
#06219:00333300000000000000000000000000
#06218:00000033000000000000000000000000
#04315:0013
#04318:0000230000130000
#04312:00000013
#0375b:0000000000000013
#03758:53
#03852:0000001300000000
#03855:00000053
#04152:0000000000000013
#0425b:0000001300000000
#03058:0053
#0305b:00000053
#03055:63
#03052:00630000
#03158:53
#03358:00000063
#0335b:0063
#03355:63
#0345b:63
#03452:00000063
#03455:0063
#03458:00230000
#03555:63
#03552:00230000
#00552:0014
#00658:00000053
#0075b:6313
#00758:00630000
#01055:00000063
#01152:5313
#01155:00530000
#0095a:0014
#01352:0014
#02554:00140000
#02958:00140000
#02955:0063
#02952:00000063
#02358:0023000000000000
#0225b:0000000000000053
#03252:00000063
#03255:0063
#03952:23
#0455b:0000000000000013
#04652:0000001300000000
#04655:00000053
#04752:23
#06257:0023
#0615b:0000000000000063
#06152:0063
#0085a:0000000000540000
#01252:0000000000640000
#0175a:0014
#0013a0:0000000000000012
#0023a0:0022000000000000
#002380:0000001200220000
#0033a0:0000000000000012
#0043a0:0022000000000000
#005380:0000000000000013
#006380:0023000000000000
#006380:00000013
#0073b0:3323
#007380:00330000
#007350:0000000000000013
#008350:0023000000000000
#0083a0:0000000000140000
#009360:24
#009350:0000000000000013
#010350:0023000000000000
#010350:00000013
#011320:3323
#011350:00330000
#011380:0000000000000013
#012380:0023000000000000
#012320:0000000000140000
#013360:24
#013380:0000000000130000
#0133a0:00000033
#0133b0:0000000000000023
#0143b0:0013000000000000
#014390:00330000
#014380:0000002300000000
#014380:0000000000130000
#0143a0:00000033
#0143b0:0000000000000023
#017350:0000000000130000
#017330:00000033
#017320:0000000000000023
#018320:0013000000000000
#018340:00330000
#018350:0000002300000000
#018350:0000000000130000
#018330:00000033
#018320:0000000000000023
#0223b0:0000000000000013
#023390:33330000
#023380:0033000000000000
#0233b0:0000002300000000
#026320:0000000000000013
#027330:33
#027340:0033000000000000
#027350:00230000
#029350:0013
#029320:00000033
#030350:3323
#030320:00330000
#030381:0013
#0303b1:00000033
#031381:33
#0313b1:0023
#032351:0013
#032321:00000033
#033351:33
#033321:0023
#0333b0:0013
#033380:00000033
#0343b0:3323
#0343a0:0033000000000000
#034380:00330000
#034390:0000003300000000
#034351:0013
#034331:0000000000330033
#034321:00000033
#035351:3323
#035321:00530000
#037381:13
#0373b1:00230000
#038351:00000013
#038331:0000000000000033
#039321:33
#039331:0033000000000000
#039351:00230000
#039321:0000000000000013
#040321:0023000000000000
#042321:0000000000000013
#043351:0023000000000000
#0433b1:0000000000000013
#044381:0023000000000000
#046351:00000013
#046331:0000000000000033
#047321:33
#047331:0033000000000000
#047351:00230000
#047321:0000000000000013
#048321:0023000000000000
#049321:0000000000000013
#050351:0023000000000000
#050351:0000001300000000
#050321:0000000000230000
#0513b1:0000000000000013
#052381:0023000000000000
#052381:0000001300000023
#0523b1:0000000000330000
#053321:0013
#053331:0000000000330000
#053341:00000033
#053351:0000000000000023
#0543b1:0000001300230000
#055351:0013
#055341:0000000000330000
#055331:00000033
#055321:0000000000000023
#056381:0000001300230000
#0573b1:0013
#0573a1:0000000000330000
#057391:00000033
#057381:0000000000000023
#058321:0000001300230000
#059381:0013
#059391:0000000000330000
#0593a1:00000033
#0593b1:0000000000000023
#060351:0000001300230000
#061321:0013
#061331:00000000000000000033330000000000
#061341:00000000000000000000003300000000
#061351:00000033
#061361:00000000000000000000000000332300
#0613b0:0000000000000013
#0613a0:00000000000000000000000000000033
#0623a0:33
#062390:00333300000000000000000000000000
#062380:00000033000000000000000000000000
#062370:00000000333333333300000000000000
#0643b0:0023
#062321:000000000000000000000000000000000000000000000000000000000000000000000000000000000000000000000000140054005400540054005400540054005400540054005400540000540000540000540000540000540000540000540000
#062331:000000000000000000000000000000000000000000000000000000000000000000000000000000000000000000000000000000000000000000000000000000000000000000000000000000000000000000000000000000000000000000000000000054000000540000005400000054000000540000005400000054000000540000005400000054000000540000005400000000540000000000540000000000540000000000540000000000540000000000540000000000540000000000540000
#063321:540000540000540000540000540000540000540000540000540000005400000054000000540000005400000054000000540000005400000054000000540000005400000054000000540000000000540000000000540000000000540000000000
#063331:000000540000000000540000000000540000000000540000000000540000000000540000000000540000000000540000000000005400000000000000540000000000000054000000000000005400000000000000540000000000000054000000000000005400000000000000540000000000000054000000000000005400000000000000540000000000000054000000000000000000540000000000000000000000540000000000000000000000540000000000000000000000540000000000
#064321:54545454540054002400000000000000
#064331:0054005400540054000054000000540000000000000000000000000000000000
