This file was generated by Ched 2.7.0.0.
#TITLE ""
#ARTIST ""
#DESIGNER ""
#DIFFICULTY 0
#PLAYLEVEL
#SONGID ""
#WAVE ""
#WAVEOFFSET 0
#JACKET ""
#REQUEST "ticks_per_beat 480"
#00002: 4
#BPM01: 160
#00008: 01
#TIL00: ""
#VOLUME: ""
#HISPEED 00
#MEASUREHS 00
#0291f:0011
#02919:00000000000000000000120000000012
#02915:00003600000000000000001200001200
#0291b:00000013
#02917:12
#02914:00180000000000000000000000000000
#02912:002c
#01212:0000002300231300
#01215:00000013001300000000000000000000
#01218:0013130000000000
#0121b:0000002313000000
#01216:0013
#01217:0000000000230000
#01312:1300001300000000
#01316:00131400
#01315:00130000000000000000140000000000
#01317:0000001300000000
#0131b:00130000
#01318:0013000000000000
#01313:0000000000000014
#01314:00000014
#0081b:0000002300231300
#00812:0000002313000000
#00817:0013
#00815:0013130000000000
#00818:00000013001300000000000000000000
#00816:0000000000230000
#04215:0013130000000000
#04218:00000013001300000000000000000000
#0421b:0000001300130000
#04212:0000001300001300
#04216:0000000000141414
#04115:00000000000000000000001300130000
#04118:0000000000131300
#04112:2300000023000013
#0411b:0000230013000013
#04117:0000001300000000
#04116:0013000000000000
#04012:0013001323000000
#04018:00000000001300000000000000000000
#04015:00130000
#0401b:00000013000000000000000023000000
#04017:0000000000000013
#04016:0000000000130000
#03912:0013000000000014
#03914:00000013
#0391b:0013
#03918:00000000000000000000001300000000
#03916:0000000000130000
#05512:14241400
#05518:00000000000000000000000016000013
#05515:00000000000000000000001300001300
#0551b:0000000000130000
#05516:0014001400000000
#0551a:24142400
#0571a:0014240014000000
#05716:00000000000024002400000000001414
#05718:14000000000000000000141400000000
#05714:00140000000000000000000024000000
#05712:00240000
#05318:00140014000016001600001300001300
#05314:1414140000000000
#05315:00000000000000000000000000000013
#05312:00000000000000160000130016000000
#0371a:00000000140000140000000000001400
#03716:0014000000140000
#03712:00140000140014002c00000000000000
#03718:14000014
#03715:00000000000000000000000000130000
#03713:00000000000000000000001300000000
#0371f:0021
#03616:00001414000014140000000014000000
#0361a:00000000000000000000001400000000
#03614:00000000000000000000140000000014
#03618:00000000260000000014000000002600
#03612:2626
#0511a:2414240014000000
#05116:0000001400140000
#05112:00001400140000002400001428000000
#05118:00000000000000000000000000000014
#05114:0000000000000014
#0481b:0013001300000000
#04815:00000000001300000000000000000000
#04818:00130000
#04812:00000013000000000000000014001400
#04816:0000000014142400
#0481a:0024
#0471a:0000000000000014
#04719:00000013
#04712:0013
#04715:00000000000000000000001300000000
#04717:0000000000130000
#0471b:0013000000000000
#04417:0013000000000000
#0441a:0000000000001414
#04416:0000000014142400
#04418:0000001300000000
#0441b:00130000
#04415:00000000001300000000000000000000
#04412:0013000024000000
#03515:00000000001400000000000000001400
#03518:0000000000142600
#03517:00000000000000000000000000000014
#03514:00000000000000000000001400000000
#03512:00180000220012002600000000000000
#0351a:0014000000000000
#03516:28
#04612:0000001400001313
#04618:00000000001300000000000000000000
#04614:00140000
#0461a:00000013000000000000000000000000
#04616:0014000000130000
#0461b:0000000000130000
#04610:0041
#0381b:0000000000001313
#03817:0000000000130000
#03812:0000001400130000
#03818:00000000001300000000000000000000
#03814:00140000
#0381a:00000013000000000000000000000000
#03816:0014000000000000
#03810:0041
#01012:0000001300000000
#01017:00000000001300000000000000000000
#01014:00130000
#01019:00000013000000000000000000000000
#01016:0013000000000000
#0101b:0000000000001313
#01015:00000000000000000000001300000000
#01018:0000000000130000
#04316:0024000000000013
#0431b:0000230013000013
#04319:00000013
#04314:00000013
#04312:0000230000130000
#04317:0000000000130000
#03416:00001200000000120000000000000012
#03417:0000000000120012
#03418:00000012000012002600001200000000
#03412:00250027
#0341a:24
#03315:00000014000014000000120000000012
#03319:00001400000000000000001200001200
#03312:00000000000000142c00000023000000
#03313:00000000001400000000000000000000
#03317:00140000140000000000000000000000
#0331a:24
#0111b:0000001300130013
#01115:00000000000000000000001300130000
#01118:00000013
#01117:0013
#01116:0013000000000000
#0601a:24000000000000000000000000000014
#06016:00001414000000002600000000001400
#06012:00000000000000000000141428000000
#06014:00000000000014140000000000000000
#06019:00250000
#05912:24241400
#05916:00001400000014002400000000001414
#05914:00000000000000000000141400000000
#05918:00000024
#0591a:24240000
#0581a:00000000000000000000141400000000
#05818:00000000000014140000000000000000
#05816:00001414000000000000000028001400
#05812:24250000
#05814:0026
#05612:00000000000013001300001316000014
#05615:13000013160000130000130000000000
#05618:0013000000000000
#05616:0000000000000014
#0541b:00000000000013001300001300000000
#05418:13000013000000130000130016000000
#05415:0013160000000000
#05416:0000000000000014
#05410:0041
#05218:00000000000000130000000000000014
#05215:0000001300000000
#05216:00000014280000000000000000000000
#0521a:0014000024242400
#05214:2800000000000014
#05212:0000000024242400
#01819:0013000012000000
#01818:13
#0181c:0000000000000012
#0181b:0000001300001200
#0181a:0000130000120000
#01716:0014
#01719:0000000000000014
#01718:00000014
#01717:0000000000140000
#01712:00130000
#0171b:13
#02012:00120012
#02014:0012001400120000
#02015:0000000000000013
#02017:00000013
#02019:0000000000130000
#02016:12141200
#02018:0014000000000000
#0201b:0023
#0201a:24
#01912:14000012
#01914:0014000000120000
#01918:12
#0191a:0012000000000000
#0191c:00120000
#01916:00141200
#01913:0000000000000015
#01915:00000015
#01917:0000000000150000
#01919:0025
#04913:00000000000000000000000000000014
#04919:0000000000000014
#0491a:24000000000000000000001400000000
#04912:0000141400140000
#04916:1414240000002400
#04917:0022
#05015:26000000000000140000000000000013
#05018:00000014000000000000000000001300
#05017:0000001400000000
#05014:0014280000000000
#05016:00000000000000000000141400000000
#05012:0000002c
#05013:002a
#0451a:0000141400000014
#04516:1414240000140000
#04515:00000000000000000000000000130000
#04518:00000014
#04513:00000000000000000000001300000000
#04512:242c
#0211b:00130000
#02112:1300000000120000
#02115:0000000023130000
#02118:0013
#02114:0000000000000012
#02113:00000012
#00716:0013
#00712:0000001300130013
#00717:0013000000000000
#00718:00000000000000000000001300130000
#00715:00000013
#00612:0000000000001313
#00618:00001300130000000000001300000000
#00615:00000013001300000000130000000000
#0061b:0000001300000000
#03012:1416
#03018:00001200000000120000000000000012
#03017:0000000000121712
#03016:00000012000012000000001200000000
#03019:00150000
#03216:00000014000000140000141400001414
#03217:0000001400000000
#03212:00140024
#03214:0014000000000000
#0321a:2424
#03119:0000000000000014
#03112:1814000000141400
#03116:00180000000000000000001400000014
#03117:00000000001400000000000000000000
#0311c:0000121200000000
#0311a:0024
#01415:1312
#01412:0000001300000012
#01413:00130012
#01414:0013000000120000
#06212:0016
#06214:00120000000000120000000000000000
#06218:1212001200000000
#06216:00000012001200000000000000000000
#0621a:00120000
#06414:0012
#06412:0000000000120000
#06416:00000000000000000012000000000000
#0281c:0000000000000012
#02814:0000000000130000
#02817:0013
#02813:0013000000000000
#02816:13
#0281b:0000001200001200
#0281a:0000120024120000
#02819:2512000000000000
#02815:0000000000000026
#0221b:0000000000000013
#02217:0000000023130000
#0221a:0013
#02216:2313000000000012
#02219:13
#02215:0000001200001200
#02214:0000120000120000
#02213:0012000000000000
#02412:0000000000000013
#02416:0000000023130000
#02413:0013
#02417:2313000000000000
#02414:13
#02419:0000001200001200
#0241a:0000120000120000
#0241b:0012000000000000
#02418:0000000000000012
#02615:0012000000000016
#02619:0000000000130000
#02616:0013
#0261a:0013000000000000
#02617:13
#02612:2500000024000012
#02613:0000001200001200
#02614:0000120000120000
#02712:0000130000130000
#02715:1316000013000000
#0271a:0000000000000012
#02719:00000012
#02718:0000130026120000
#0271b:13
#02710:0041
#02318:0000000023130000
#02315:0013
#0231a:0000000000000012
#0231b:13130012
#0231c:0000000000120000
#02316:0014001400000000
#02312:13130000
#02516:0014000000120000
#02512:13132600
#0251b:1300130000130000
#02518:0013
#02514:0000000000000012
#02515:00000012
#0161c:00120012
#0161a:0012000000120000
#01618:1200001412000013
#01616:00140013
#01614:0014000000130000
#01612:2423
#0151c:00000012
#0151a:1400000000120000
#01516:12140015
#01514:0012000000150000
#01512:00122500
#01518:0014000012000015
#01510:0041
#00918:00130000000000000000000000000000
#0091b:1300001323000013
#00916:00000000000013000000000000130000
#00919:00000013
#00914:00000000000000000000001300000000
#00917:0000130000130000
#00912:00132300
#00915:0013000000000000
#00412:0000001200000000
#00416:00000000120000000024001224000000
#00418:0000001212000000
#0041c:00120000
#0041a:0000000000000012
#00414:00000000000000000000000000000028
#00316:0000000012000012
#0031c:0012000000000012
#0031a:12000012
#00314:00000012
#00318:0000000000120000
#00312:0000001200120000
#00212:0000001200000012
#00214:00000012
#00216:00120000
#00218:0000001200000012
#0021a:00000012
#0021c:00120000
#00116:0000000012000012
#0011c:0000000012000012
#0011a:00000012
#00114:00000012
#00118:0000000000120000
#00112:0000000000120000
#00514:00122800000000000000000000000000
#00512:0000000023000013
#00518:00000000000000000000001300130000
#00515:0000000000131300
#0051b:0023
#00510:0041
#06116:00000000280000000000120012000012
#06118:00140000000000000012000000120000
#0611a:00000000000000002400001200002400
#06112:0014002824000024
#06114:14
#0475b:43
#04752:00331300
#0475a:0000000000000014
#03952:3300000000000014
#0395b:00431300
#0075b:4343
#00756:00430000
#00752:0000000000000013
#01152:3333
#01157:00330000
#0115b:0000000000000013
#01257:0000000000230000
#00856:0000000000230000
#06052:00000048
#06059:00450000
#06056:0046
#0605a:44
#05958:00000044
#05956:0044
#0595a:44
#05952:00340000
#05856:00000038
#05852:34350000
#05854:0036
#05152:00643448
#0515a:00440000
#05156:0000002400000000
#05256:00480000
#05254:38
#04957:0012
#04956:00440014
#0495a:44
#05055:16
#05052:0000001c
#05053:001a
#05054:00180000
#0485a:0044
#04856:00000044
#04552:341c
#04556:00340000
#0455a:0000000000000044
#04452:0034
#04456:00000034
#03352:004c
#02952:003c
#02957:52
#02954:00280000000000000000000000000000
#05754:00000034
#05756:0034
#06156:00480000
#06152:0000003800000000
#04152:1313
#0415b:0000130000000043
#02855:0000000000000056
#02854:0000000000230000
#02857:0063
#02853:0023000000000000
#02856:63
#00952:0013
#0095b:0000000000000043
#0405b:00000013
#04052:0013
#03752:001c
#0375a:0000000000000044
#0055b:0013
#00552:0000000000000013
#04252:0000003300000000
#04256:0000000000000014
#05552:3434
#05558:00000016
#0555a:00440000
#05358:0016
#05352:00000016
#04652:0000003400003300
#01052:0000003300000000
#0105b:00000013
#04356:0000000000000013
#0435b:0000000000000013
#05652:00001316
#05655:13160000
#05458:13000016
#0545b:0013
#05455:00160000
#01859:0012
#01858:13
#01756:0014
#00652:00000013
#0065b:0000001300000000
#03157:00000000002400000000000000000000
#03152:0064000000000000
#03555:00000000002400000000000000000000
#0355a:0054000000000000
#01455:1312
#01356:0014
#02752:0000330000230000
#02755:0063
#0275b:43
#02456:0000000000230000
#02453:0053
#02457:0023000000000000
#02454:53
#02358:0000000000230000
#02355:0053
#02352:00330000
#0235b:43
#0255b:0000430000230000
#02552:33
#02558:0053
#0385b:00000043
#03852:0000003400000000
#02659:0000000000230000
#02656:0053
#0265a:0023000000000000
#02657:53
#02257:0000000000230000
#0225a:0063
#02256:0023000000000000
#02259:63
#02155:0000000000230000
#02158:0063
#00356:0000000000000052
#0035c:0000000000000052
#00252:0000006200000000
#00258:0000006200000000
#00156:0000000000000052
#0015c:0000000000000052
#001360:0000000000000012
#002320:0022000000000000
#0013c1:0000000000000012
#002381:0022000000000000
#002321:0000001200000000
#002361:0000000000220000
#002380:0000001200000000
#0023c0:0000000000220000
#003340:12220000
#0033a1:00122200
#003361:0000000000000012
#004321:0022000000000000
#0033c0:0000000000000012
#004380:0022000000000000
#0063b0:00000013
#006370:00000000000000000000000000530053
#0073b0:23
#007361:13230000
#007321:00530053000000000000000000000000
#0073b0:00132300
#007370:00000000005300530000000000000000
#0073b0:0000000000000013
#007380:00000000000000000000000000000053
#008380:0023000000000000
#008360:0000000000130000
#009320:23
#010320:00000013
#010360:00000000000000000000000000530053
#011320:23
#011371:13230000
#0113b1:00530053000000000000000000000000
#011320:00132300
#011360:00000000005300530000000000000000
#011320:0000000000000013
#011350:00000000000000000000000000000053
#012350:0023000000000000
#012370:0000000000130000
#0133b0:23
#0133a0:0000000014000024
#014380:1300002300000000
#014370:0000000012000022
#017320:13
#017360:0023000000000000
#0173b1:0013000000000000
#017371:00230000
#017321:0000000014000024
#018351:1300002300000000
#018371:0000000012000022
#0213b1:13
#021371:0023000000000000
#021320:0013000000000000
#021360:00230000
#021380:0013
#021350:0000000000530000
#021390:00000053
#022390:53
#022360:0053000000000000
#0223a0:00535300
#022370:0000000000530000
#0223b0:00000023
#023350:0013
#023380:0000000000530000
#023340:00000053
#024340:53
#024370:0053000000000000
#024330:00535300
#024360:0000000000530000
#024320:00000023
#025380:0013
#0253b0:0000000000530000
#025370:00000053
#026370:53
#0263a0:0053000000000000
#026360:00535300
#026390:0000000000530000
#026350:00000023
#027350:0013
#027320:0000000000530000
#027360:00000053
#028360:53
#028330:0053000000000000
#028370:00535300
#028340:0000000000530000
#028380:00000023
#028350:0000000000000016
#028370:000000000000000000000000000000000000000000000000000000000000000000000000000000000000005200000000
#029370:32
#029340:00580000000000000000000000000000
#029350:0036000000000000
#029360:00240000
#031320:0014000024000000
#031370:00000000005400000000000000000000
#0353a0:0014000024000000
#035350:00000000005400000000000000000000
#038320:00000013
#038360:00000000000000000000000000530053
#039320:23
#0393b1:13230000
#039371:00530053000000000000000000000000
#039320:00130000
#039370:00000000005300002300000000000000
#0393a0:0000000000000014
#039360:00000000000000000000000000000054
#040360:0024000000000000
#040370:0013
#0403b0:0000000000332300
#040361:00000013
#040321:0000000000000033
#041321:23
#041370:13
#0413b0:0033230000000000
#041361:00130000
#041321:0000003323000000
#0423b1:0000000000000013
#042371:00000000000000000000000000000053
#043371:00530000000000000000000000000000
#0433b1:0023000000000000
#043321:00130000
#043361:00000000005300002300000000000000
#0463b1:00000013
#046371:00000000000000000000000000530053
#0473b1:23
#047320:13230000
#047360:00530053000000000000000000000000
#0473b1:00130000
#047361:00000000005300002300000000000000
#047321:0000000000000014
#047361:00000000000000000000000000000054
#048361:0024000000000000
#051321:00142400
#051361:0000005400000000
#062381:000000000000000000000000000000000000000000000000000000000000000000000000000000000000000000000000160056005600560056005600560056005600560056005600560000560000560000560000560000560000560000560000
#062371:000000000000000000000000000000000000000000000000000000000000000000000000000000000000000000000000000000000000000000000000000000000000000000000000000000000000000000000000000000000000000000000000000056000000560000005600000056000000560000005600000056000000560000005600000056000000560000005600000000560000000000560000000000560000000000560000000000560000000000560000000000560000000000560000
#063381:560000560000560000560000560000560000560000560000560000005600000056000000560000005600000056000000560000005600000056000000560000005600000056000000560000000000560000000000560000000000560000000000
#063371:000000560000000000560000000000560000000000560000000000560000000000560000000000560000000000560000000000005600000000000000560000000000000056000000000000005600000000000000560000000000000056000000000000005600000000000000560000000000000056000000000000005600000000000000560000000000000056000000000000000000560000000000000000000000560000000000000000000000560000000000000000000000560000000000
#064381:56565656560056002600000000000000
#064371:0056005600560056000056000000560000000000000000000000000000000000
