This file was generated by Ched 2.7.0.0.
#TITLE ""
#ARTIST ""
#DESIGNER ""
#DIFFICULTY 0
#PLAYLEVEL
#SONGID ""
#WAVE ""
#WAVEOFFSET 0
#JACKET ""
#REQUEST "ticks_per_beat 480"
#00002: 4
#BPM01: 160
#00008: 01
#TIL00: ""
#VOLUME: ""
#HISPEED 00
#MEASUREHS 00
#0061a:14
#00614:0014
#00714:14
#00712:0014
#00718:00140000
#00812:14
#0081a:0014
#0091a:14
#00914:00140000
#00918:0024
#03718:0000000000000014
#0371a:0024
#03712:24
#0371f:0021
#03918:1414
#03914:00140000
#0391a:0000000000000014
#04912:00001414
#04914:24
#04918:00240000
#0501a:14140000
#05014:00001414
#05118:14140000
#05112:00001414
#0521a:14140000
#05219:0000003400000000
#05217:0000000000340000
#05216:0000000000000034
#05518:14140000
#05514:0014
#0551a:00000014
#01414:14
#0141a:0014
#01618:14
#01612:0014
#01514:0014
#01510:0041
#01812:14
#01818:0014
#0171a:0014
#0201a:14
#02014:0014
#01912:0014
#0251a:0014
#02518:0000000000003414
#02514:34
#02914:34000014
#0291f:0011
#0291a:0024
#03018:1414
#03014:00000014
#03012:00140000
#0311a:14000014
#03112:0014
#03214:14
#03218:00140000
#03212:0024
#03216:00000024
#03318:00000014
#03312:0014
#0331a:24
#03414:1414
#03418:00000014
#0341a:00140000
#03512:14000014
#0351a:0014
#03618:14
#03614:00140000
#0361a:0024
#03616:00000024
#03814:00000014
#03810:0041
#04114:2400000000000014
#04112:0014
#04118:00240000
#04314:1414
#04318:00140000
#04312:0000000000000014
#04218:00000014
#04718:1414
#04714:00140000
#0471a:0000000000000014
#04614:00000014
#04610:0041
#0451a:2400000000000014
#04518:0014
#04512:00240000
#05314:0014
#0531a:00000014
#05316:34
#05414:14140000
#05418:0014
#05412:00000014
#05410:0041
#05614:14140000
#05618:0014
#05612:00000014
#06112:0016
#0611a:24240000
#01314:00140000
#0131a:14
#01318:0024
#01018:14
#01012:0014
#01112:14
#01114:0014
#01118:00140000
#01214:14
#0121a:0014
#0581a:00140000
#05814:1414
#05818:00000014
#05912:14140000
#05914:00000014
#0591a:0024
#06012:00140000
#06018:1414
#06014:00000014
#05718:24240014
#05714:0014000000000000
#05712:0024
#02614:0014
#02612:0000000000003414
#02618:34
#02718:0014
#0271a:0000000000003414
#02712:34
#02710:0041
#02812:0014
#02814:0000000000003414
#0281a:34
#0051a:0024
#00510:0041
#04418:0024
#04414:00000024
#04012:0024
#0401a:00000024
#04812:0024
#0481a:00000024
#02218:34
#02312:34
#0241a:34
#0375a:0064
#03758:0000000000000054
#03958:0054
#0395a:0000000000000024
#0255a:0064
#02558:0000000000000024
#0145a:0054
#01652:0064
#01858:0064
#02054:0054
#0385a:0000001400000000
#04354:0064
#04352:0000000000000024
#04252:0000001400000000
#04152:0054
#04154:0000000000000054
#04558:0054
#0455a:0000000000000054
#04658:0000001400000000
#0475a:0000000000000024
#04758:0054
#0525a:00540000
#05752:0014
#02654:0064
#02652:0000000000000024
#02758:0054
#0275a:0000000000000024
#02852:0054
#02854:0000000000000024
#05354:0014
#001340:0014
#002320:0000003400000000
#003340:3434
#003320:00340000
#004320:0000003400000000
#005340:24
#0143a0:0014
#015380:24
#016320:0014
#017340:24
#018380:0014
#0193a0:24
#020340:0014
#021320:24
#0213a0:0014
#022380:34240000
#022340:0014
#023320:34240000
#023380:0014
#0243a0:34240000
#024320:0014
#025340:34240000
#0253a0:0014
#025380:0000000000003454
#026380:34
#0263a0:00240000
#026340:0014
#026320:0000000000003454
#027320:34
#027340:00240000
#027380:0014
#0273a0:0000000000003454
#0283a0:34
#028380:00240000
#028320:0014
#028340:0000000000003454
#029340:34
#029320:00240000
#0373a0:0014
#037380:0000000000000034
#0383a0:0000002400000000
#039380:0014
#0393a0:0000000000000034
#040380:00240000
#041320:0014
#041340:0000000000000034
#042320:0000002400000000
#043340:0014
#043320:0000000000000034
#044340:00240000
#045380:0014
#0453a0:0000000000000034
#046380:0000002400000000
#047380:0014
#0473a0:0000000000000034
#048380:00240000
#0523a0:00140000
#052390:0000003400000000
#052370:0000000000340000
#052360:0000000000000034
#053360:34
#053370:00240000
#062380:0000000015555555
#062390:00000000000000000055005500550055
#063380:5555555555555555
#063390:00550055005500550055005500550055
#064380:5555555525000000
#064390:00550055005500550000000000000000
