This file was generated by Ched 2.7.0.0.
#TITLE ""
#ARTIST ""
#DESIGNER ""
#DIFFICULTY 0
#PLAYLEVEL
#SONGID ""
#WAVE ""
#WAVEOFFSET 0
#JACKET ""
#REQUEST "ticks_per_beat 480"
#00002: 4
#BPM01: 126
#00008: 01
#TIL00: ""
#VOLUME: ""
#HISPEED 00
#MEASUREHS 00
#01414:14
#0151a:14
#01614:14
#01812:14
#01918:14
#02012:14
#03718:14
#0371f:11
#03814:14
#0391a:14
#04012:14
#04118:14
#04214:14
#0431a:14
#04512:0016
#04518:26
#0451f:21
#04712:16
#04718:0016
#04918:16
#04912:0016
#05112:16
#05118:0016
#05418:14
#05412:0014
#0551a:14
#05514:0014
#05612:0014
#05618:14
#0581a:14
#05814:0014
#05918:14
#05912:0014
#0601a:14
#06014:0014
#0211a:14
#0221a:14
#02314:14
#02414:14
#02518:14
#02510:41
#02618:14
#02712:14
#02812:14
#01718:14
#01710:41
#05718:14
#05712:0014
#05314:0014
#0531a:24
#06214:0014
#06418:0014
#06612:0014
#0131a:24
#00910:41
#04610:41
#06110:41
#03310:41
#005380:14
#006380:24
#007340:14
#008340:24
#0093a0:14
#0103a0:24
#011320:14
#012320:24
#0293a0:14
#0303a0:24
#031320:14
#032320:24
#033380:14
#034380:24
#035340:14
#036340:24
#044320:1424
#046380:1626
#048320:1626
#050380:1626
#052320:1626
#0613a0:14
#0623a0:24
#063340:14
#064340:24
#065380:14
#066380:24
#067320:14
#068320:34
#068330:0000003400000000
#068340:00000024
