This file was generated by Ched 2.7.0.0.
#TITLE ""
#ARTIST ""
#DESIGNER ""
#DIFFICULTY 0
#PLAYLEVEL
#SONGID ""
#WAVE ""
#WAVEOFFSET 0
#JACKET ""
#REQUEST "ticks_per_beat 480"
#00002: 4
#BPM01: 126
#00008: 01
#TIL00: ""
#VOLUME: ""
#HISPEED 00
#MEASUREHS 00
#04512:24000000130000000000001300000000
#0451b:00130000
#04518:00001300000013000013001300000000
#04515:00000000000000130000000000001300
#0451a:24
#0451f:21
#0471b:1313000000000000
#04716:13
#04714:0000130000000013
#04719:0000131300000000
#04712:00000013
#04717:0000000013130000
#05215:00000000000013000000130000130013
#05218:0000000000001313
#05217:13
#0521b:00001300000000130000000000000000
#05212:00131300
#06117:13000000000000000000001300000000
#0611b:0000001300000000
#06112:1323002300230023
#06110:41
#00513:12
#00517:0012000000000000
#0051b:00120000
#00518:0000001200000012
#00516:00000000000000000000001200000000
#0061c:1200001200000000
#00612:12000012000000001200000012000000
#0061a:0000000000000012
#00618:00000012
#00716:1200000000120000
#00712:00000000120000120000000000001200
#00714:0012000000001200
#0071c:1200000000000000000000120000000000000000000000000000000000000000
#00718:00120000
#00818:00000012000000001200000000000000
#0081c:12
#00816:1200001200000000
#0101a:0000000000000012
#01012:12000000000000120000000012000000
#01018:1200001200001200
#01016:00000012000000000000000000000000
#0111c:12
#01116:1200000000000012
#01112:00000000120000120000000000000000
#01118:0012001200001200
#0111a:0000000000120000
#0121c:12
#01214:12
#01217:0000000000000022
#01212:0000000000000022
#01319:0013000000000000
#01314:0013000000000000
#01317:00130000
#01312:0000131300000000
#01315:00000000000000000013000000000000
#01316:23
#0131b:23
#0211b:1300131300000000
#02115:0013000000000000
#02116:00000000000000130000000000000000
#02117:00000000000000000000130000130000
#02112:13000013
#0221b:1313000000130000
#02212:13000000001300000000000013000000
#02215:00000013000000001300000000000000
#02218:00000000130000130000000000130000
#02312:13000000000000130000000013000000
#02315:00130000
#0231b:00001300001300000000130000000000
#02318:13000013
#02317:00000000000000130000000000000000
#02314:0000000000000013
#0241b:1313
#02412:00130013
#02416:13
#02914:0013000000000000
#02919:0013000000000000
#02916:00000000130000130000000000000000
#0291b:0000131300000000
#02912:23000013
#02917:23000000000000000000000000130000
#03114:0013000000000000
#03117:00000000130000130000000000000000
#03119:0013000000000000
#03112:0000131300001300
#03116:1300000000130000
#03118:00000000000000000000000013000013
#03115:0000000000000013
#0311b:13
#03618:2312000000000000
#03614:0000121200000000
#0361a:0000000012120000
#03616:0000000000001212
#03612:23
#03717:13000000000000000000130000130000
#0371b:0000131300000000
#03719:0013000000000000
#03716:00000000130000130000000000000000
#03712:13000013
#0371f:11
#04112:0013000000000000
#04114:00130000
#04116:1300001300001300
#0411b:00000000000000130000000000130000
#04117:00000013000000000000000000000000
#04119:00000000001300000000000000000000
#04212:13000000000000130000000000130000
#0421b:0013000000000000
#04219:00130000
#04217:1300001300001300
#04216:00000013000000000000000000000000
#04214:00000000001300000000000000000000
#04317:00130000
#04312:00130000
#04314:0013000000001300
#0431b:1300001300000000
#04316:13000000000000130000000000001300
#04412:2300002300001400
#0441a:00000014
#04415:0000000000000013
#04418:0000000000000013
#04417:2300002300000000
#04416:00000023000000002300000000000000
#0441b:00000023000000002300000000000000
#0091c:0000121200000012
#00916:00000000120000120000000000000000
#00914:00000000000000000012000000000000
#00912:00000000000000000000001200000000
#00918:12000000000000000000001200000000
#0091a:0012000000000000
#00910:41
#01419:0013000000000000
#01414:0013000000000000
#01417:00130000
#01416:13
#01412:00130000
#0141b:0000001300000000
#01418:00000000000000000013000000000000
#01714:0013000000000000
#01719:0013000000000000
#01716:00000000130000130000130000000000
#0171b:00000000130013000013000000000000
#01712:23
#01710:41
#02016:13
#02014:0013000000000000
#02019:0013000000000000
#02012:0000131300000000
#02017:00130000
#02015:00000000000000000013000000000000
#02018:0000000000160000
#02518:0013000000000000
#02512:1300131300000000
#0251b:13000013
#02517:00000000000000130000000000000000
#02516:00000000000000000000130000130000
#02510:41
#02612:1313000000130000
#0261b:13000000001300000000000013000000
#02618:00000013000000001300000000000000
#02615:00000000130000130000000000130000
#04618:13
#04612:2300002300001300
#04617:00000013
#04614:0000000000000013
#0461b:00000023000000002300000000000000
#04616:0023
#04610:41
#04816:23000000000013230000000000000000
#04817:00000023000000000000130000000000
#04812:0000000000130000
#0481b:00000000000000230000000000000000
#06712:0000001300000000
#06716:13
#0671b:0023002300230023
#0271b:13000000000000130000000013000000
#02718:0013130000000000
#02712:1300130000130000
#02716:0000001300000000
#02715:00000013
#02719:0000000000000013
#03019:0013000000000000
#03014:0013000000000000
#03017:00000000130000130000000000000000
#03012:0000131300000000
#0301b:13000013
#03016:13000000000000000000000000130000
#0321b:1313
#03212:13130013
#03217:0013000000130000
#03216:0000001300000000
#02812:1313
#0281b:00130013
#02817:13
#03816:13000000000000000000130000130000
#03812:0000131300000000
#03814:0013000000000000
#03817:00000000130000130000000000000000
#0381b:13000013
#03912:1300130000130000
#0391b:13000000130000130000000000130000
#03918:00001300000000000000001300000000
#03915:0000001300001300
#04016:1313
#0401b:13000013000000000000000000000000
#04012:0000001300000000
#04017:0000001300001300
#0491b:13000000130000000000001300000000
#04912:13130000
#04915:00001300000013000013001300000000
#04918:00000000000000130000000000001300
#05112:1313000000000000
#05117:13
#05119:0000130000000013
#05114:0000131300000000
#05116:0000000013130000
#0511b:00000013
#05015:13
#05017:0000000000130000
#05019:0000000000000013
#05016:00000000000000230000000013000000
#0501b:2300002300001300
#05012:00000023000000000000000000000000
#0531b:00001300000013000013000000000000
#05315:0013000000000000
#05318:23130000
#05312:23130000
#05316:00000000000000130000130000000000
#05418:0013000000000000
#05412:00001300000013000013000000000000
#0541b:13130000
#05415:00130000
#05417:00000000000000130000130000000000
#05416:00000013
#05414:0000000000000013
#05419:0000000000000013
#05612:13000000000013130000000013000000
#05617:00000013
#05619:0000000000000013
#05614:0013000000000013
#05616:00130000
#05615:00000000000000000013130000000000
#05716:1300131300000000
#05717:0013000000130000
#05712:00001300000000000013000000000000
#0571b:23000000130000130000000000000000
#05812:13000000130000130000000000000000
#05816:0013000000130000
#0581b:00001300000000000013000000000000
#05817:0000131300000000
#0591b:13000000130000000013000000000000
#05912:00001300000000130000000000001300
#05917:0013001300001300
#05916:2300130000130000
#0601b:13000000130000130000000000001300
#06017:0013000000130000
#06012:00001300000000000013000000000000
#06016:0000131300001300
#01819:0013000000000000
#01814:0013000000000000
#0181b:00130000
#01816:00130000
#01812:00000000000013000013000000000000
#01817:13000000000000130000130000000000
#01514:0013000000000000
#01519:0013000000000000
#01516:00130000
#0151b:0000131300000000
#01518:00000000000000000013000000000000
#01517:13
#01614:0013000000000000
#01619:0013000000000000
#01616:00130000
#01617:13
#0161b:00130000
#01612:0000001300000000
#01615:00000000000000000013000000000000
#01919:0013000000000000
#01914:0013000000000000
#01917:00000000130000130000130000000000
#01912:00000000130013000013000000000000
#01916:13
#0651b:13
#06517:0000001300000000
#06512:0023002300230023
#06312:13000000000000000000001300000000
#06316:0000001300000000
#0631b:0023002300230023
#0641b:1300002313000023
#06412:0023130000231300
#06612:1300002313000023
#0661b:0023130000231300
#06616:0013000000130000
#06617:0000001300000013
#06216:1300002313000023
#06217:0023130000231300
#05512:13000000000013130000000013000000
#05516:00130000
#05515:00000000000000000013130000001300
#05514:0013000000000000
#03418:00001300130000130000000013000000
#0341b:1300000000130000
#03412:13000000000000001300000000130000
#03415:00000013000000000000130000000000
#03514:0013000000000000
#03516:00130000
#0351b:0000130000130013
#03519:0013000000000000
#03517:1300001300000000
#03512:13000000000000130000000013000000
#03518:00000013
#03515:0000000000000013
#03319:0013000000000000
#03314:0013000000000000
#03317:00130000
#03312:0000130000130000
#03315:0000001300000000
#0331b:23000000000000130000000013000000
#03316:23000000000000000000000000130000
#03310:41
#06816:00230000
#06814:0023000000000000
#06812:2300002400000000
#06817:23000000000000240000000000000000
#0681b:00230000
#06815:00000000000000000024000000000000
#0681a:0000000000240000
#06819:0023000000000000
#04555:00000000000000530000000000000000
#04558:00000000000000000000005300000000
#04552:34
#0455a:44
#06157:53000000000000000000002300000000
#0615b:0000005300000000
#06152:13
#00556:00000000000000000000006200000000
#0065c:6200006200000000
#00652:00000052000000000000000000000000
#00858:00000052000000005200000000000000
#00856:6200006200000000
#0115c:52
#01152:00000000000000520000000000000000
#01158:0022000000000000
#0125c:52
#01257:0000000000000012
#01252:0000000000000012
#02156:00000000000000630000000000000000
#02352:00000000000000630000000000000000
#0245b:5353
#02452:00630013
#02457:00130013
#02456:1313
#02956:00000000000000530000000000000000
#03157:00000000000000530000000000000000
#03757:00000000000000000000000000130000
#03756:00000000000000530000000000000000
#00952:00000000000000000000006200000000
#01052:00000000000000520000000000000000
#01058:52
#01056:00000062000000000000000000000000
#06752:0000006300000000
#06756:63
#0675b:13
#0445b:00000013000000001300000000000000
#04452:1300001300006400
#0445a:00000064
#04455:0000000000000023
#04458:0000000000000023
#04656:0013
#0465b:00000053000000001300000000000000
#04652:5300005300000000
#04658:13
#0485b:13000000000000530000000000000000
#04857:00000053000000000000530000000000
#04856:53000000000000530000000000000000
#04852:0000000000530000
#06857:00000000000000140000000000000000
#0685a:0000000000140000
#01756:00000000000000630000630000000000
#00758:00620000
#0075c:0000000000000000000000220000000000000000000000000000000000000000
#02557:00000000000000630000000000000000
#0275b:00000000000000530000000000000000
#03057:00000000000000630000000000000000
#0325b:53435343
#03252:33633333
#03257:0023000000230000
#03256:0000002300000000
#02852:6363
#0285b:00530013
#02857:1313
#02856:00130013
#03856:00000000000000000000000000130000
#03857:00000000000000630000000000000000
#0395b:00000000000000630000000000130000
#04056:6363
#0405b:00000063000000001300000000000000
#04052:0000006300000000
#04057:0000006300006300
#0415b:13
#04356:00000000000000630000000000000000
#04958:00000000000000630000000000000000
#04955:00000000000000000000006300000000
#04952:13
#0495b:13
#0505b:63
#05052:00000063000000000000000000000000
#05055:13
#05056:00000000000000530000000000000000
#05252:13
#05257:53
#0525b:00002300000000630000000000000000
#04756:13
#05157:13
#05356:00000000000000630000630000000000
#05358:13
#05457:00000000000000530000530000000000
#05852:13000000000000530000000000000000
#05856:0000000000530000
#0575b:13000000000000630000000000000000
#05757:0000000000630000
#0605b:13000000000000630000000000005300
#06057:0000000000630000
#06056:00000053
#05952:00000000000000530000000000006300
#05956:1300000000530000
#05957:00000063
#01857:00000000000000530000530000000000
#01957:00000000000000530000530000000000
#0625b:1313
#06252:00130013
#06256:5353
#06257:00630063
#0635b:13
#06352:53000000000000000000002300000000
#06356:0000005300000000
#0655b:63
#06557:0000006300000000
#06556:13
#0665b:13531353
#06652:63136313
#06657:0000002300000023
#06656:0023000000230000
#06457:00130013
#06456:1313
#0645b:5353
#06452:00630063
#02058:0000000000160000
#03552:00000000000000630000000000000000
#0335b:00000000000000630000000000000000
#03352:0000000000630000
#005360:00000000000000120000000000000000
#005320:00000000000000000022000000000000
#005381:00000000000000000012000000000000
#0053c1:00000000000000000000002200000000
#005360:00000000000000000000001200000000
#005320:0000000000000022
#0063c0:12
#006380:00000022000000000000000000000000
#006321:00000012000000000000000000000000
#006361:0000002200000000
#0063c0:0000001200000000
#006380:0022
#007380:00000000120000220000000000000000
#0073c0:0000000000000000000000520000000000000000000000000000000000000000
#0073c0:0000000000120000
#007380:0000000000000022
#008360:12
#008320:00000022000000000000000000000000
#008381:00000012000000000000000000000000
#0083c1:0000002200000000
#008360:0000001200000000
#008320:0022
#008381:0012
#0083c1:00000022
#008360:00000012
#008340:0000000000000032
#009320:22
#009320:00000000000000000000001200000000
#009360:0000000000000022
#010380:12
#0103c0:00000022000000000000000000000000
#010361:00000012000000000000000000000000
#010321:0000002200000000
#010321:00000000000000120000000000000000
#010361:0000000000220000
#0113c1:12220000
#011381:0052000000000000
#011321:00000000000000120000000000000000
#011361:0000000000220000
#0123c1:12
#012371:0000005200000022
#013381:00000000000000130023000000000000
#0133b1:0000000000132300
#013360:0000000000001323
#0133b1:0000000000000013
#0143b1:23
#014351:00000000000000130023000000000000
#014321:0000000000132300
#014370:0000000000001323
#014321:0000000000000013
#015321:23
#015351:00000000000000130023000000000000
#015321:0000000000132300
#015370:0000000000001323
#015321:0000000000000013
#016321:23
#016381:00000000000000130023000000000000
#0163b1:0000000000132300
#016360:0000000000001323
#0163b1:0000000000000013
#0173b1:23
#017361:00000000000000130000000000000000
#017321:00000000000000000023000000000000
#017361:0000000000130000
#017321:00000023
#017370:0000000000001323
#017321:0000000000000013
#018321:23
#018371:00000000000000130000000000000000
#0183b1:00000000000000000023000000000000
#018371:0000000000130000
#0183b1:00000023
#018360:0000000000001323
#0183b1:0000000000000013
#0193b1:23
#019371:00000000000000130000000000000000
#0193b1:00000000000000000023000000000000
#019371:0000000000130000
#0193b1:00000023
#019360:0000000000001323
#0193b1:0000000000000013
#0203b1:23
#020381:00000000000000130023000000000000
#021361:00000000000000130000000000000000
#021321:0000000000230000
#023321:00000000000000130000000000000000
#023361:0000000000230000
#0243b1:13
#024371:00230000
#024320:00130000
#024360:0023
#0243b1:0013
#024371:00000023
#025371:00000000000000130000000000000000
#0253b1:0000000000230000
#0273b1:00000000000000130000000000000000
#027371:0000000000230000
#028321:13
#028361:00230000
#0283b0:00130000
#028370:0023
#028321:0013
#028361:00000023
#029361:00000000000000130000000000000000
#029321:0000000000230000
#029370:0000000000132300
#030370:00000000000000130000000000000000
#0303b0:0000000000230000
#030361:0000000000132300
#031371:00000000000000130000000000000000
#0313b1:0000000000230000
#0323b1:13230000
#032371:0053000000000000
#032320:00132300
#032360:0000005300000000
#0323b1:00001323
#032371:0000000000530000
#0333b1:00000000000000130000000000000000
#033371:0000000000230000
#033320:0000000000130000
#033360:00000023
#034350:00000000001300000000000000000000
#034320:00000000000000230000000000000000
#035320:00000000000000130000000000000000
#035360:0000000000230000
#037360:00000000000000130000000000000000
#037320:0000000000230000
#038370:00000000000000130000000000000000
#0383b0:0000000000230000
#0393b0:00000000000000130000000000000000
#039380:0000000000230000
#040360:13
#040320:00000023000000000000000000000000
#0403b1:00000013000000002300000000000000
#040371:0000003300000000
#040320:0000001300002300
#040360:0033
#040371:00000013
#0413b1:23
#041361:0013
#041321:0000000000230000
#041370:0000000000130000
#0413b0:00000023
#042370:0013
#0423b0:0000000000230000
#042361:0000000000130000
#042321:00000023
#043361:00000000000000130000000000000000
#043321:0000000000230000
#043370:0000000000130000
#043390:00000033
#0433b0:0000000000000023
#0443a0:00000014
#044380:0000000000000053
#0453a0:24
#044321:00000014
#044351:0000000000000053
#045321:24
#045351:00000000000000130000000000000000
#045321:00000000000000000023000000000000
#045381:00000000000000000000001300000000
#0453b1:0000000000000023
#046321:13
#046361:00000023000000000000000000000000
#0463b0:00000013000000000000000000000000
#046370:0000002300000000
#046321:0000001300000000
#046361:0023
#047321:00000000000000130000230000000000
#047371:00000013
#047391:0000000000000033
#0483b1:23
#048360:13
#048320:00000023000000000000000000000000
#048371:00000013000000000000000000000000
#0483b1:0000002300000000
#0483b1:00000000000000130000000000002300
#048371:0000000000330000
#048360:00000000000000130000000000002300
#048320:0000000000330000
#049380:00000000000000130000000000000000
#0493b0:00000000000000000023000000000000
#049350:00000000000000000000001300000000
#049320:0000000000000023
#0503b0:13
#050370:00000023000000000000000000000000
#050321:00000013000000000000000000000000
#050361:0000002300000000
#050361:00000000000000130000000000000000
#050321:0000000000230000
#0513b1:00000000000000130000230000000000
#051361:00000013
#051341:0000000000000033
#052321:23
#052370:13230000
#0523b0:0053000000000000
#0523b0:00000000000000130000000000000000
#052380:0000000000230000
#053360:00000000000000130000000000000000
#053320:00000000000000000023000000000000
#053360:0000000000130000
#053320:00000023
#053371:00000013
#0533b1:0000000000000023
#053320:0000000000000013
#054360:23
#054370:00000000000000130000000000000000
#0543b0:00000000000000000023000000000000
#054370:0000000000130000
#0543b0:00000023
#0553b0:13535353535353530000000053535353
#0553a0:0053005300000053005300530053000000000000000000000053005300530053
#0563b0:53535353535353535353230000000000
#0563a0:0053005300530053005300530053005300530053000000000000000000000000
#0573b0:00000000000000130000000000000000
#057370:00000000000000000023000000000000
#057370:0000000000130000
#0573b0:00000023
#057361:00000013
#057321:0000000000000023
#0573b0:0000000000000013
#058370:23
#058320:00000000000000130000000000000000
#058360:00000000000000000023000000000000
#058360:0000000000130000
#058320:00000023
#058371:00000013
#0583b1:0000000000000023
#058320:0000000000000013
#059360:23
#059320:00000000000000130000000000000000
#059360:00000000000000000023000000000000
#059360:0000000000130000
#059320:00000023
#059371:00000013
#0593b1:0000000000000023
#059320:0000000000000013
#060360:23
#0603b0:00000000000000130000000000000000
#060370:00000000000000000023000000000000
#060370:0000000000130000
#0603b0:00000023
#060361:00000013
#060321:0000000000000023
#0603b0:0000000000000013
#061370:33000000000000000000005300000000
#0613b0:0000003300000000
#0623b0:23
#062361:13
#062321:00230000
#062370:00130000
#0623b0:0023
#062361:0013
#062321:00000023
#062370:00000013
#0633b0:23
#063321:13000000000000000000005300000000
#063361:0000003300000000
#064361:23
#0643b0:13
#064370:00230000
#064321:00130000
#064361:0023
#0643b0:0013
#064370:00000023
#064321:00000013
#065361:23
#0653b0:13
#065370:0000003300000000
#0663b0:23
#066321:13230000
#066361:0053000000000000
#0663b0:00132300
#066370:0000005300000000
#066321:00001323
#066361:0000000000530000
#0663b0:00000013
#066370:0000000000000053
#0673b0:23
#067361:1300000000000023
#067321:0000005300000000
