This file was generated by Ched 2.7.0.0.
#TITLE ""
#ARTIST ""
#DESIGNER ""
#DIFFICULTY 0
#PLAYLEVEL
#SONGID ""
#WAVE ""
#WAVEOFFSET 0
#JACKET ""
#REQUEST "ticks_per_beat 480"
#00002: 4
#BPM01: 126
#00008: 01
#TIL00: ""
#VOLUME: ""
#HISPEED 00
#MEASUREHS 00
#04512:13
#04518:00000000130000130000000000000000
#04515:00001300000013000000001300000000
#0451f:21
#0061b:1300001300000000
#00612:00000013
#00615:0000000000000013
#00618:00000013000000000000000000000000
#00718:13
#00715:0013000000130000
#0071b:0000130000000013
#00712:00000013
#01015:00000013000000000000000000001300
#01018:00000013
#01012:13000000000013330000000000000000
#0111b:13
#01112:0000001300000000
#01118:00000013
#01115:0000000000000013
#01113:00000000000000330000000000000000
#02118:0013000000001300
#02115:00000000130000130000000000130000
#02112:13
#0211b:1300001300000000
#02312:13
#02318:00001300001300000000000000001300
#02315:00130013
#0231b:00000000000000130000000000000000
#02916:0013000000000000
#0291b:23130000
#02915:00000013
#02912:1300001300000000
#02918:00000000000000130000000000130000
#03018:00000013
#03012:1300000000130000
#0301b:00001333333333000000000000000000
#03017:0000000000000000001300000000000000000000000000000000000000000000
#03015:00000000000000000000000000130000
#03718:0013000000001300
#03712:13130000
#03715:00000000000000130000000000130000
#0371b:1300001300000000
#0371f:11
#04015:00000013
#0401b:1300001300000000
#04017:00000013000000000000000000000000
#0411b:13
#04112:13
#04118:00001300130013000000000000130000
#04115:00000013001300130000000013000000
#04414:00000013
#04419:00000013
#0441b:23
#04415:00000023000000000000000000000000
#04418:0000002300000000
#04412:0023
#00812:1300001300000000
#00815:00000013000000001300000000000000
#04612:00000013
#04618:0000000000000013
#04616:00000014000000000000000000000000
#0461a:2400001400000000
#04610:41
#04715:1300000000000013
#0471b:0013000000130000
#04712:00130000
#04718:00000013
#04816:0000000000001400000000000000000000000000341400000000000000000000
#04812:24000000000000140000000000000000
#06215:13
#06218:0013
#0611b:13
#06118:0000001300000000
#06110:41
#06315:13
#06312:0000001300000000
#06715:13
#06712:0000001300000000
#01315:00001300000000000033330000000000
#01318:0000130000000013
#01312:00000000000013330000000000000000
#0131b:23
#01718:0013000000000013
#01715:00000000130000000033330000000000
#01712:00000000000013330000000000000000
#0171b:23
#01710:41
#02215:00001313
#0221b:1300000000130000
#02212:0013000000000000
#02218:00000000000000130000000000130000
#02216:00000033330000000000000000000000
#02618:00001313
#02612:1300000000130000
#0261b:0013000000000000
#02615:00000000000000130000000000130000
#02617:00000033330000000000000000000000
#04212:13
#0421b:13
#04215:00001300130013000000000000130000
#04218:00000013001300130000000013000000
#04318:0013001300001300
#04315:0000130000000013
#04312:13
#0431b:13
#03218:13
#0321b:0013000000000000
#03215:0013
#03212:0000000000130000
#00515:13000000000013330033000000000000
#00518:0013000000000000
#0051b:00130000
#00512:00000000000000000000001300000000
#00918:13000000000013330033000000000000
#00915:0013000000000000
#00912:00130000
#0091b:00000000000000000000001300000000
#00910:41
#01218:13
#01215:00000000000013330000000000000000
#01212:0000000000000023
#01415:0000130000000013
#01415:0000000000000013
#01418:00001300000000000033330000000000
#01412:13
#0141b:00000000000013330000000000000000
#01515:00000000000013330000000000000000
#0151b:13
#01512:00001300000000000033330000000000
#01518:0000130000000013
#01618:00000000000013330000000000000000
#01612:13
#0161b:00001300000000000033330000000000
#01615:0000130000000013
#01815:0013000000000013
#01818:00000000130000000033330000000000
#01812:13
#0181b:00000000000013330000000000000000
#01918:13000000000013330000000000000000
#01915:0013000000000013
#01912:00130000
#0191b:00000000000000000013330000000000
#0201b:13
#02018:0013001300130000
#02015:00000000130000130013000000000000
#02412:13
#0241b:0013
#02515:0013000000001300
#02518:00000000130000130000000000130000
#0251b:13
#02512:1300001300000000
#02510:41
#0271b:13
#02718:00000000130000130000000013000000
#02715:0013001300000013
#0281b:13
#02812:0013
#03112:0013000000001300
#03118:0000130000000013
#03115:00000000000013000000000000000013
#0311b:13000000000000130000000000000000
#03318:0013000000001300
#03312:23130000
#0331b:1300001300000000
#03315:00000000000000130000000000130000
#03310:41
#03415:00000000000000000000130000130000
#03412:00001333333300000000000000000000
#03416:0000000000000000001300000000000000000000000000000000000000000000
#0341b:13
#03418:00001313
#03815:0013000000001300
#0381b:13130000
#03818:00000000000000130000000000130000
#03812:1300001300000000
#03917:0013000000000000
#03912:1300130000130000
#03916:00000000000000130000000033000000
#0391b:1300001300000000
#03914:00000000000000000000003300000000
#0491b:13
#04915:00000000130000130000000000000000
#04918:00001300000013000000001300000000
#0501b:00000013
#05015:0000000000000013
#05016:00000014000000000000000000000000
#05012:24000000000014340000000000000000
#0511b:13
#05112:0000001300000000
#05117:00000000000000130000000000000000
#05115:00000013
#05118:0000000000000013
#05216:00000000000000140000000000000000
#05212:24
#05712:00001300000000000013000000000000
#05718:0000130000130013
#05715:0000001300001300
#0571b:23000000000000130000000000000000
#05815:0000130000130013
#0581b:00001300000000000013000000000000
#05818:0000001300001300
#05812:13000000000000130000000000000000
#05918:00001300000000130000000000001300
#05915:00000000130000000013000013000000
#05912:0000001300000000
#0591b:2300000000130000
#06012:1300000000130000
#06015:00001300000000130000000000001300
#06018:00000000130000000013000013000000
#0601b:0000001300000000
#0641b:13
#06412:0013
#06618:0013
#06615:13
#0651b:13
#06518:0000001300000000
#03512:0013000000001300
#03518:0000130000000013
#03515:0000001300000000
#0351b:13000000000000130000000000000000
#0361b:0013000013000000
#03618:0000130000000013
#03615:0000001300001300
#03612:2300000000130000
#05315:00001300000000000013330000000000
#05318:0000130000000013
#05312:00000000000013330000000000000000
#0531b:23
#05415:0000130000000013
#05415:0000000000000013
#05418:00001300000000000013330000000000
#05412:13
#0541b:00000000000013330000000000000000
#05515:00000000000013330000000000000000
#0551b:13
#05512:00001300000000000013330000000000
#05518:0000130000000013
#05618:00000000000013330000000000000000
#05612:13
#0561b:00001300000000000013330000000000
#05615:0000130000000013
#0681b:2300000000230000
#06815:00002300000000000023000000000000
#06818:00000000230000230000000000000000
#06812:0000002300000000
#04555:00000000000000000000006300000000
#04558:00000000000000530000000000000000
#0065b:6300005300000000
#00658:00000053000000000000000000000000
#0115b:53
#01152:0000005300000000
#02155:00000000000000630000000000000000
#02358:00000000006300000000000000000000
#0235b:00000000000000630000000000000000
#00852:5300006300000000
#00855:00000063000000005300000000000000
#04656:00000054000000001400000000000000
#0465a:5400005400000000
#04856:0000000000006400000000000000000000000000002400000000000000000000
#04852:54000000000000640000000000000000
#06255:53
#06258:0063
#06252:00130000
#0625b:00000013
#0615b:53
#06158:0000005300000000
#06355:63
#06352:0000005300000000
#06755:53
#06752:0000005300000000
#02252:0053000000000000
#0265b:0063000000000000
#03755:00000000000000530000000000000000
#0305b:0053000000000000
#03057:0000000000000000002300000000000000000000000000000000000000000000
#03258:63130000
#0325b:0023000000000000
#03255:00005313
#03252:0000000000230000
#00555:0000005300000000
#00552:00000000000000000000005300000000
#0075b:00530000
#01052:5300006300000000
#01055:00000063000000000000000000000000
#01258:53
#01255:0000005300000000
#01252:0000000000000013
#0445b:13
#04458:0000001300000000
#04455:00000013000000000000000000000000
#04452:0013
#00958:0000006300000000
#0095b:00000000000000000000006300000000
#01352:0000005300000000
#01555:0000006300000000
#0145b:0000006300000000
#01658:0000005300000000
#01752:0000005300000000
#0185b:0000006300000000
#01958:0000005300000000
#0195b:00000000000000000053000000000000
#02058:0000000000130000
#02452:63
#0245b:0053
#02456:00130000
#02457:00000013
#02558:00000000000000530000000000000000
#02758:00000000000000530000000000000000
#0285b:53
#02852:0063
#02857:00130000
#02856:00000013
#02958:00000000000000630000000000000000
#0315b:00000000000000630000000000000000
#03452:0063000000000000
#03456:0000000000000000002300000000000000000000000000000000000000000000
#03355:00000000000000530000000000000000
#03858:00000000000000630000000000000000
#03956:00000000000000530000000000000000
#03952:0000000000530000
#0405b:5300006300000000
#04057:00000063000000001300000000000000
#04752:00630000
#04958:00000000000000000000005300000000
#04955:00000000000000630000000000000000
#05056:00000064000000000000000000000000
#05052:6400005400000000
#0515b:53
#05157:00000000000000530000000000000000
#05252:64
#05256:00000000000000540000000000000000
#0645b:63
#06452:0053
#06458:00130000
#06455:00000013
#06658:0063
#0665b:00000013
#06655:53
#06652:00130000
#0655b:53
#06558:0000005300000000
#06858:00000000000000130000000000000000
#0685b:0000000000130000
#0575b:13
#0355b:00000000000000630000000000000000
#05352:0000005300000000
#05355:00000000000000000053000000000000
#0545b:0000006300000000
#05458:00000000000000000063000000000000
#05555:0000006300000000
#05552:00000000000000000053000000000000
#05658:0000005300000000
#0565b:00000000000000000063000000000000
#005350:00000000000013330033000000002300
#005320:00000000000000000000003300000000
#0063b0:1300003300000000
#006380:00000033000000002300000000000000
#0073b0:00130000
#007380:00000000000000230000000000000000
#008320:1300003300002300
#008350:00000033000000003300000000000000
#009380:00000000000013330033000000002300
#0093b0:00000000000000000000003300000000
#010320:13000000000033330000000000000000
#010350:00000033000000000000230000000000
#0113b0:13
#011380:00230000
#011320:0000001300000000
#011330:00000000000000330000000000000000
#011350:0000000000230000
#012380:13
#0123b0:00230000
#012350:00000000000013330000000000000000
#012320:0000000000000023
#013320:00000000000013330000000000000000
#013350:00000000000000000033330023000000
#0143b0:00000000000013330000000000000000
#014380:00000000000000000033330023000000
#015350:00000000000013330000000000000000
#015320:00000000000000000033330023000000
#016380:00000000000013330000000000000000
#0163b0:00000000000000000033330023000000
#017320:00000000000013330000000000000000
#017350:00000000000000000033330023000000
#0183b0:00000000000013330000000000000000
#018380:00000000000000000033330023000000
#019380:00000000000013330000000023000000
#0193b0:00000000000000000033330000000000
#021350:00000000000000130000000000000000
#021320:0000000000230000
#022320:0013000000000000
#022360:00000033330000000000000000000000
#022350:00000000002300000000000000000000
#023380:00000000001300000000230000000000
#0233b0:00000000000000330000000000000000
#024320:13
#024360:00230000
#0243b0:0013
#024370:00000023
#025380:00000000000000130000000000000000
#0253b0:0000000000230000
#0263b0:0013000000000000
#026370:00000033330000000000000000000000
#026380:00000000002300000000000000000000
#027380:00000000000000130000000000000000
#0273b0:0000000000230000
#0283b0:13
#028370:00230000
#028320:0013
#028360:00000023
#029380:00000000000000130000000000000000
#0293b0:0000000000230000
#0303b0:00001333333333230000000000000000
#030370:0000000000000000005300000000000000000000000000000000000000000000
#0313b0:00000000000000130000000000000000
#031380:0000000000230000
#032380:13230000
#0323b0:0053000000000000
#032350:00001323
#032320:0000000000530000
#033350:00000000000000130000000000000000
#033320:0000000000230000
#034320:00001333333300230000000000000000
#034360:0000000000000000005300000000000000000000000000000000000000000000
#0353b0:00000000000000130000000000000000
#035380:0000000000230000
#037350:00000000000000130000000000000000
#037320:0000000000230000
#038380:00000000000000130000000000000000
#0383b0:0000000000230000
#039360:00000000000000130000000033230000
#039320:0000000000330000
#039340:00000000000000000000003300000000
#0403b0:1300003300000000
#040370:00000033000000002300000000000000
#041380:0013
#0413b0:0000000000230000
#042350:0013
#042320:0000000000230000
#043350:00000000000000130000000000000000
#043320:0000000000230000
#045380:00000000000000130000000000000000
#0453b0:00000000000000000023000000000000
#045350:00000000000000000000001300000000
#045320:0000000000000023
#0463a0:1400003400000000
#046360:00000034000000002400000000000000
#047320:00130000
#047360:00000000000000230000000000000000
#048320:14000000000034340000000000002400
#048360:0000000000003400000000000000000000000000345400000000000000000000
#049350:00000000000000130000000000000000
#049320:00000000000000000023000000000000
#049380:00000000000000000000001300000000
#0493b0:0000000000000023
#050320:14000000000034340000000000000000
#050360:00000034000000000000240000000000
#0513b0:13
#051370:00230000
#051370:00000000000000130000000000000000
#0513b0:0000000000230000
#052320:14000024
#052360:00000000340034340000000000000000
#053320:00000000000013330000000023000000
#053350:00000000000000000033330000000000
#0543b0:00000000000013330000000023000000
#054380:00000000000000000033330000000000
#055350:00000000000013330000000023000000
#055320:00000000000000000033330000000000
#056380:00000000000013330000000023000000
#0563b0:00000000000000000033330000000000
#0613b0:13000023
#061380:0000003300000000
#062350:13
#062320:00230000
#062380:0013
#0623b0:00000023
#063350:13000023
#063320:0000003300000000
#0643b0:13
#064380:00230000
#064320:0013
#064350:00000023
#0653b0:13000023
#065380:0000003300000000
#066350:13
#066320:00230000
#066380:0013
#0663b0:00000023
#067350:13000023
#067320:0000003300000000
