This file was generated by Ched 2.7.0.0.
#TITLE ""
#ARTIST ""
#DESIGNER ""
#DIFFICULTY 0
#PLAYLEVEL
#SONGID ""
#WAVE ""
#WAVEOFFSET 0
#JACKET ""
#REQUEST "ticks_per_beat 480"
#00002: 4
#BPM01: 126
#00008: 01
#TIL00: ""
#VOLUME: ""
#HISPEED 00
#MEASUREHS 00
#0501b:23000013
#05016:12000000000000000000000000000000000000000000000000000000000000000000000000000000000000000000000000000000000000000000000000000000000000000000000000000000000000000000000000000000000000000000000000000000000000000000000000000000000000000000000000000000000000000000000000000000000000000000000000000000000000000000000000000000000000000000000000000000000000000000000000000000000000000000000000000000000000000000000000000000000000000000000000000000000000000000000000000000000000000000000000000000000000000000000000000000000000000000000000000000000000000000000000000000000000000000000000000000000000000000000000000000000000000000000000000000000000000000000000000000000000000000000000000000000000000000000000000000000000000000000000000000000000120000000000000000000000000000000000000000000000000000000000000000000000000000000000000000000000000000000000000000000000000000000000000000000000000000000000000000000000000000000000000000000000000000000000000000000000000000000013000000000000000000000000000000000000000000000000000000000000000000000000000000000000000000000000000000000000000000000000000000000000000000000000000000000000000000000000000000000000000000000000000000000000000000000000000000000000000000000000000000000000000000000000000000000000000000000000000000000000000000000000000000
#05012:00000023000000000000000000001300
#05017:0000000000000013
#05015:000000000000000000000000000000000000000000000000000000000000000000000000000000000000000000000000000000000000000000000000000000000000000000000000000000000000000000000000000000000000000000000000000000000000000000000000000000000000001300000000000000000000000000000000000000000000000000000000000000000000000000000000000000000000000000000000000000000000000000000000000000000000000000000000
#05018:000000000000000000000000000000000000000000000000000000000000000000000000000000000000000000000000000000000000000000000000000000000000000000000000000000000000000000000000000000000000000000000000000000000000000000000000000000000000000000000000000000000000000000000000000000000000000000000000000000000000000000000000000000000000000000000000000000000000000000000000000000000000000000000000000000000000000000000000000000000000000000000000000000000000000000000000000000000000000000000000000000000000000000000000000000000000000000000000000000000000000000000000000000000000000000000000000000000000000000000000000000000000000000000000000000000000000000000000000000000000000000000000000000000000000000000000000000000000000000000000000000000000000000000000000000000000000000000000000000000000000000000000000000000000000000000000000000000000000000000000000000000000000000000000000000000000000000000000000000000000000000000000000000000000000000000000000000000000000000000000000000000000000000000000000000000000000000000000000000000000000000000000000000000000000000000000000000000000000000000000000000000000000000000000000000000000000000000000000000000000000000000000000000000000000000000000000000000000000000000000000000000000000000000000000000000000000000000000000000000000000000000000000000000000000000000000000000000000000000000000000000000000000000000000000000000000000000000000000000000000000000000000000000000000000000000000000000000000000000000000120000000000000000000000000000000000000000000000000000000000000000000000000000000000000000000000000000000000000000000000000000000000000000000000000000000000000000000000000000000000000000000000000000000000000000000000000000000000000000000000000000000000000000000000000000000000000000000000000000000000000000000000000000000000000000000000000000000000000000000000000000000000000000000000000000000000000000000000000000000000000000000000000000000000000000000000000000000000000000000000000000000000000000000000000000000000000000000000000000000000000000000000000000000000000000000000000000000000000000000000000000000000000000000000000000000000000000000000000000000000000000000000000000000000000000000000000000000000000000000000000000000000000000000000000000000000000000120000000000000000000000000000000000000000000000000000000000000000000000000000000000000000000000001300000000000000000000000000000000000000000000000000000000000000000000000000000000000000000000000000000000000000000000000000000000000000000000000000000000000000000000000000000000000000000000000000000000000000000000000000000000000000000000000000000000000000000000000000000000000000000000000000000000000000000000000000000000000000000000000000000000000000000000000000000000000000000000000000000000000000000000000000000000000000000000000000000000000000000000000000000000000000000000000000000000000000000000000000000000000000000000000000000000000000000000000000000000000000000000000000000000000000000000000000000000000000000000000000000000000000000000000000000000000000000000000000000000000000000000000000000000000000000000000000000000000000000000000000000000000000000000000000000000000000000000000000000000000000000000000000000000000000000000000000000000000000000000000000000000000000000000000000000000000000000000000000000000000000000000000000000000000000000000000000000000000000000000000000000000000000000000000000000000000000000000000000000000000000000000000000000000000000000000000000000000000000000000000000000000000000000000000000000000000000000000000000000000000000000000000000000000000000000000000000000000000000000000000000000000000000000000000000000000000000000000000000000000000000000000000000000000000000000000000000000000000000000000000000000000000000000000000000000000000000000000000000000000000000000000000000000000000000000000000000000000000000000000000000000000000000000000000000000000000000000000000000000000000000000000000000
#05218:0000000000001313
#05215:00000000000000000000000000130013
#05212:00001400000000130000140000000000
#0521a:0000001400000000
#05216:13130000
#05217:00001300000000130000000000000000
#0521b:13
#05512:1422002200220022
#0551a:14
#05518:00001300000013000013000013000000
#05514:00131313
#0551b:00000000130000130000130000001300
#0611b:1300000000130000
#06117:0013001300000000
#06116:14131313
#06112:0023002300230023
#06110:41
#06616:1313
#06612:0013002300130023
#06617:00130013
#0661b:1323001300230013
#00518:12
#0051a:0012001200000000
#0051c:00000000120000000000001200000000
#00512:13
#00516:00000000000000000000001300000000
#00612:00000013000000001300000012000000
#0061b:1300001300000000
#00616:13
#00617:00000013
#00619:0000000000000013
#00614:0000000000000012
#00817:13000013000000001300000000000000
#00816:0000001300000000000000001300000000000000000000001200000000000000
#00812:1300000000000012
#00818:0000000000000012
#01012:13
#01018:00000013000000000000120000000000
#01017:13
#01015:00000000000013130000000000000000
#0101b:00000013
#01019:0000000000000013
#01016:00000012
#01014:0000000000000012
#01117:13
#01112:12000000000000130000000000001300
#01116:00120000
#01118:00000000000012120000000000001200
#0111c:0000000000120000
#0111a:00000012
#01114:00000013
#0131c:0012001200120012
#01315:0013001300130013
#01318:00000000130000000013000000000000
#01312:24000000000000130000000013000000
#0131a:24
#0151a:14
#01512:1412001200120012
#01518:0013001300130013
#01515:00000000130000000013000000000000
#0151b:00000000000000130000000013000000
#0201a:14140000
#02015:14140000
#02012:00140014001c0000
#02017:0014000000000000
#02014:00000000000000000014000000000000
#0211a:14
#02119:0013000000000000
#02117:0000130000130000
#02112:14000000130000000000130000130000
#02114:0013000000000000
#02116:00000000000000130000000000000000
#0211b:00000000000013130000000000000000
#02115:00000013
#0221a:14
#02212:1413000013001300
#02218:00000013000000001300000013000000
#02215:00000000130000130000130000000000
#0221b:00000000001300000000130000130000
#02312:14000000000000130000000013000000
#02314:0013000000000000
#02316:0000130000000013
#0231b:00000000131300000000130000001300
#02319:0013000000000000
#0231a:14
#02317:00000000000000130000000013000000
#02514:0013000000000000
#02516:0000130000130000
#0251b:00000000130000000000130000130000
#02519:0013000000000000
#02517:00000000000000130000000000000000
#02512:14000000000013130000000000000000
#02518:00000013
#0251a:14
#02510:41
#02612:14000000001300000000130000130000
#0261a:14
#0261b:0013000013001300
#02615:00000013000000001300000013000000
#02618:00000000130000130000130000000000
#0271a:14
#02719:0013000000000000
#02717:0000130000000013
#02712:1400130000130013
#02714:0013000000000000
#02716:00000000000013130000000013000000
#0271b:00000000000000130000000013000000
#02912:24001300000000000000000000130000
#02917:0013000000000000
#02916:00130000
#0291b:00000000130000130000000013000000
#02918:0000001300130000
#02915:00000000000000130000000013000000
#0291a:24
#03012:14001300000000130000000013000000
#03015:00000013000023000000130000000000
#03018:00000000130000130000000023000000
#0301b:00000000001300000000000000130000
#0301a:24
#03116:0013000000000000
#03117:00000000130000130000000000000000
#0311b:0013000000131300
#03112:24000000130013130000000013000000
#0311a:14
#03115:00000000000000000000000000000013
#03118:0000000000000013
#03312:24001300000013130000000000000000
#03316:0000130000130000
#0331b:00000000130000000000130000130000
#03317:00001300000000130000000013000000
#0331a:24
#03310:41
#0341b:00001300000000000000130000130000
#03418:00000013000023001300000013000000
#03415:00000000130000130000130000000000
#03412:24000000001300001300000023000000
#0341a:14
#0351b:00001300000000130000000023000000
#03517:0000130000000013
#03512:1400130000130013
#03516:00001300000023130000000013000000
#0351a:24
#0371b:00001300000000130000000013130000
#03717:1300130000130000
#03716:00001300000013130000000013000000
#03712:00130000
#0371f:11
#03812:14000000000000130000000013130000
#03814:0013000000000000
#03816:0000130000130000
#03819:0013000000000000
#0381b:00130000
#03817:00000000000013130000000013000000
#0381a:14
#03919:0013000000000000
#03917:00130000
#03914:0013000000000000
#03912:14130013
#03916:00000000000013130000000000000000
#0391b:00000000000000130000000013130000
#03918:0000000000130000
#03915:00000000000000000000001300000000
#0391a:14
#04012:00000013000000001300000013000000
#04016:13
#0401b:1300001300001300
#04018:00000000000000000000000000130000
#04015:00000000000000000000000000000013
#04112:14000000001300000000130013130000
#0411a:14
#0411b:0013000013000000
#04115:00000013000000130000000000000000
#04118:0000131300000000
#04117:00000013
#04216:13000013
#04212:0013000013000000
#04218:00000013000000130000000000000000
#04215:0000131300000000
#0421b:00000000001300000000130013130000
#0431b:00001300000013130000000000130000
#04316:00001300000000130000000014000014
#04312:0000130000000013
#04317:1300130000130000
#02416:0013000013000000
#02412:1300000000130000
#0241b:00130013
#02417:0000001300000000
#00716:1200000000000012
#00714:0012000000001200
#0071b:13
#00717:0000000000130000
#00712:0000120000120000
#00715:0000000000000000000000120000000000000000000000000000000000000000
#00719:00000033
#00916:12
#00914:0012001200000000
#00912:00000000120000000000001200000000
#0091b:13
#00917:00000000000000000000001300000000
#00910:41
#01418:14000000000000000013000013000000
#0141c:0012001200120012
#01415:0013001300130013
#01412:13000000130000130000000000000000
#01712:1300130000131300
#01712:24
#0171c:0012001200120012
#01715:00001300000013000013000000001300
#01718:00000000130000130000000013000000
#0171a:24
#01710:41
#01614:14
#01612:0012001200120012
#01618:0013001300130013
#0161b:13000000130000130000000000000000
#01615:00000000000000000013000013000000
#01212:13
#0121b:13
#01218:0000000000000022
#01216:0000000000000022
#0181c:0012001200120012
#01818:14000000130000000013000000000000
#01815:00001300000000130000130000001300
#01812:1300131300001300
#01912:1412001200120012
#01918:00001300000013000013000000001300
#01915:00000000130000130000000013000000
#0191b:0000130000131300
#0191a:14
#05315:00001300000013000013000013000000
#05319:00131313
#05312:24000000130000130000130000001300
#0531a:24
#0531c:0022002200220022
#05419:13131313
#05412:00001300000013000013000013000000
#05415:13000000130000130000130000001300
#0541c:0022002200220022
#05614:13131313
#0561b:00001300000013000013000013000000
#05618:13000000130000130000130000001300
#05612:0022002200220022
#05715:00001300000013130000000013000000
#0571a:24121212
#05712:24000000130000000013130000001300
#05718:0022000000220000
#0571c:0000002200000022
#0581a:12121212
#05812:00001300000013130000000013000000
#05815:13000000130000000013130000001300
#05818:0022000000220000
#0581c:0000002200000022
#02817:0013000013000000
#0281b:1300000000130000
#02812:00130013
#02816:0000001300000000
#03212:1313
#03216:0013000000130000
#0321b:13130013
#03217:0000001300000000
#03612:2400000000000000130000000000000000000000000000000000000000000033
#0361b:0013
#03615:00000013
#03618:00000000000000000000000000130000
#03617:0013130000000000
#03616:0000001313000000
#0361a:24
#03614:0000000000000000000000000000000000000000000000000000000000330000
#03613:00000000000000000000000000000033
#04512:2600001400000014
#0451a:0014000000140000
#04515:00001300000000000013000000000000
#04518:26000000130000000000000000130000
#0451b:0000001300000000
#0451f:21
#0461a:0014000000140000
#04612:2300001400000014
#04618:1300002323000000
#0461b:00000000001300000000000000000000
#04615:00000023000000000000000013000000
#04610:41
#04712:1400131400000014
#0471a:1414000000140000
#04715:0013000000000000
#04719:00000013
#04714:00000013
#04717:0000130000000013
#0471b:0013
#04716:00000000000000130000000000000000
#0481a:0014000000140014
#04812:2300001400000014
#04818:00000000001300000000000000000000
#04817:13000000000000000013000000000000
#04816:00000014
#0481b:0000002300000000
#04815:00000023000000230000230000000000
#0491a:2400001400000014
#04912:2414001300140013
#04918:00001300000000000013000000000000
#04915:00000000130000000000000000130000
#05112:1414000000140000
#0511a:1400001400000014
#05117:00001300000000000013000013000000
#0511b:0000130000130000
#05116:00130000
#0621b:13130013
#06217:0023001300230013
#06216:1313
#06212:0013002300130023
#06312:1300000000130000
#06316:0013001300000000
#06317:00131313
#0631b:0023002300230023
#06412:13130013
#06416:0023001300230013
#06417:1313
#0641b:0013002300130023
#06514:00131313
#0651b:1300001300000000
#06517:0013000000130000
#06516:0000002300000023
#06512:0023000000230000
#06719:00131313
#06712:1300001300000000
#06716:0013000000130000
#06717:0000002300000023
#0671b:0023000000230000
#06818:00000000000013260026000000000000
#06815:00000000000000000013000000000000
#06816:23230000
#06812:0023002600260000
#0681b:23230000
#06817:0023000000000000
#04417:000000000000000000000000000000000000000000000000000000000000000000000000000000000000000000000000000000000000000000000000000000000000000000000000000000000000000000000000000000000000000000000000000000000000000000000000000000000000000000000000000000000000000000000000000000000000000000000000000000000000000000000000000000000000000000000000000000000000000000000000000000000000000000000000000000000000000000000000000000000000000000000000000000000000000000000000000000000000000000000000000000000000000000000000000000000000000000000000000000000000000000000000000000000000000000000000000000000000000000000000000000000000000000000000000000000000000000000000000000000000000000000000000000000000000000000000000000000000000000000000000000000000000000000000000000000000000000000000000000000000000000000000000000000000000000000000000000000000000000000000000000000000000000000000000000000000000000000000000000000000000000000000000000000000000000000000000000000000000000000000000000000000000000000000000000000000000000000000000000000000000000000000000000000000000000000000000000000000000000000000000000000000000000000000000000000000000000000000000000000000000000000000000000000000000000000000000000000000000000000000000000000000000000000000000000000000000000000000000000000000000000000000000000000000000000000000000000000000000000000000000000000000000000000000000000000000000000000000000000000000000000000000000000000000000000000000000000000000000000000000000000000000000000000000000000000000000000000000000000000000000000000000000000000000000000000000000000000000000000000000000000000000000000000000000000000000000000000000000000000000000000000000000000000000000000000000000000000000000000000000000000000000000000000000000000000000000000000000000000000000000000000000000000000000000000000000000000000000000000000000000000000000000000000000000000000000000000000000000000000000000000000000000000000000000000000000000000000000000000000000000000000000000000000000000000000000000000000000000000000000000000000000000000000000000000000000000000000000000000000000000000000000000000000000000000000000000000000000000000000000000000000000000000000000000000000000000000000000000000000000000000000000000000000000000000000000000000000000000000000000000000000000000000000000000000000000000000000000000000000000000000000000000000000000000000000000000000000000000000000000000000000000000000000000000000000000000000000000000000000000000000000000000000000000000000000000000000000000000000000000000000000000000000000000000000000000000000000000000000000000000000000000000000000000000000000000000000000000000000000000000000000000000000000000000000000000000000000000000000000000000000000000000000000000000000000000000000000000000000000000000000000000000000000000000000000000000000000000000000000000000000000000000000000000000000000000000000000000000000000000000000000000000000000000000000000000000000000000000000000000000000000000000000000000000000000000000000000000000000000000000000000000000000000000000000000000000000000000000000000000000000000000000000000000000000000000000000000000000000000000000000000000000000000000000000000000000000000000000000000000000000000000000000000000000000000000000000000000000000000000000000000000000000000000000000000000000000000000000000000000000000000000000000000000000000000000000000000000000000000000000000000000000000000000000000000000000000000000000000000000121200000000000000000000000000000000000000000000000000000000000000000000000000000000000000000000000000000000000000000000000000000000000000000000000000000000000000000000000000000000000000000000000000000000000000000000000000000000000000000000000000000000000000000000000000000000000000000000000000000000000000000000000000000000000000000000000000000000000000000000000000000000000000000000000000000000000000000000000000000000000000000000000000000000000000000000000000000000000000000000
#0441a:00000014
#04412:23000028000023002600000014000000
#0441b:00000023000000000000000000000000
#04416:2800002800000000
#04418:0026
#05918:00001300000013130000000013000000
#05914:00121212
#0591b:00000000130000000013130000001300
#0591a:24
#05912:2400002200000022
#05916:0022000000220000
#06014:12121212
#0601b:00001300000013130000000013000000
#06018:13000000130000000013130000001300
#06016:0022000000220000
#06012:0000002200000022
#0615b:5300000000230000
#06157:0023005300000000
#06156:14
#06652:0023000000230000
#06656:6363
#06657:00530053
#0665b:1300002300000023
#06654:00430043
#06659:0033
#0065b:6300006300000000
#00652:00000063000000001300000000000000
#00657:0013
#00856:0000002300000000000000005300000000000000000000000000000000000000
#00852:53
#00857:00000053000000005300000000000000
#01058:00000053000000000000000000000000
#01052:53
#01055:00000000000000530000000000000000
#01157:53
#01152:00000000000000530000000000000000
#0215b:00000000000000630000000000000000
#02157:0000000000630000
#02352:00000000000000630000000000000000
#02357:00000063
#0235b:0000000000000023
#02552:00000000000000530000000000000000
#02556:0000000000530000
#0275b:00000000000000530000000000000000
#02756:00000053
#02752:0000000000000023
#02955:00000000000000530000000000000000
#03058:00000000000000530000000000000000
#03152:00000000000000530000000000000000
#03352:00000000000000530000000000000000
#03356:0000000000530000
#0355b:00000000000000530000000000000000
#03756:00000000000000530000000013000000
#03857:00000000000000630000000013000000
#03956:00000000000000530000000000000000
#03952:00000013
#0405b:5300005300000000
#04052:00000053000000001300000000000000
#04057:0013
#0415b:0063
#04157:00000063
#0415a:14
#04152:14
#04252:0053
#04256:00000053
#04357:0000000000630000
#04356:00000000000000630000000000000000
#02456:0023000053004300
#02452:6300330000230000
#0245b:00534343
#02457:3300002300000000
#04452:1300001336006400
#0445b:00000013000000000000000000000000
#04458:0046
#04457:000000000000000000000000000000000000000000000000000000000000000000000000000000000000000000000000000000000000000000000000000000000000000000000000000000000000000000000000000000000000000000000000000000000000000000000000000000000000000000000000000000000000000000000000000000000000000000000000000000000000000000000000000000000000000000000000000000000000000000000000000000000000000000000000000000000000000000000000000000000000000000000000000000000000000000000000000000000000000000000000000000000000000000000000000000000000000000000000000000000000000000000000000000000000000000000000000000000000000000000000000000000000000000000000000000000000000000000000000000000000000000000000000000000000000000000000000000000000000000000000000000000000000000000000000000000000000000000000000000000000000000000000000000000000000000000000000000000000000000000000000000000000000000000000000000000000000000000000000000000000000000000000000000000000000000000000000000000000000000000000000000000000000000000000000000000000000000000000000000000000000000000000000000000000000000000000000000000000000000000000000000000000000000000000000000000000000000000000000000000000000000000000000000000000000000000000000000000000000000000000000000000000000000000000000000000000000000000000000000000000000000000000000000000000000000000000000000000000000000000000000000000000000000000000000000000000000000000000000000000000000000000000000000000000000000000000000000000000000000000000000000000000000000000000000000000000000000000000000000000000000000000000000000000000000000000000000000000000000000000000000000000000000000000000000000000000000000000000000000000000000000000000000000000000000000000000000000000000000000000000000000000000000000000000000000000000000000000000000000000000000000000000000000000000000000000000000000000000000000000000000000000000000000000000000000000000000000000000000000000000000000000000000000000000000000000000000000000000000000000000000000000000000000000000000000000000000000000000000000000000000000000000000000000000000000000000000000000000000000000000000000000000000000000000000000000000000000000000000000000000000000000000000000000000000000000000000000000000000000000000000000000000000000000000000000000000000000000000000000000000000000000000000000000000000000000000000000000000000000000000000000000000000000000000000000000000000000000000000000000000000000000000000000000000000000000000000000000000000000000000000000000000000000000000000000000000000000000000000000000000000000000000000000000000000000000000000000000000000000000000000000000000000000000000000000000000000000000000000000000000000000000000000000000000000000000000000000000000000000000000000000000000000000000000000000000000000000000000000000000000000000000000000000000000000000000000000000000000000000000000000000000000000000000000000000000000000000000000000000000000000000000000000000000000000000000000000000000000000000000000000000000000000000000000000000000000000000000000000000000000000000000000000000000000000000000000000000000000000000000000000000000000000000000000000000000000000000000000000000000000000000000000000000000000000000000000000000000000000000000000000000000000000000000000000000000000000000000000000000000000000000000000000000000000000000000000000000000000000000000000000000000000000000000000000000000000000000000000000000000000000000000000000000000000000000000000000000000000000000000000222200000000000000000000000000000000000000000000000000000000000000000000000000000000000000000000000000000000000000000000000000000000000000000000000000000000000000000000000000000000000000000000000000000000000000000000000000000000000000000000000000000000000000000000000000000000000000000000000000000000000000000000000000000000000000000000000000000000000000000000000000000000000000000000000000000000000000000000000000000000000000000000000000000000000000000000000000000000000000000000
#0445a:00000054
#00552:53
#00556:00000000000000000000005300000000
#0055c:00000000000000000000005200000000
#0075b:63
#00757:0000000000630000
#00752:00520000
#00755:0000000000000000000000220000000000000000000000000000000000000000
#0095b:63
#00957:00000000000000000000006300000000
#00952:00000000000000000000006200000000
#01256:0000000000000032
#01258:0000000000000042
#01252:63
#0125b:63
#05056:12000000000000000000000000000000000000000000000000000000000000000000000000000000000000000000000000000000000000000000000000000000000000000000000000000000000000000000000000000000000000000000000000000000000000000000000000000000000000000000000000000000000000000000000000000000000000000000000000000000000000000000000000000000000000000000000000000000000000000000000000000000000000000000000000000000000000000000000000000000000000000000000000000000000000000000000000000000000000000000000000000000000000000000000000000000000000000000000000000000000000000000000000000000000000000000000000000000000000000000000000000000000000000000000000000000000000000000000000000000000000000000000000000000000000000000000000000000000000000000000000000000000000520000000000000000000000000000000000000000000000000000000000000000000000000000000000000000000000000000000000000000000000000000000000000000000000000000000000000000000000000000000000000000000000000000000000000000000000000000000000000000000000000000000000000000000000000000000000000000000000000000000000000000000000000000000000000000000000000000000000000000000000000000000000000000000000000000000000000000000000000000000000000000000000000000000000000000000000000000000000000000000000000000000000000000000000000000000000000000000000000000000000000000
#05055:000000000000000000000000000000000000000000000000000000000000000000000000000000000000000000000000000000000000000000000000000000000000000000000000000000000000000000000000000000000000000000000000000000000000000000000000000000000000002300000000000000000000000000000000000000000000000000000000000000000000000000000000000000000000000000000000000000000000000000000000000000000000000000000000
#05058:000000000000000000000000000000000000000000000000000000000000000000000000000000000000000000000000000000000000000000000000000000000000000000000000000000000000000000000000000000000000000000000000000000000000000000000000000000000000000000000000000000000000000000000000000000000000000000000000000000000000000000000000000000000000000000000000000000000000000000000000000000000000000000000000000000000000000000000000000000000000000000000000000000000000000000000000000000000000000000000000000000000000000000000000000000000000000000000000000000000000000000000000000000000000000000000000000000000000000000000000000000000000000000000000000000000000000000000000000000000000000000000000000000000000000000000000000000000000000000000000000000000000000000000000000000000000000000000000000000000000000000000000000000000000000000000000000000000000000000000000000000000000000000000000000000000000000000000000000000000000000000000000000000000000000000000000000000000000000000000000000000000000000000000000000000000000000000000000000000000000000000000000000000000000000000000000000000000000000000000000000000000000000000000000000000000000000000000000000000000000000000000000000000000000000000000000000000000000000000000000000000000000000000000000000000000000000000000000000000000000000000000000000000000000000000000000000000000000000000000000000000000000000000000000000000000000000000000000000000000000000000000000000000000000000000000000000000000000000000000000000000000000000000000000000000000000000000000000000000000000000000000000000000000000000000000000000000000000000000000000000000000000000000000000000000000000000000000000000000000000000000000000000000000000000000000000000000000000000000000000000000000000000000000000000000000000000000000000000000000000000000000000000000000000000000000000000000000000000000000000000000000000000000000000000000000000000000000000000000000000000000000000000000000000000000000000000000000000000000000000000000000000000000000000000000000000000000000000000000000000000000000000000000000000000000000000000000000000000000000000000000000000000000000000000000000000000000000000000000000000000000000000000000000000000000000000000000000000000000000000000000000000000000000000000000000000000000620000000000000000000000000000000000000000000000000000000000000000000000000000000000000000000000002300000000000000000000000000000000000000000000000000000000000000000000000000000000000000000000000000000000000000000000000000000000000000000000000000000000000000000000000000000000000000000000000000000000000000000000000000000000000000000000000000000000000000000000000000000000000000000000000000000000000000000000000000000000000000000000000000000000000000000000000000000000000000000000000000000000000000000000000000000000000000000000000000000000000000000000000000000000000000000000000000000000000000000000000000000000000000000000000000000000000000000000000000000000000000000000000000000000000000000000000000000000000000000000000000000000000000000000000000000000000000000000000000000000000000000000000000000000000000000000000000000000000000000000000000000000000000000000000000000000000000000000000000000000000000000000000000000000000000000000000000000000000000000000000000000000000000000000000000000000000000000000000000000000000000000000000000000000000000000000000000000000000000000000000000000000000000000000000000000000000000000000000000000000000000000000000000000000000000000000000000000000000000000000000000000000000000000000000000000000000000000000000000000000000000000000000000000000000000000000000000000000000000000000000000000000000000000000000000000000000000000000000000000000000000000000000000000000000000000000000000000000000000000000000000000000000000000000000000000000000000000000000000000000000000000000000000000000000000000000000000000000000000000000000000000000000000000000000000000000000000000000000000000000000000000000000000
#05752:14
#0575a:14
#02857:0023000063003300
#0285b:5300430000230000
#02852:00633333
#02856:4300002300000000
#03252:63335333
#03256:0023000000230000
#0325b:43534343
#03257:0000002300000000
#04658:1313
#04655:00000013
#0475a:14
#04752:14
#04757:00630000
#04756:00000000000000630000000000000000
#04855:00000000000000530000530000000000
#04856:00000014
#04857:13
#0495a:14
#04952:14
#05152:14
#0515a:14
#05257:00002300000000530000000000000000
#05256:13530000
#0525b:53
#06252:0023000000230000
#06257:0000002300000023
#0625b:43634363
#06256:63436343
#0635b:43
#06352:6300000000230000
#06356:0023006300000000
#06452:33533353
#06456:0000002300000023
#06457:53335333
#0645b:0023000000230000
#06552:33
#0655b:5300006300000000
#06557:0023000000230000
#06752:6300005300000000
#06756:0023000000230000
#06757:33
#06858:00000000000000460000000000000000
#06852:0000000000360000
#04558:46
#04552:36
#0595a:14
#05952:14
#02052:00000000001c0000
#0535a:14
#05352:14
#005320:1300000000000023
#005360:00000000000000000000003300000000
#0053a1:00000000000000120022000000000000
#0053c1:00000000000000000000001200000000
#005381:0000000000000022
#0063b1:13
#006371:00000023000000000000000000000000
#006320:00000013000000000000000000000000
#006360:0000002300000000
#0063b1:0000001300000000
#006371:0023
#0073b1:1300000000000023
#007371:0000000000330000
#007391:00000033
#007320:00000000120000220000000000000000
#007350:0000000000000000000000520000000000000000000000000000000000000000
#008321:13000023000000000000000000000000
#008361:0000005300000000000000000000000000000000000000000000000000000000
#008370:00000013000000000000000000000000
#0083b0:0000002300000000
#008361:0000001300000000
#008321:0023
#008370:0013
#0083b0:00000023
#0093b0:1300000000000023
#009370:00000000000000000000003300000000
#009341:00000000000000120022000000000000
#009321:00000000000000000000001200000000
#009361:0000000000000022
#010321:13
#010351:00000023000000000000000000000000
#010380:00000013000000000000000000000000
#0103b0:0000002300000000
#010350:00000000000000130000000000000000
#010320:0000000000230000
#011370:13
#0113b0:00230000
#011320:00000000000000130000000000000000
#011360:0000000000230000
#012320:13
#012350:00530000
#012360:0000000000000022
#0123b1:13
#012381:0000530000000022
#020381:00000000000000140024000000000000
#0213b1:00000000000000130000000023000000
#021371:0000000000330000
#023321:00000000000000130000000000000000
#023361:0000000000230000
#023371:00000013
#0233b1:0000000000000053
#024371:23
#024320:13230000
#024360:0053000000000000
#0243b1:00132300
#024371:0000005300000000
#024360:00001323
#024320:0000000000530000
#025320:00000000000000130000000023000000
#025360:0000000000330000
#0273b0:00000000000000130000000000000000
#027370:0000000000230000
#027360:00000013
#027320:0000000000000053
#028360:23
#0283b1:13230000
#028371:0053000000000000
#028320:00132300
#028360:0000005300000000
#028371:00001323
#0283b1:0000000000530000
#029351:00000000000000130000000000000000
#029321:0000000000230000
#030381:00000000000000130000000000000000
#0303b1:0000000000230000
#031321:00000000000000130000000000000000
#031361:0000000000230000
#032321:13230000
#032361:0053000000000000
#0323b0:00132300
#032370:0000005300000000
#032321:00001323
#032361:0000000000530000
#033321:00000000000000130000000023000000
#033361:0000000000330000
#0353b1:00000000000000130000000000000000
#035371:0000000000230000
#036381:0000000000132300
#036351:0000000000000013
#036341:0000000000000000000000000000000000000000000000000000000000330000
#036331:00000000000000000000000000000033
#036321:0000000000000000000000000000000000000000000000000000000000000033
#037321:23
#037361:00000000000000130000000000000000
#037321:0000000000230000
#038371:00000000000000130000000000000000
#0383b1:0000000000230000
#039361:00000000000000130000000000000000
#039321:0000000000230000
#0403b1:13
#040371:00000023000000000000000000000000
#040320:00000013000000000000000000000000
#040360:0000002300000000
#0403b1:0000001300000000
#040371:0023
#0413b1:0013
#041371:0000000000230000
#041371:00000013
#0423b1:23
#042321:0013
#042361:0000000000230000
#042361:00000013
#043321:23
#043361:00000000000000130000000000000000
#043321:0000000000230000
#043370:0000000000130000
#0433b0:00000023
#0443a0:00000014
#044370:0000000000000052
#045380:26
#044321:00000014
#044371:000000000000000000000000000000000000000000000000000000000000000000000000000000000000000000000000000000000000000000000000000000000000000000000000000000000000000000000000000000000000000000000000000000000000000000000000000000000000000000000000000000000000000000000000000000000000000000000000000000000000000000000000000000000000000000000000000000000000000000000000000000000000000000000000000000000000000000000000000000000000000000000000000000000000000000000000000000000000000000000000000000000000000000000000000000000000000000000000000000000000000000000000000000000000000000000000000000000000000000000000000000000000000000000000000000000000000000000000000000000000000000000000000000000000000000000000000000000000000000000000000000000000000000000000000000000000000000000000000000000000000000000000000000000000000000000000000000000000000000000000000000000000000000000000000000000000000000000000000000000000000000000000000000000000000000000000000000000000000000000000000000000000000000000000000000000000000000000000000000000000000000000000000000000000000000000000000000000000000000000000000000000000000000000000000000000000000000000000000000000000000000000000000000000000000000000000000000000000000000000000000000000000000000000000000000000000000000000000000000000000000000000000000000000000000000000000000000000000000000000000000000000000000000000000000000000000000000000000000000000000000000000000000000000000000000000000000000000000000000000000000000000000000000000000000000000000000000000000000000000000000000000000000000000000000000000000000000000000000000000000000000000000000000000000000000000000000000000000000000000000000000000000000000000000000000000000000000000000000000000000000000000000000000000000000000000000000000000000000000000000000000000000000000000000000000000000000000000000000000000000000000000000000000000000000000000000000000000000000000000000000000000000000000000000000000000000000000000000000000000000000000000000000000000000000000000000000000000000000000000000000000000000000000000000000000000000000000000000000000000000000000000000000000000000000000000000000000000000000000000000000000000000000000000000000000000000000000000000000000000000000000000000000000000000000000000000000000000000000000000000000000000000000000000000000000000000000000000000000000000000000000000000000000000000000000000000000000000000000000000000000000000000000000000000000000000000000000000000000000000000000000000000000000000000000000000000000000000000000000000000000000000000000000000000000000000000000000000000000000000000000000000000000000000000000000000000000000000000000000000000000000000000000000000000000000000000000000000000000000000000000000000000000000000000000000000000000000000000000000000000000000000000000000000000000000000000000000000000000000000000000000000000000000000000000000000000000000000000000000000000000000000000000000000000000000000000000000000000000000000000000000000000000000000000000000000000000000000000000000000000000000000000000000000000000000000000000000000000000000000000000000000000000000000000000000000000000000000000000000000000000000000000000000000000000000000000000000000000000000000000000000000000000000000000000000000000000000000000000000000000000000000000000000000000000000000000000000000000000000000000000000000000000000000000000000000000000000000000000000000000000000000000000000000000000000000000000000000000000000000000005200000000000000000000000000000000000000000000000000000000000000000000000000000000000000000000000000000000000000000000000000000000000000000000000000000000000000000000000000000000000000000000000000000000000000000000000000000000000000000000000000000000000000000000000000000000000000000000000000000000000000000000000000000000000000000000000000000000000000000000000000000000000000000000000000000000000000000000000000000000000000000000000000000000000000000000000000000000000000000000
#045321:26
#045381:00000000000000130000000000000000
#0453b1:00000000000000000023000000000000
#045351:00000000000000000000001300000000
#045321:00000000000000000000000000230000
#046321:1323000000000000
#046351:00000013002300000000000000000000
#046351:0013
#046321:0000000000230000
#046381:00000013
#0463b1:0000000000000023
#047371:00130000
#0473b1:00000000000000230000000000000000
#047360:00000000000000130000000000000000
#047320:0000000000230000
#048320:1323000000000000
#048350:00000013002300000000000000000000
#048350:00000000000000130000000000000000
#048320:00000000000000000023000000000000
#048350:0000000000130000
#048320:00000023
#049350:00000000000000130000000000000000
#049320:00000000000000000023000000000000
#049380:00000000000000000000001300000000
#0493b0:00000000000000000000000000230000
#0503b0:13
#050380:00000022000000000000000000000000
#050321:00000013000000000000000000000000
#050361:0000002200000000
#050351:000000000000000000000000000000000000000000000000000000000000000000000000000000000000000000000000000000000000000000000000000000000000000000000000000000000000000000000000120000000000000000520000000000000000000000000000000053000000005300000000000000000000000000000000000000000000000000000000000000000000000000000000000000000000000000000000000000000000000000000000000000000000000000000000
#050331:000000000000000000000000000000000000000000000000000000000000000000000000000000000000000000000000000000000000000000000000000000000000000000000000000000000000000000000000000000000000000000000000000000000000000000000000000000000000000000000000000000000000000000000000000000000000000000000000000000000000000000000000000000000000000000000000000000000000000000000000000000000000000000000000000000000000000000000000000000000000000000000000000000000000000000000000000000000000000000000000000000000000000000000000000000000000000000000000000000000000000000000000000000000000000000000000000000000000000000000000000000000000000000000000000000000000000000000000000000000000000000000000000000000000000000000000000000000000000000000000000000000000000000000000000000000000000000000000000000000000000000000000000000000000000000000000000000000000000000000000000000000000000000000000000000000000000000000000000000000000000000000000000000000000000000000000000000000000000000000000000000000000000000000000000000000000000000000000000000000000000000000000000000000000000000000000000000000000000000000000000000000000000000000000000000000000000000000000000000000000000000000000000000000000000000000000000000000000000000000000000000000000000000000000000000000000000000000000000000000000000000000000000000000000000000000000000000000000000000000000000000000000000000000000000000000000000000000000000000000000000000000000000000000000000000000000000000000000000000000000000000000000000000000000000000000000000000000000000000000000000000000000000000000000000000000000000000000000000000000000000000000000000000000000000000000000000000000000000000000000000000000000000000000000000000000000000000000000000000000000000000000000000000000000000000000000000000000000000000000000000000000000000000000000000000000000000000000000000000000000000000000000000000000000000000000000000000000000000000000000005500000000000000000000000000000000000000000000000000000000000000000000000000000000000000000000000000000000000000000000000000000000000000000000000000000000000000000000000000000000000000000000000000000000000000000000000000000000000000000000000000000000000000000000000000000000000000000000000000000000000000000000000000000000000000000000000000000000000000000000000000000000000000000000000000000000000000000000000000000000000000000000000000000000000000000000000000000000000000000000000000000000000000000000000000000000000000000000000000000000000000000000000000000000000000000000000000000000000000000000000000000000000000000000000000000000000000000000000000000000000000000000000000000000000000000000000000000000000000000000000000000000000000000000000000000000000000000000000000000000000000000000000000000000000000000000000000000000000000000000000000000000000000000000000000000000000000000000000000000000000000000000000000000000000000000000000000000000000000000000000000000000000000000000000000000000000000000000000000000000000000000000000000000000000000000000000000000000000000000000000000000000000000000000000000000000000000000000000000000000000000000000000000000000000000000000000000000000000000000000000000000000000000000000000000000000000000000000000000000000000000000000000000000000000000000000000000000000000000000000000000000000000000000000000000000000000000000000000000000000000000000000000000000000000000000000000000000000000000000000000000000000000000000000000000000000000000000000000000000000000000000000000000000000000000000000000000000000000000000000000000000000000000000000000000000000000000000000000000000000000000000000000000000000000000000000000000000000000000000000000000000000000000000000000000000000000000000000000000000000000000000000000000000000000000000000000000000000000000000000000000000000000000000000000000000000000000000000000000000000000000000000000000000000000000000000000000000000000000000000000000000000000000000000000000000000000000000000000000000000
#050361:00000000000000000000000000000000000000000000000000000000000000000000000000000000000000000000000000000000000000000000000000000000000000000000000000000000000000000000000000000000000000000000000000000000000000000000000000000000000000000000000000000000000000000000000000000000000000000000000000000000000000000000000000000000000000000000000000000000000000000000000000000000000000000000000000000000000000000000000000000000000000000000000000000000000000000000000000000000000000000000000000000000000000000000000000000000000000000000000000000000000000000000000000000000000000000000000000000000000000000000000000000000000000000000000000000000000000000000000000000000000000000000000000000000000000000000000000000000000000000000000000000000000000520000000000000000000000000000000000000000000000000000000000000000220000000000000000000000000000000000000000000000000000000000000000000000000000000000000000000000000000000000000000000000000000000000000000000000000000000000000000000000000000000000000000000000000000000000000000000000000000000000000000000000000000000000000000000000000000000000000000000000000000000000000000000000000000000000000000000000000000000000000000000000000000000000000000000000000000000000000000000000000000000000000000000000000000000000000000000000000000000000000000000000
#050390:00000000000000000000000000000000000000000000000000000000120000520000000000000000000000000000000000000000000000000000000000000000
#050380:000000000000000000000000000000000000000000000000000000000000000000000000000000000000000000000000000000000000000000000000000000000000000000000000000000000000000000000000000000000000000000000000000000000000000000000000000000000000000000000000000000000000000000000000000000000000000000000000000000000000000000000000000000000000000000000000000000000000000000000000000000000000000000000000000000000000000000000000000000000000000000000000000000000000000000000000000000000000000000000000000000000000000000000000000000000000000000000000000000000000000000000000000000000000000000000000000000000000000000000000000000000000000000000000000000000000000000000000000000000000000000000000000000000000000000000000000000000000000000000000000000000000000000000000000000000000000000000000000000000000000000000000000000000000000000000000000000000000000000000000000000000000000000000000000000000000000000000000000000000000000000000000000000000000000000000000000000000000000000000000000000000000000000000000000000000000000000000000000000000000000000000000000000000000000000000000000000000000000000000000000000000000000000000000000000000000000000000000000000000000000000000000000000000000000000000000000000000000000000000000000000000000000000000000000000000000000000000000000000000000000000000000000000000000000000000000000000000000000000000000000000000000000000000000000000000000000000000000000000000000000000000000000000000000000000000000000000000000000000000000000000000000000000000000000000000000000000000000000000000000000000000000000000000000000000000000000000000000000000000000000000000000000000000000000000000000000000000000000000000000000000000000000000000000000000000000000000000000000000000000000000000000000000000000000000000000000000000000000000000000000000000000000000000000000000000000000000000000000000000000000000000000000000000000000000000000000000000000000000000000005500000000000000000000000000000000000000000000000000000000000000000000000000000000000000000000000000000000000000000000000000000000000000000000000000000000000000000000000000000000000000000000000000000000000000000000000000000000000000000000000000000000000000000000000000000000000000000000000000000000000000000000000000000000000000000000000053520000000000000000000000000000000000000000000000000000000000000000000000000000000000000000000000005300000000000000000000000000000000000000000000000000000000000000000000000000000000000000000000000000220000000000000000000000000000000000000000000000000000000000000000000000000000000000000000000000000000000000000000000000000000000000000000000000000000000000000000000000000000000000000000000000000000000000000000000000000000000000000000000000000000000000000000000000000000000000000000000000000000000000000000000000000000000000000000000000000000000000000000000000000000000000000000000000000000000000000000000000000000000000000000000000000000000000000000000000000000000000000000000000000000000000000000000000000000000000000000000000000000000000000000000000000000000000000000000000000000000000000000000000000000000000000000000000000000000000000000000000000000000000000000000000000000000000000000000000000000000000000000000000000000000000000000000000000000000000000000000000000000000000000000000000000000000000000000000000000000000000000000000000000000000000000000000000000000000000000000000000000000000000000000000000000000000000000000000000000000000000000000000000000000000000000000000000000000000000000000000000000000000000000000000000000000000000000000000000000000000000000000000000000000000000000000000000000000000000000000000000000000000000000000000000000000000000000000000000000000000000000000000000000000000000000000000000000000000000000000000000000000000000000000000000000000000000000000000000000000000000000000000000000000000000000000000000000000000000000000000000000000000000000000000000000000000000000000000000000000000000000000000000
#051360:00000000000000130000000000000000
#051320:00000000000000000023000000000000
#051320:00000013
#051360:0000000000000023
#0523b0:13230000
#052370:0053000000000000
#052361:00130000
#052321:0000002300000000
#052371:00000000000000130000000000000000
#0523b1:0000000000230000
#0613b1:13230000
#061371:0053000000000000
#061371:0000001300000023
#0613b1:0000000000530000
#062361:13230000
#062321:0053000000000000
#0623b0:00132300
#062370:0000005300000000
#062361:00001323
#062321:0000000000530000
#0623b0:00000013
#062370:0000000000000053
#0633b0:23
#063321:13230000
#063361:0053000000000000
#063361:0000001300000023
#063321:0000000000530000
#064371:13230000
#0643b1:0053000000000000
#064320:00132300
#064360:0000005300000000
#064371:00001323
#0643b1:0000000000530000
#064320:00000013
#064360:0000000000000053
#065320:23
#0653b1:13230000
#065371:0053000000000000
#0653b1:0000001300000023
#065371:0000000000530000
#066361:13
#066321:0053000000000000
#066341:00230000
#066370:00130000
#0663b0:0000005300000000
#066390:0023
#066361:0013
#066321:0000000000530000
#066341:00000023
#066370:00000013
#0663b0:0000000000000053
#067370:23
#067321:13230000
#067361:0053000000000000
#067321:0000001300000023
#067361:0000000000530000
