This file was generated by Ched 2.7.0.0.
#TITLE ""
#ARTIST ""
#DESIGNER ""
#DIFFICULTY 0
#PLAYLEVEL
#SONGID ""
#WAVE ""
#WAVEOFFSET 0
#JACKET ""
#REQUEST "ticks_per_beat 480"
#00002: 4
#BPM01: 126
#00008: 01
#TIL00: ""
#VOLUME: ""
#HISPEED 00
#MEASUREHS 00
#0051a:14
#00618:14
#00712:14
#00814:14
#00918:14
#00910:41
#0101a:14
#01114:14
#01212:14
#01314:00140000
#0131a:2414
#01412:1414
#01418:00140000
#01518:1414
#01514:00140000
#01612:1414
#0161a:00140000
#01712:00140000
#01718:0014
#0171a:24
#01710:41
#01812:14
#0181a:00140000
#01814:0014
#01918:14
#01912:00140000
#0191a:0014
#0201a:00140000
#02012:0014
#02014:14
#0231a:14
#02412:14
#02414:00343400
#02718:14
#0371a:1414
#0371f:11
#03814:1414
#04118:1414
#04518:00140000
#04514:0014
#0451a:00000014
#04512:24
#0451f:21
#04618:00140000
#04612:0014
#04614:14
#04610:41
#04912:14
#0491a:00140000
#04914:0014
#04918:00000014
#05318:00140000
#05314:0014
#0531a:00000014
#05312:24
#05412:14
#05418:00140000
#05414:0014
#0541a:00000014
#05514:14
#05612:14
#0621a:14
#06214:00140000
#06218:0014
#06212:00000014
#06412:14
#06418:00140000
#06414:0014
#0641a:00000014
#06618:14
#06614:00140000
#0661a:0014
#06612:00000014
#02814:14
#02812:00343400
#02914:0014
#0291a:14
#03018:14
#03012:0014
#0311a:14
#03114:0014
#03218:14343400
#03318:0014
#03312:14
#03310:41
#03414:14
#0341a:0014
#03512:14
#03518:0014
#03918:1414
#04214:1414
#0431a:14
#04312:0014
#04714:00140000
#04718:0014
#04712:00000014
#0471a:14
#0511a:14
#05112:00140000
#05118:0014
#05114:00000014
#05714:00140000
#05718:0014
#05712:00000014
#0571a:24
#0581a:14
#05814:00140000
#05818:0014
#05812:00000014
#05918:14
#0601a:14
#03612:24
#0361a:24
#0441a:24
#04418:00000034000034000000000000000000
#06814:24
#02510:41
#06110:41
#0055a:54
#00658:54
#00752:64
#00854:64
#00958:64
#0105a:64
#01154:54
#01252:54
#0235a:54
#02452:64
#02758:64
#05652:54
#05554:54
#0445a:54
#04458:0014
#02052:0014
#02854:54
#03258:64
#0295a:14
#04052:0014
#04652:0014
#05958:64
#0605a:64
#06152:0000001400000000
#0635a:0000001400000000
#06554:0000001400000000
#06758:0000001400000000
#06854:54
#0053a0:14
#005380:0034
#006380:34
#0063a0:0024
#007320:14
#007340:0034
#008340:34
#008320:0024
#009380:14
#0093a0:0034
#0103a0:34
#010380:0024
#011340:14
#011320:0034
#012320:34
#012340:0024
#0213a0:1424
#022320:1424
#0233a0:14
#023380:0024
#024320:14
#024340:00343424
#025380:1424
#026340:1424
#027380:14
#0273a0:0024
#028340:14
#028320:00343424
#032380:14343400
#0323a0:00000024
#040320:1424
#0443a0:14
#044380:00000034000034002400000000000000
#0483a0:14
#048380:00000000000000340000000024000000
#050320:14
#050340:00000000000000340000000024000000
#0523a0:14
#052380:00000000000000340000000024000000
#055340:14
#055320:0034
#056320:34
#056340:0024
#059380:14
#0593a0:0034
#0603a0:34
#060380:0024
#061320:1400002400000000
#0633a0:1400002400000000
#065340:1400002400000000
#067380:1400002400000000
#068340:14
#068320:0000003400002400
