This file was generated by Ched 2.7.0.0.
#TITLE ""
#ARTIST ""
#DESIGNER ""
#DIFFICULTY 0
#PLAYLEVEL
#SONGID ""
#WAVE ""
#WAVEOFFSET 0
#JACKET ""
#REQUEST "ticks_per_beat 480"
#00002: 4
#BPM01: 140
#00008: 01
#TIL00: ""
#VOLUME: ""
#HISPEED 00
#MEASUREHS 00
#0011a:14
#00214:14
#0031a:14
#00414:14
#00518:14
#00612:14
#00718:14
#00812:14
#0091a:14
#01012:14
#0191a:14
#02014:14
#02118:14
#02212:14
#0231a:14
#02414:14
#02518:14
#02612:14
#02610:41
#02718:14
#03212:14
#0331a:14
#03612:0016
#03618:26
#0361f:21
#03610:0041
#03718:1616
#03812:16
#03818:0016
#03912:1616
#04218:1616
#04312:1616
#04418:16
#04412:0016
#04518:1616
#04612:16
#04618:0016
#04610:41
#04712:1616
#05318:14
#05414:14
#05212:14
#0551a:14
#05612:14
#05610:41
#05718:14
#05814:14
#0591a:14
#06018:0016
#06012:26
#06112:1616
#06218:16
#06212:0016
#06318:1616
#06612:1616
#06812:16
#06818:0016
#06810:41
#06912:1616
#07018:16
#07012:0016
#07118:1616
#0791a:14
#07812:14
#08012:14
#08118:14
#08214:14
#0831a:14
#08312:0014
#0841a:14
#08412:0014
#0851a:14
#08612:14
#08718:14
#08814:14
#0891a:14
#09012:14
#05018:16
#05016:0016
#07412:16
#07414:0016
#07618:16
#07616:0016
#0281f:11
#02813:0034
#00014:00000024
#06718:2626
#09215:0026
#03119:34
#03019:0034
#02913:34
#01510:41
#05058:56
#05056:0026
#07452:66
#07454:0026
#07658:56
#07656:0026
#0113a0:14
#0123a0:24
#013340:14
#014340:24
#015380:14
#016380:24
#017320:14
#018320:24
#028320:14
#028330:0034
#029330:34
#029340:0024
#0303a0:14
#030390:0034
#031390:34
#031380:0024
#034340:1434
#035340:3424
#040380:1626
#041320:1626
#048380:1626
#049320:1626
#050380:16
#050360:0036
#051380:3626
#064320:1626
#065380:1626
#072320:1626
#073380:1626
#074320:16
#074340:0036
#075320:3626
#076380:16
#076360:0056
#077380:26
#091380:14
#0923a0:24
