This file was generated by Ched 2.7.0.0.
#TITLE ""
#ARTIST ""
#DESIGNER ""
#DIFFICULTY 0
#PLAYLEVEL
#SONGID ""
#WAVE ""
#WAVEOFFSET 0
#JACKET ""
#REQUEST "ticks_per_beat 480"
#00002: 4
#BPM01: 140
#00008: 01
#TIL00: ""
#VOLUME: ""
#HISPEED 00
#MEASUREHS 00
#00115:0013000000130013
#00118:00130013
#0011b:2300001300000000
#00112:0023
#00218:0013000013000013
#00215:0000130000131300
#0021b:2300000000131300
#00212:0000001300000000
#00318:0013000000130013
#00315:00130013
#00312:2300001300000000
#0031b:0023
#00415:0013001300001300
#00418:0000130000130000
#0041b:0013
#00412:2300000000000013
#0191b:1300001300000000
#01915:00130000
#01912:1300000013000013
#02012:0000000000130000
#02018:0013000000001300
#02015:1300130000000013
#0201b:0000001300000000
#0211b:1300000000230000
#02115:0000130000230000
#02112:0000000013000023
#02118:0000001300000023
#0221b:00130000
#02212:0000001300000000
#02215:0013000000130000
#02218:0013
#02312:23000013
#02317:0000000000000013
#0231b:13
#02315:00230000
#02419:0013000000000000
#02414:13
#02412:00000013
#02418:00000013
#02612:13
#02616:0000000012121200
#02618:13
#02610:41
#0301a:0014
#03016:00000000000000000000001400000000
#03012:0000000014000014
#03015:13
#0301b:13
#03017:00230000
#03019:0033000000000000
#03618:0000000000130013
#03615:00000013
#03614:00130000
#0361b:2313
#03612:0013
#03616:13
#0361f:21
#03610:0041
#03715:00131300
#03718:0000001300000000
#0371b:0013
#03712:0013000000000000
#0381b:0000130000130000
#03818:13
#03812:00130013
#03815:2300000000000013
#04112:13
#04115:0000001313000013
#04118:0013000000001300
#04015:1300000000130000
#04018:00001313
#04012:00000013000000000000000000000000
#0401b:0000001300000000
#04618:00130013
#04615:0000000000130000
#0461b:1313
#04610:41
#04718:0013000013000000
#04715:0000130000232300
#0471b:00000013
#05318:00130013
#05312:13
#0531b:0000000000130000
#05315:0000000013000013
#05218:0013000000000000
#05212:13
#0521b:00000000000000130000000000000000
#05118:0000001300130000
#05115:13001313
#0511b:0000000000000013
#05416:00000000000000000000001400000000
#05412:1313230000000014
#0541a:0014
#0541b:1313230000000000
#05618:0013000000130000
#05615:0000130000000013
#05612:0000001300230000
#0561b:2300000000000023
#05610:41
#0591a:0014240014000000
#05916:0000000000140000
#05912:0024140024000000
#07712:00130000
#0771b:0000001300000000
#07718:00001313
#07715:0000000000130000
#07812:0000001400000000
#07814:0014
#07816:0000000000140000
#07818:00000014
#0781a:0000000000000014
#07815:13
#07918:00000013
#07915:0000000000000013
#07912:0014000000000000
#07916:14000000001400000000000000000000
#01218:1200120000120000
#01216:00000012
#01214:0000000000000012
#01215:0012000000000000
#0121b:0000001200000000
#0281b:0000130000000013
#02815:1300001300000000
#02818:0013000000000000
#0281f:11
#0321b:13000013
#03212:0013000000001300
#03218:00130000
#03215:0000001300000000
#02915:0013000000000000
#02918:1300001300000000
#02912:0000130000000013
#0421b:1300000013000013
#04218:00130000
#04215:0000001313000000
#04815:00000013000000001300000000000000
#04812:13
#04818:0000001300000000
#05518:13000000000000000033333323000000
#05515:00001300000000000033333323000000
#0551b:0013
#05512:00000000003333331300000000000000
#05513:00330000
#05514:00000033000000000000000000000000
#0801b:13
#08012:0013000000000000
#08018:00130000
#08015:0000001300000000
#0811b:13
#08115:00130000
#08116:00000024
#0441b:0013
#04418:00000013
#04415:0000000000130000
#04412:13
#04512:00130013
#0451b:0000001300000000
#04515:0013
#04518:0013000000232300
#0131b:12
#01316:00120000
#01318:0000001200000000
#0131a:0012
#01314:0000000000120000
#01514:12
#01518:12
#01519:00120000
#01516:0000001200000000
#01513:0012
#01515:0000000000000012
#01510:41
#01618:12
#0161b:0012000000000000
#01616:00120000
#0161a:0000001200000000
#0171c:12
#01719:0000120000000012
#01716:0012
#01713:00000012
#03412:12
#03413:00120000
#03414:0012
#03415:00000012
#0341c:22
#0341b:00220000
#0341a:0022
#03419:00000022
#03516:12
#03514:0014
#03518:2224
#03918:1300000000000013
#03915:0013000013000000
#0391b:00130000
#03917:0000001300000000
#03912:00130000
#07615:0000000013000000000000000000000000160016001600160000000000000000
#07616:00000000000000002414141414000000
#0761b:13
#09012:0000001300000000
#09015:00001313
#09018:0000000000130013
#08915:0000130000000013
#08918:0000000013000013
#08912:13000013
#0891b:00000013
#0871a:0000000000000014
#08716:13
#08717:0000001300000000
#0871b:13
#08712:0013
#08818:14
#08816:00001400000000001400000000140000
#08814:00140000
#08812:0000001400000000
#0881a:0000000000140000
#0911b:13
#09112:0013000000000000
#09118:0000001300000000
#09115:00000000000000130000000000000000
#09218:16
#09217:0022
#00512:00130000
#0051b:00000013
#0061b:00000013
#0061a:0033000000000000
#00715:00132300
#00712:23
#0071b:0000002300000000
#00718:23000023
#00812:1313
#0081b:0000130000000023
#00818:0023
#00815:00230023
#0091b:0013
#00918:0000000000000013
#00916:00000000000000130000000000000000
#00912:13
#00915:0033003300330000
#0101b:0013000000000000
#01018:0000001300000000
#01012:00130000
#0111b:00120000
#01118:0000001200000000
#01115:0012
#01113:0000000000000012
#0181c:0012
#01816:00000032000000000000000000000000
#01416:00121200
#01419:0000001200000000
#01413:0000000000120000
#0141b:0012000000000000
#02718:00000012
#0311b:13
#03117:00000013000000000000000000000000
#03115:0000001313000000
#03112:00000000000000000000003323000000
#03118:00000023
#03114:00000000000000000033000000000000
#03113:0000000000330000
#03318:13000013
#03312:00130000
#03315:0013000000000000
#0431b:0000001313000000
#04315:1313
#04312:00130000
#04319:0000000000330000
#0501b:13
#05018:00130000
#05012:00000013
#05818:1300230000130013
#05812:23130000
#05815:0013001323001300
#0581b:00001323
#06015:0000000000130013
#06018:00000013
#06019:00130000
#06012:2313
#0601b:0013
#06017:13
#06118:00131300
#06115:0000001300000000
#06112:0013
#0611b:0013000000000000
#06212:0000130000130000
#06215:13
#0621b:00130013
#06218:2300000000000013
#07015:00130013
#07018:0000000000130000
#07012:1313
#07115:0013000013000000
#07118:0000130000232300
#07112:00000013
#07515:0000001300130000
#07518:13001313
#07512:0000000000000013
#06612:1300000013000023
#06615:00130000
#06618:0000001313000000
#07218:00000013000000001300000000000000
#0721b:13
#07215:0000001300000000
#06812:0013
#06815:00000013
#06818:0000000000130000
#0681b:13
#06810:41
#0691b:00130013
#06912:0000001300000000
#06918:0013
#06915:0013000000232300
#06315:1300000000000013
#06318:0013000013000000
#06312:00130000
#06316:0000001300000000
#0631b:00130000
#06518:0000001313000013
#06515:0013000000001300
#0651b:13
#0671b:00130000
#06718:2313
#06712:0000002323000000
#06714:0000000000330000
#07412:13
#07415:00130000
#0741b:00000013
#08315:00130000
#08314:0013
#08313:00000013
#08412:13
#08418:0013000000000000
#08415:00130000
#0841b:0000001300000000
#08416:00000024
#0821b:13
#08219:0013
#08212:00000022
#08214:00230000
#08512:13
#08514:0013
#0851c:00000022
#08519:00230000
#08616:1300001300000000
#0861b:00130000
#06418:1300000000130000
#06415:00001313
#0641b:00000013000000000000000000000000
#06412:0000001300000000
#00017:00000022
#02518:23
#0251b:00230000
#02512:0023
#02515:00000023
#05718:0000000023000000000000002333330000000000000000000000000000000000
#05715:00230000
#0491b:0023
#04915:0023
#07315:23
#0731b:23
#07312:00230000
#07318:00230000
#0195b:13
#03658:0000000000000053
#0365b:13
#05258:0053000000000000
#0525b:00000000000000230000000000000000
#0785b:13
#07855:13
#0905b:13
#09052:13
#0285b:00530000
#02855:0000005300000000
#0425b:5353
#04258:00230000
#04255:0053
#05555:0053000000001300
#0555b:0053
#05552:0053
#05558:00000013
#0495b:0013
#04958:13
#04955:0013
#04952:13
#0205b:0000001300000000
#02255:0000000000130000
#0545b:00130000
#05452:00130000
#07758:00000053
#07754:18
#02652:13
#02658:13
#01152:13
#01158:13
#03255:0000005300000000
#03258:00530000
#0375b:0063
#03755:0063
#07655:0000000053000000000000000000000000560056005600560000000000000000
#07656:00000000000000006454545424000000
#07952:0054000000000000
#07956:00000000002400000000000000000000
#0915b:63
#09152:0053000000000000
#09155:00000000000000230000000000000000
#09158:0000002300000000
#09258:56
#00956:00000000000000230000000000000000
#00952:6300000000000033
#02952:00630000
#02958:0000006300000000
#0305b:63
#03057:00130000
#0315b:63
#03157:00000023000000000000000000000000
#03155:0053
#03152:00000013
#03158:00000013
#03858:53
#03852:00230000
#0385b:00230000
#03855:53
#03957:0000002300000000
#0395b:00534300
#04052:00000023000000000000000000000000
#04055:63
#04158:0053000000000000
#04155:0063
#0435b:0053
#04355:5353
#04352:00230013
#04358:00000013
#04852:63
#04855:00000023000000000000000000000000
#06055:0000000000000063
#06052:13
#06652:6363
#06655:00230000
#06658:0063
#06152:0053
#06158:0053
#06255:63
#0625b:00230000
#06252:00230000
#06258:63
#06555:0063000000000000
#06558:0053
#0675b:00230013
#06758:6363
#06752:0063
#06755:00000013
#0725b:53
#07258:00000023000000000000000000000000
#07355:13
#0735b:13
#07352:0013
#07358:0013
#08756:63
#08752:0063
#0885a:0000000000640000
#08856:00000000000000000000000000240000
#06458:53
#0645b:00000023000000000000000000000000
#06352:00633300
#06356:0000002300000000
#08952:00000053
#08955:0000000000000023
#0895b:00000063
#08958:0000000000000023
#05758:0000002300000000
#05155:13
#07558:13
#005380:1323
#0053b0:00330000
#005351:0013
#005321:00000033
#006351:23
#006380:13
#0063a0:0033000000000000
#0063b0:00330000
#006390:0000003300000000
#006370:0023
#006361:00130023
#006341:0000003300330000
#006321:0033
#007351:00001323
#007380:00000013
#008380:23
#009320:1300000000000023
#009350:0033003300330000
#009360:00000000000000530000000000000000
#010350:0013
#010320:00000033
#011320:23
#010381:00000013
#011381:23
#011381:0000000000120022
#013361:0000000000000012
#014361:0022000000000000
#018361:12000032000000000000000000000000
#018341:0026
#019381:0000000000130023
#023351:0000133300230000
#023380:0000133300230000
#024360:00130000
#024320:0000000000230000
#0243b1:0000001300000000
#024381:0000000000230000
#025321:13
#025351:00230000
#025381:0013
#0253b1:00000023
#0263a1:000000000000000000000000000000000000000000125252
#026391:000000000000000000000000000000000000000000000000000000000000000000000000000000000000005400540054
#0273a1:525252220000000000000000000000000000000000000000
#027391:005400540054000000000000000000000000000000000000000000000000000000000000000000000000000000000000
#027341:000000000000000000125252525252525252220000000000
#027331:000000000000000000000000000000000000005400540054005400540054005400540054000000000000000000000000
#0283b1:00130000
#028371:00000023
#028350:0000001300000000
#028320:00000023
#029320:00130000
#029360:00000023
#029381:0000001300000000
#0293b1:00000023
#0303b1:13
#030391:0033000000000000
#030371:00230000
#0313b1:1300002300000000
#031371:00000053000000000000000000000000
#031351:0013
#031341:00000000000000000033000000000000
#031331:0000000000330000
#031321:00000000000000000000003323000000
#032381:00130000
#0323b1:0000000000230000
#032350:0000001300000000
#032320:0000000000230000
#033380:00130000
#0333b0:0023
#033351:0013
#033341:000000000000003300000000
#033331:000033
#033321:00000023
#036381:0000000000000013
#0373b1:0023000000000000
#0373b1:0013
#037381:00000023
#037350:0013
#037320:00000023
#038380:1323
#0383b0:00330000
#038351:1323
#038321:00330000
#0393b1:00132300
#039371:0000005300000000
#040351:1300002300000000
#040321:00000053000000000000000000000000
#041381:0013000000000000
#0413b1:0000002300000000
#041351:0013
#041321:00000023
#0423b1:1333
#042381:00330023
#042350:0013
#042320:00000023
#043350:1333
#043320:00330023
#0433b1:0013
#043391:0000000000330000
#043381:00000023
#0443b1:13230000
#044350:00132300
#044320:0000000000000013
#045320:0023000000000000
#046350:1323
#046320:00330000
#046320:0000000000000013
#047320:0023000000000000
#048320:1300002300000000
#048350:00000053000000000000000000000000
#048380:00000013
#049380:23
#048321:00000013
#049321:23
#0493b1:00132300
#049350:00132300
#050350:1323
#050320:00330000
#0503b1:0013
#050381:00000033
#0513b1:23
#052381:0013000000002300
#0523b1:00000000000000530000000000000000
#055351:00001300000000000033333323000000
#055341:00000033000000000000000000000000
#055331:00330000
#055321:00000000003333333300000000000000
#0553b0:0013
#055380:00000000000000000033333323000000
#057380:0000000000000000000000001333330000000000000000000000000000000000
#0573b0:00000023
#060350:0000000000000013
#061320:0023000000000000
#061320:0013
#061350:00000023
#061381:0013
#0613b1:00000023
#062351:1323
#062321:00330000
#062380:1323
#0623b0:00330000
#063320:00132300
#063360:0000005300000000
#064380:1300002300000000
#0643b0:00000053000000000000000000000000
#065350:0013000000000000
#065320:0000002300000000
#065380:0013
#0653b0:00000023
#066320:1333
#066350:00330023
#066381:0013
#0663b1:00000023
#067381:1333
#0673b1:00330023
#067320:0013
#067340:0000000000330000
#067350:00000023
#068320:13230000
#068381:00132300
#0683b1:0000000000000013
#0693b1:0023000000000000
#070381:1323
#0703b1:00330000
#0703b1:0000000000000013
#0713b1:0023000000000000
#0723b1:1300002300000000
#072381:00000053000000000000000000000000
#072351:00000013
#073351:23
#0723b0:00000013
#0733b0:23
#073320:00132300
#073381:00132300
#074381:1323
#0743b1:00330000
#074320:0013
#074350:00000033
#075320:23
#076350:0013000000000000
#076320:0023
#076361:00000000000000001454545454000000
#076351:0000000000000000000000000000000000560056005600560000000000000000
#077341:28
#077381:00000013
#0783b1:23
#079321:0014000024000000
#079361:00000000005400000000000000000000
#0803b1:0000000013230000
#080350:0000000000132300
#080381:0000000000001323
#080320:0000000000000013
#081320:23
#0813b0:00001323
#081361:00000014
#082361:24
#082341:00132300
#082321:00000012
#083321:22
#083370:13
#0833b0:00330000
#083390:0033
#0833a0:00000033
#084380:23
#084320:00001323
#084361:00000014
#085361:24
#085391:00132300
#0853c1:00000012
#0863c1:22
#0863b1:00001323
#086360:00000013
#087360:33
#087320:0000002300000000
#087320:0013
#087360:00000023
#0883a0:0000000000140000
#088360:00000000000000000000000000540000
#0893a0:24
#0893b0:00000013
#089380:0000000000000053
#0903b0:23
#089321:00000013
#089351:0000000000000053
#090321:23
#0913b1:13000023
#091381:0000005300000000
#091320:0013000000002300
#091350:00000000000000530000000000000000
#092380:16
#0923c0:0022
