This file was generated by Ched 2.7.0.0.
#TITLE ""
#ARTIST ""
#DESIGNER ""
#DIFFICULTY 0
#PLAYLEVEL
#SONGID ""
#WAVE ""
#WAVEOFFSET 0
#JACKET ""
#REQUEST "ticks_per_beat 480"
#00002: 4
#BPM01: 140
#00008: 01
#TIL00: ""
#VOLUME: ""
#HISPEED 00
#MEASUREHS 00
#0281f:11
#02818:1300000000000013
#02812:0013000000000000
#0281b:00130000
#02815:0000001300000000
#07015:0013
#07012:13000013
#0701b:0000000000130000
#07018:00130000
#07115:00130000
#07118:0013
#07112:0000000000242400
#06912:0013
#06918:0000001300000000
#06915:00130000
#0691a:0000000000242400
#06815:00000013
#06818:0000000000130000
#06810:41
#06315:00130000
#0631b:00130000
#06312:0000000000000013
#0621b:0000000000130000
#06212:00130000
#06215:23
#03918:00130000
#03912:00130000
#0391b:0000000000000013
#04618:0013
#0461b:13000013
#04612:0000000000130000
#04615:00130000
#04610:41
#04718:00130000
#04715:0013
#0471a:0000000000242400
#0521b:00000000000000130000000000000000
#05215:00000000000000130000000000000000
#05212:0013000000000000
#05218:0013000000000000
#08412:0013
#08416:00000024
#0811b:0013
#08115:00130000
#08118:13
#08116:00000024
#0881a:0014000014000000
#08815:00000000000000000000000000140000
#08812:0000001400140000
#08816:00140000
#08814:14
#08718:0000000000000014
#08715:13
#08712:0013
#07912:14
#07917:00000000001400000000000000000000
#0791a:0014000000000000
#07615:00000016
#07612:0026
#0761b:33
#07518:13
#0751b:0000003333333333
#07418:00130013
#07415:1313
#07412:00000013
#0741b:13
#06518:0013
#06515:0013000000000013
#0651b:13
#06415:0013
#06418:13000013
#06118:00131300
#06115:0000001300000000
#06018:00000013
#06015:0000000000130013
#0601b:00130000
#06012:24
#07215:0013
#0721b:00000013000000000000000000000000
#07218:13
#06618:1300000000000023
#05615:0013000000000013
#05612:0000001300000000
#05618:0000130000230000
#0561b:2300000000000023
#05610:41
#05512:00000000003333331300000000000000
#05515:00001300000000000033333323000000
#05514:00000033000000000000000000000000
#05513:00330000
#05418:0013000000000014
#05415:13230000
#0541a:0014
#05412:00000000000000000000001400000000
#05315:0013
#05318:00130000
#05312:13
#0531b:00000013
#05015:00130013
#05018:1313
#0501b:00000013
#05012:13
#05115:13
#05112:0000003333333333
#0311b:3313000000000000
#03115:0013
#03112:00000000000000000000003323000000
#03113:0000000000330000
#03114:00000000000000000033000000000000
#03018:0000000014000013
#03012:33130000330000000000000000000000
#03014:00000000000000000000001400000000
#02915:13000013
#02918:0000001300000000
#02912:00130000
#0291b:0013000000000000
#02913:0000000000000033
#02412:00130000
#02415:13
#0241b:0013000000330000
#01615:0000001300000000
#01618:00130000
#01612:0013000000000000
#0161b:13
#01515:0000001300000013
#01518:1313
#0151b:00130000
#01512:13
#01510:41
#0141b:00130000
#01418:0013000000000000
#0131b:1300000000130000
#01312:0013
#01318:0000001300000000
#01315:0000130000000013
#01215:0000000000000013
#01218:00000013
#01212:0000000000130000
#01219:33
#0121a:0033000000000000
#0121b:00330000
#00318:0000130000000013
#00315:0000001300001300
#0031b:0023
#00312:23
#09219:15
#09216:0024
#09112:0013000000000000
#0911b:13
#08915:0013
#08918:00130013
#09013:0000000000000013
#0901a:00000013
#09014:0000000000130000
#09019:0013
#09015:0000001300000000
#08315:00000013
#08318:0013
#0831b:00130000
#08018:0000001300000000
#08015:00130000
#0801b:0013000000000000
#08012:13
#0451b:0013
#04515:0000001300000000
#04518:00130000
#04512:0000000000242400
#04318:13
#04215:1300000000000013
#04115:0013
#04118:0013000000000013
#04112:13
#04018:0013
#04015:13000013
#03715:00131300
#03718:0000001300000000
#03615:00000013
#03618:0000000000130013
#03612:00130000
#0361f:21
#0361a:24
#03610:0041
#03514:0014
#03518:2224
#03416:00000012
#03415:00120000
#0341a:22
#03419:0022
#03312:13
#03318:0013000000000000
#02618:1300000000130000
#02615:00001313
#02612:13
#02610:41
#0251b:00230013
#02518:2313
#02515:00130023
#02512:1323
#02215:0013000013000000
#02212:0000000000130000
#02218:0000001300000000
#0221b:00130000
#01912:0000000013000013
#01918:0000000000130000
#0191b:1300001300000000
#01915:00130000
#01712:00000013
#01718:0000130000000013
#01715:0013
#0171b:13
#00412:2300000000000013
#00418:00130013
#00415:0000001300130000
#0041b:0013
#0021b:2300001300000000
#00212:00130000
#00218:0000000000131300
#00215:0013
#0381b:00130000
#03812:0000000000130000
#03818:23
#04418:00000013
#04415:0000000000130000
#04818:0013
#04812:00000013000000000000000000000000
#04815:13
#02018:13130013
#0201b:0000001300000000
#02015:0013000000130013
#00915:13
#00912:00003300000033130000330000000000
#03215:0013000000000000
#0321b:13
#00115:0000130000000013
#00118:0000001300001300
#00112:0023
#0011b:23
#0781a:0000000000000014
#07816:00000014
#07812:0000000000140000
#07818:0014
#07814:0000001400000000
#07715:0000001300130000
#07718:0013
#0771b:00130000
#05918:0000140000140000
#05914:0024000024000000
#0581b:0000001300000013
#05815:0013000000130000
#05818:00230023
#05812:2323
#02318:0000330000000013
#02312:23000013
#02315:00330000
#02118:0000001300000000
#02112:0013
#02115:0000130000000023
#0211b:1300000000230000
#08518:00230000
#0851a:00000022
#06715:23
#06718:0023
#07318:00230000
#07312:00230000
#04915:0023
#0491b:0023
#08215:00230000
#08214:00000022
#05718:0000000023000000000000002333330000000000000000000000000000000000
#05715:00230000
#00718:23000023
#00715:0023
#0071b:0000002300000000
#00812:00230000
#0081b:0000000023000023
#00815:00000023
#00016:00000024
#00613:0033003300330000
#01815:00000033000000000000000000000000
#06352:0013
#06358:0013
#06355:00630000
#0635b:00530000
#0395b:0013
#03955:0013
#03958:00530000
#03952:00630000
#07358:0013
#07352:0013
#06758:00000013
#06755:53
#04355:00000013
#04358:63
#07752:36
#0115b:13
#0905b:13
#0785b:13
#00955:5300000000000013
#00952:00000000000000230000000000000000
#07652:0056
#07655:00000026
#06052:14
#0605b:00530000
#06055:0000000000000063
#05555:0053000000001300
#05552:0053
#05455:00130000
#04955:0013
#0495b:0013
#03152:00000013
#0315b:0023000000000000
#03155:0053
#0365a:14
#03652:00630000
#03658:0000000000000053
#0525b:00000000000000230000000000000000
#05255:00000000000000230000000000000000
#05252:0063000000000000
#05258:0063000000000000
#08855:00000000000000000000000000240000
#08852:0000000000640000
#07558:63
#06555:0063000000000000
#06158:0053
#06252:00630000
#06255:53
#0725b:00000023000000000000000000000000
#07258:63
#06658:63
#06458:53
#05155:53
#03058:0000000000000053
#03052:00230000000000000000000000000000
#02955:00000063
#02958:0000006300000000
#08755:53
#08752:0063
#09259:55
#09152:0053000000000000
#0915b:63
#07957:00000000002400000000000000000000
#0795a:0054000000000000
#04158:0053000000000000
#03755:0063
#02658:13
#02652:13
#0385b:00530000
#03858:63
#08958:00000053
#04852:00000023000000000000000000000000
#04855:53
#04255:53
#02855:0000005300000000
#04055:63
#0195b:13
#005380:1333
#0053b0:00330023
#006350:1333
#006330:0033003300330000
#006320:00330023
#007350:00001323
#007381:00000013
#008381:23
#009351:1300000000000023
#009321:00003300000033530000330000000000
#010321:0013
#010351:00000023
#010380:00000013
#0113b0:23
#011350:00130000
#011340:0000003300000000
#011330:0033
#011320:0000000000230000
#011380:0000000000000013
#012390:33
#0123a0:0033000000000000
#0123b0:0000332300000000
#014350:0000001300000000
#014320:0000000000230000
#018350:13000033000000000000000000000000
#018330:0027
#0233b0:13
#023380:0000333300230000
#023321:13
#023351:0000333300230000
#024381:0000001300000000
#0243b1:0000000000332300
#0263a1:000000000000000000000000000000000000000000135353
#026391:000000000000000000000000000000000000000000000000000000000000000000000000000000000000005500550055
#0273a1:535353230000000000000000000000000000000000000000
#027391:005500550055000000000000000000000000000000000000000000000000000000000000000000000000000000000000
#027341:000000000000000000135353535353535353230000000000
#027331:000000000000000000000000000000000000005500550055005500550055005500550055000000000000000000000000
#028351:0000001300000000
#028321:00000023
#029381:0000001300000000
#0293b1:00000023
#029350:00000013
#029330:0000000000000033
#030320:33530000330000000000000000000000
#030350:0000002300000000
#030380:0000000000000013
#0313b0:3353000000000000
#031380:0000002300000000
#031350:0013
#031340:00000000000000000033000000000000
#031330:0000000000330000
#031320:00000000000000000000003323000000
#032380:00130023
#032321:0000001300002300
#033351:00130023
#0333b0:00001323
#036320:00130000
#036350:0023
#036380:0000000000000013
#0373b0:0023000000000000
#037350:0013
#037320:00000023
#038380:1323
#0383b0:00330000
#038380:00000013
#039380:0033330000000000
#0393b0:0023
#038321:0000000000000013
#039321:0033330000000000
#039351:0023
#040351:13
#040321:0000002300000000
#041381:0013000000000000
#0413b1:0000002300000000
#042351:13
#042321:0000002300000000
#042381:00001323
#043381:13
#0433b1:0000002300000000
#043351:0000000013332300
#0443b1:1323
#044381:00330000
#044321:0000000000000013
#045351:0023000000000000
#046351:0000000000000013
#047321:0023000000000000
#048351:1300002300000000
#048321:00000053000000000000000000000000
#048381:00000013
#049381:23
#048320:00000013
#049320:23
#049350:00132300
#0493b1:00132300
#051351:13
#051321:0000003333333333
#052321:3333000000002300
#052351:00000000000000530000000000000000
#052380:1333000000002300
#0523b0:00000000000000530000000000000000
#055350:13003300000000000033333323000000
#055340:00000033000000000000000000000000
#055330:00330000
#055320:00000000003333333300000000000000
#057380:0000000000000000000000001333330000000000000000000000000000000000
#0573b0:00000023
#0603b0:00130000
#060380:0023
#060350:0000000000000013
#061320:0023000000000000
#061380:0013
#0613b0:00000023
#062350:1323
#062320:00330000
#062350:00000013
#063350:0033330000000000
#063320:0023
#0623b1:0000000000000013
#0633b1:0033330000000000
#063381:0023
#064381:13
#0643b1:0000002300000000
#065351:0013000000000000
#065321:0000002300000000
#066381:13
#0663b1:0000002300000000
#066351:00001323
#067351:13
#067321:0000002300000000
#067381:0000000013332300
#068321:1323
#068351:00330000
#0683b1:0000000000000013
#069381:0023000000000000
#070381:0000000000000013
#0713b1:0023000000000000
#072381:1300002300000000
#0723b1:00000053000000000000000000000000
#072351:00000013
#073351:23
#0723b0:00000013
#0733b0:23
#073380:00132300
#073321:00132300
#075381:13
#0753b1:0000003333333333
#0763b1:3323000000000000
#076321:0016
#076351:00000056
#077321:26
#077381:00000013
#0783b1:23
#0793a1:0014000024000000
#079371:00000000005400000000000000000000
#080351:0013
#080341:0000000000330000
#080331:00000033
#080321:0000000000000023
#081361:00000014
#082361:24
#082351:00132300
#082341:00000012
#083341:22
#084381:13
#084391:0033000000000000
#0843a1:00330000
#0843b1:0000002300000000
#084361:00000014
#085361:24
#085381:00132300
#0853a1:00000012
#0863a1:22
#086351:0013
#086321:00000033
#087351:33
#087321:0000002300000000
#087321:0013
#087351:00000023
#088321:0000000000140000
#088351:00000000000000000000000000540000
#089321:24
#089381:00000013
#0903b1:23
#0913b1:13
#091381:00000023
#091320:0013000000000000
#091350:00000023
#092390:15
#0923b0:0023
