This file was generated by Ched 2.7.0.0.
#TITLE ""
#ARTIST ""
#DESIGNER ""
#DIFFICULTY 0
#PLAYLEVEL
#SONGID ""
#WAVE ""
#WAVEOFFSET 0
#JACKET ""
#REQUEST "ticks_per_beat 480"
#00002: 4
#BPM01: 140
#00008: 01
#TIL00: ""
#VOLUME: ""
#HISPEED 00
#MEASUREHS 00
#00118:0013000023000013
#00115:0000130000130000
#0011b:2300001300001300
#00112:1300001300001300
#00215:0013000000000000
#00218:00130000
#00212:2300001300131300
#00216:0000000014000014
#0021b:1300000000131300
#00718:0013002626000000
#00715:00130000
#00712:0000001300002600
#0071b:23
#0081b:1300130023000023
#00815:00001300000000130000130000001300
#00818:0000001300002300
#00812:00231313
#0091c:0000000000000012
#00916:00000000000000120000000000000000
#00912:12
#00918:0012000000120000
#0091a:0000001200000000
#01015:0013000000000000
#0101b:00130000
#01012:0000001300000000
#01018:00000000000000130000130013000000
#0111a:00121200
#0111c:0000001200000000
#01117:0000000000000012
#01118:0000000000120000
#01112:14
#0121c:0000001200120000
#0121a:12120012
#01218:0012000000000012
#01212:12
#01416:0012001200000000
#01418:00120000
#01414:0012
#01412:0000000000120000
#0141c:12
#0151c:00120000
#01518:0000000000000012
#0151a:0000001200000000
#01512:14
#01510:41
#0161c:0012000000000000
#0161a:12
#01618:00120000
#01612:12
#01918:1600001300000000
#01912:13
#01915:00131300
#0191b:0000000000130000
#01812:0012
#01816:12
#0201b:0000000000130000
#02015:00130013
#02012:0000000000130013
#02013:13
#02014:0013000000000000
#02016:0000001300000000
#02018:0000000000000013
#0211b:1300000000230000
#02118:00000000130000130000000000000000
#02112:0000000013000023
#02115:1300001300000000
#02116:0000000000130000
#0221a:00130000
#02219:0000001300000000
#02217:0000000000130000
#02218:0013
#02318:13000013
#0231b:00130000
#02315:2300002300000013
#02312:00230000
#02412:00000013
#02417:0013000000000000
#02419:00130000
#0241b:00000013
#02612:1300000012121200
#02617:13
#02610:41
#02718:00000000000000130000130000000000
#02716:00000013
#02715:0000001313000000
#02714:0000000000000013
#0301a:0014
#03018:00001300000000000000001400000000
#03012:13231400
#03016:0000000000000014
#03015:0013000000000000
#0301b:13230000
#03518:2300001326260000
#03515:13000000000000130000000000000000
#03512:0013130016160000
#0351b:0013130000000000
#03815:13130013
#03812:0013001300130013
#03817:0000000000000013
#0381b:0013001300130000
#03818:23130000
#04212:0000130000001313
#04216:1300001313000000
#0421b:1313
#04217:0000130000000013
#04316:13000000000000130000140014000000
#04312:0000130000130000
#04317:00130000
#0431b:1300001313001300
#04412:0013000000001400
#04416:1300130000140013
#0441a:0014
#04417:0013000000000000
#0441b:1300000000000013
#04117:1313000000000000
#04115:0000001300130000
#0411b:00000000000000000013000000001300
#04112:00001313
#04118:00000000000000000000001300000000
#04012:13
#04016:0013
#04019:0000000000130000
#0401b:0013
#04017:00000013
#0471a:00000014
#04712:0000220000140000
#04716:0000000000242400
#04717:00220000
#04912:00140013
#04916:00142400
#04918:0000000000130000
#04915:00000000000000000000001300000000
#0491b:00000013
#0491a:0024
#0481b:1313
#04817:00000013000000000000000013000000
#04813:00000013
#04816:1313
#04812:00000013000000000000000000000000
#05017:00130013
#05012:00130013
#05016:13
#0501b:1313
#05019:0013001300000000
#05014:0000000000130013
#05318:0000001300001200
#0531b:13130000
#0531a:0000000000120000
#05316:0000000000000012
#05315:0013000000000000
#0531c:0012
#05312:13131313
#0511b:0000001300000013
#05119:00001313
#05117:0000000000130000
#05212:13131313
#05218:0000000000000013
#05217:0013000000000000
#05219:13
#0571c:0000001200000000
#05718:00000000000000320012000000000000
#05716:0022002200001200
#05712:00220000
#0571a:0000000000000000000000000032000000000000000000000000000000000000
#05812:0013001323001300
#0581b:1300230000130013
#05816:2300130000130013
#05817:0013000000002300
#05819:0000000000000000000000000033330000000000000000000000000000000000
#05915:00001300000000130000000000000000
#05918:0000131300000000
#0591a:0024000024140000
#05912:0000240013140000
#07715:0000130000130000
#0771b:0000001300000000
#07712:0000001300001300
#07718:0013000013000000
#07717:00000013
#07816:0000001300000000
#07817:0013
#07818:0000000000130000
#07819:00000013
#0781a:0000000000000013
#0791b:13000013
#07915:0013000000000000
#07917:0000000000000013
#07912:00000013
#08117:0013130013000000
#0811b:0000001300000000
#08112:1400001313000000
#08116:00000024
#0841b:1300001313000000
#08418:0013000000000000
#08415:00130000
#08412:0000001300000000
#08416:00001324
#08316:00130000
#08317:00000013
#08614:0013000000000000
#08612:1313
#08619:0000001300000000
#08617:0013
#0861b:00130013
#08616:00130013
#01316:0000120000120000
#01314:0000001200000012
#01312:0012
#0131a:14
#0331b:1313130013001300
#03312:00131313
#03318:0000001300000000
#03315:00000000000000130000000000000000
#03316:130000000000001414000000
#03314:0013000000000000
#0321b:00131313
#03212:1313130013131300
#03217:13
#03215:0000001300000000
#03218:00000000000000130000130000000000
#03219:0013000000000000
#0391b:0013130000000000
#03912:0000130000333300
#03917:0000001300000013
#03919:13
#05418:00261600
#05415:00000000000000000000000000000000000000000000000000000000000000130000000000000000000000001600000000000000000000000000000000000000
#0541a:12
#05419:0014000000000000
#05414:12
#05413:0014000000000000
#05412:0000260000000016
#05518:16000013001400150016001500000000
#05515:0013000000000000
#05514:00140028
#05513:0000001500150000
#05512:0016
#0761b:00001300000000001313131313000000
#07617:00000000001300000000000000000000
#0761a:0000000000000000000000000000000000130013001300130000000000000000
#07613:0000000000000000000000000000000000130013001300130000000000000000
#07612:00000000000000002313131313000000
#07615:00000000000000000000000000130000
#07618:12000000000000000000000000130000
#07616:0012000000000000
#0801b:13
#08015:0000000000140000
#08014:00000014
#08013:0000000000000014
#08016:0014
#0821b:00130000
#08219:0013
#08217:00000013
#08214:0016230000000000
#08212:0000000000152200
#08817:13130000
#0881b:0013001313000000
#08815:0000000000130000
#08814:00000013
#08813:0000000000000013
#0881a:0000000000330000
#0871b:0000001313000013
#08716:0000000013000013
#08717:13
#08712:13
#09112:13
#0911b:1300001300000000
#0911c:00120000
#09119:0000000000150000
#0911a:0014
#09117:0000000000000017
#09118:00000016
#00416:0013
#00415:0000130000130000
#00414:00000013
#00413:0000000000000013
#00418:0013000000000013
#0041b:2300001300000000
#00412:13
#0041a:0000000000130000
#00419:00000013
#08916:0000001400140000
#09018:00001300000000130000000000000000
#09015:00000013000013000000000000000000
#0901b:00131323
#09012:00232323
#02517:1313
#0251b:00130013
#02512:2323
#02516:00230023
#04512:00140024
#04516:0000001400240000
#0451a:00000014
#00616:00130013
#00614:0013001300130000
#00612:0013
#0061b:00130000
#00617:1313
#00619:0033003300330000
#00315:0013000023000013
#00318:0000130000130000
#00312:2300001300001300
#0031b:1300001300001300
#0171a:14
#01716:00120000
#01714:0000000000000012
#03416:12000012
#03412:00120000
#03414:0012
#03418:22000022
#0341a:0022
#0341c:00220000
#03616:00001313
#03612:26130000
#0361b:0000000000130000
#03618:0000000000000013
#0361f:21
#03610:0041
#03716:0013
#03714:0000001300000000
#03712:00130000
#0371b:0013
#08512:00130000
#08514:0013
#08516:0016000000001300
#08519:0000230000150000
#0851c:00000022
#09216:18
#09217:0022
#0281b:1300001300000000
#02817:00001300000000000013000000000000
#02819:00130000
#02818:0000000000000013
#02812:23131313
#0281f:11
#02916:00001300000000000013000000000000
#02914:00130000
#02912:1300001300000000
#02915:0000000000000013
#0291b:23131313
#03112:14000024
#03115:00000013001300130013001300000000
#03118:0013131313130000
#0311a:14000024
#04612:14000012
#04614:0000130000120022
#04616:0014000012000000
#0461a:14
#04617:0000001300000000
#0461b:00130000
#04618:0000000000120000
#0461c:0012
#04619:0000000000000022
#04610:41
#06218:13130013
#0621b:0013001300130013
#06216:0000000000000013
#06212:0013001300130000
#06215:23130000
#06617:1300001313000000
#0661b:0000130000001323
#06612:1313
#06616:0000130000000023
#0671b:0000130000230000
#06716:0000130000141400
#06717:23000000000000130000000000000000
#06712:2300002323002300
#0681b:0013000000000000
#06817:1300130000000013
#06816:0013000000140000
#0681a:00000014
#06812:1300000014000013
#06810:41
#06516:1313000000000000
#06518:0000001300130000
#06512:00000000000000000013000000001300
#0651b:00001313
#06515:00000000000000000000001300000000
#0641b:13
#06417:0013
#06414:0000000000130000
#06412:0013
#06416:00000013
#07112:00000014
#0711a:0000000000140000
#07116:0000000000242400
#0711c:00220000
#07117:00220000
#07212:1313
#07216:00000013000000000000000013000000
#07217:1313
#0721b:00000013000000000000000000000000
#0721a:00000013
#07416:00130013
#0741b:00130013
#07417:13
#07412:1313
#07414:0013001300000000
#07419:0000000000130013
#07315:0000000000130000
#07318:00000000000000000000001300000000
#0731b:00000013
#07312:23000013
#07316:23240000
#0731a:00240000
#07512:0000001200000000
#07514:0012
#07516:0000000000120000
#07518:00000012
#0751a:0000000000000012
#06312:0013130000000000
#0631b:0000130000333300
#06316:0000001300000013
#06314:13
#06017:00001313
#0601b:00130000
#06012:0000000000130000
#06015:0000000000000013
#06018:26
#06117:0013
#06119:0000001300000000
#0611b:00130000
#06112:0013
#05618:0000001200220022
#0561c:22
#05612:22
#05610:41
#06916:0000001400240000
#0691a:00140024
#06912:00000014
#0701a:1400000000120022
#07019:00130000
#07018:0012
#0701c:00000012
#07012:14131200
#07016:0014001300120000
#07015:0000000000000022
#00017:00000022
#0095c:0000000000000012
#00956:00000000000000220000000000000000
#00952:52
#01958:16
#03852:0023002300000063
#03855:63630000
#03858:53530000
#0385b:0023002300000000
#04052:63
#04356:53
#04352:0000530000330000
#0435b:43004343
#04452:0023000000000000
#04456:5300530000000053
#04457:0023000000000000
#0445b:5300000000000053
#04952:00540000
#04957:13
#04956:00541400
#0495a:0014
#0495b:13
#0485b:53
#04857:00000023000000000000000053000000
#04853:00000053
#04856:53
#04852:00000023000000000000000000000000
#05052:00630000
#05056:63
#05057:00000063
#0505b:0063
#0575c:0000005200000000
#05758:00000000000000000022000000000000
#07652:00000000000000005363636363000000
#0765b:00006300000000005353535353000000
#07657:00000000002300000000000000000000
#0765a:0000000000000000000000000000000000530053005300530000000000000000
#07653:0000000000000000000000000000000000630063006300630000000000000000
#07658:00000000000000000000000000230000
#07655:00000000000000000000000000230000
#07856:13
#0785b:13
#0795b:53
#07955:0053000000000000
#0825b:13
#0905c:12
#0905b:00000013
#09052:12
#0115b:13
#01152:54
#01058:00000053
#03352:00130013
#0325b:00130013
#02252:0000000000130000
#02257:0000000000130000
#0205b:0000001300000000
#02056:0000001300000000
#0425b:5353
#04257:00530000
#04256:3333
#05257:0053000000000000
#05554:00000018
#08657:0063
#0865b:00000063
#08656:00000063
#08157:0063
#08152:14
#09152:13
#02557:0053
#0255b:00000053
#04157:0063000000000000
#03957:0000002300000063
#0395b:00534300
#07752:36000063
#07757:00000053
#07758:46
#02652:13
#02657:53
#00152:1300001300001300
#00656:00000053
#0065b:00530000
#00657:5353
#0025b:13
#00252:0000001300000000
#0035b:1300001300001300
#0045b:0000001300000000
#00452:13
#00752:00000056
#00758:0056
#01252:22
#0175a:64
#03652:16
#03656:00000063
#03658:0000000000000063
#03756:0023
#0375b:0023
#0515b:13
#0595a:0044000044000000
#05952:00340000
#08456:0053
#08552:13
#0885b:0053
#09256:58
#02857:00000000000000000023000000000000
#0285b:0000005300000000
#02952:0000006300000000
#02956:00000000000000000023000000000000
#03152:00000034
#0315a:00000044
#03052:00130000
#0305b:00130000
#0465a:54
#0465b:00530000
#04656:0024000000000000
#04657:0000002300000000
#04658:0000000000220000
#0465c:0052
#05452:00160000
#05458:00160000
#0625b:0023002300000053
#06258:53530000
#06252:0023002300000000
#06255:63630000
#06657:4343
#06652:6363
#06656:00630000
#0675b:0000630000430000
#06752:33003333
#06757:63
#0685b:0023000000000000
#06857:6300630000000063
#06856:0023000000000000
#06852:6300000000000063
#0645b:53
#07252:63
#07256:00000023000000000000000063000000
#07257:63
#0725b:00000023000000000000000000000000
#0725a:00000063
#0745b:00530000
#07457:53
#07456:00000053
#07452:0053
#06556:0053000000000000
#06356:0000002300000053
#06352:00633300
#06057:00000053
#06055:0000000000000053
#06058:16
#06157:0023
#06152:0023
#07552:13
#07356:13641400
#07352:1314
#0735a:00640000
#08757:63
#08752:63
#08756:0023
#0875b:0023
#0135a:64
#0145c:22
#01552:54
#01652:22
#07052:64636200
#07056:0024002300220000
#005370:13
#0053b0:00230000
#005321:1333
#005361:00330033
#006321:23
#005370:0013
#0053b0:00000023
#006370:1333
#006390:0033003300330000
#0063b0:00330023
#006361:00000013
#007321:23
#007381:00001623
#007320:00000016
#008320:23
#009320:1200000000000022
#009360:00000000000000520000000000000000
#010350:00001323
#010381:00000013
#0113b1:23
#011320:14
#012320:52
#013320:24
#0133a1:14
#0143c1:52
#0153a1:24
#015320:14
#016320:52
#017320:24
#015381:00001222
#0163a1:0000001200002200
#0173a1:14
#0183c1:22
#017360:0012
#017320:00000022
#018381:00000013000000000000000000000000
#018351:0029
#019321:0000000000130023
#019370:0000000000000013
#0203b0:0000002300000000
#0213b0:0000000000000013
#0223b0:0023000000000000
#022361:0013000000000000
#022321:0000000000230000
#023351:0000001300230000
#023380:0000001300230000
#024320:1300000000230000
#0243b1:0000001300230000
#025371:0013
#0253b1:00000033
#026371:33
#0263b1:0000000000000023
#026350:000000000000000000000000000000000000000000125252
#026340:000000000000000000000000000000000000000000000000000000000000000000000000000000000000005400540054
#027350:525252220000000000000000000000000000000000000000
#027340:005400540054000000000000000000000000000000000000000000000000000000000000000000000000000000000000
#027381:0013000000000000
#0273b1:0000002300000000
#0283b1:0000001300002300
#028371:00000000000000000053000000000000
#029321:0000001300002300
#029361:00000000000000000053000000000000
#0363b1:1323
#036371:00330000
#036361:00000013
#037321:0023000000000000
#036380:0000000000000013
#0373b0:00535300
#037370:00000023
#037361:0013
#037321:00000023
#038351:13332300
#038321:0053005300000000
#038380:13332300
#0383b0:0053005300000000
#038320:0000000000000013
#039360:0023000000000000
#0393b0:00132300
#039370:0000005300000000
#039371:0013
#039321:0000000000333323
#039370:0000000000000013
#0403b0:0000002300000000
#040321:13
#040361:0000002300000000
#040321:00000013
#041321:0023000000000000
#041370:0013000000000000
#0413b0:0023
#0423b0:1300003333000000
#042370:0053330000532300
#043360:1300002300000000
#043320:0053330000000000
#044360:13330000
#044320:0053000023000000
#0443b1:13230000
#044371:0053000000000000
#044360:0000000000000013
#045320:0023000000000000
#0443b1:0000000000000013
#045371:0023000000000000
#0453a1:0000000014240000
#0463a1:14
#046361:0054000000000000
#0463b1:00330000
#046371:0000005300000000
#0463c1:00003222
#046381:0000000000520000
#046341:0000000000000012
#047371:0022000000000000
#046390:0000000000000012
#0473c0:0022000000000000
#047370:00120000
#0473a0:0022
#047321:00120000
#047351:0022
#0483b1:1300002300000000
#048371:00000053000000000000000000000000
#048360:1300002300000000
#048320:00000053000000000000000000000000
#048330:00000013
#049370:23
#048371:00000013
#0493b1:23
#049321:00140000
#049361:0024
#049360:00140000
#0493a0:0024
#050360:1323
#050320:00330000
#0503b1:0013
#050371:00000033
#0513b1:23
#051360:13
#051320:00000022
#052370:0013000000000000
#0523b0:00000023
#056320:12
#056360:0022000000000000
#056381:0012000000000000
#0563c1:00220000
#056360:00120000
#056320:0000002200000000
#056360:0000000000120022
#056381:0000000000000012
#0573c1:0032003200002200
#057381:00000000320000320052000000000000
#0573a1:0000000000000000000000000032000000000000000000000000000000000000
#0583b1:0000001300000000
#058391:0000000000000000000000000033330000000000000000000000000000000000
#058371:0023
#060321:1323
#060361:00330000
#060371:00000013
#0613b1:0023000000000000
#060350:0000000000000013
#061320:00535300
#061360:00000023
#061371:0013
#0613b1:00000023
#062381:13332300
#0623b1:0053005300000000
#062350:13332300
#062320:0053005300000000
#0623b0:0000000000000013
#063370:0023000000000000
#063320:00132300
#063360:0000005300000000
#063361:0013
#0633b1:0000000000333323
#063360:0000000000000013
#064320:0000002300000000
#0643b1:13
#064371:0000002300000000
#0643b1:00000013
#0653b1:0023000000000000
#065360:0013000000000000
#065320:0023
#066320:1300003333000000
#066360:0053330000532300
#067370:1300002300000000
#0673b0:0053330000000000
#068370:13330000
#0683b0:0053000023000000
#068321:13230000
#068361:0053000000000000
#068370:0000000000000013
#0693b0:0023000000000000
#068321:0000000000000013
#069361:0023000000000000
#069321:0000000014240000
#070321:14333222
#070361:0054005300520000
#0703a1:0000000000000012
#071371:0022000000000000
#070350:0000000000000012
#071320:0022000000000000
#071370:00120000
#071340:0022
#0713c1:00120000
#071391:0022
#072321:1300002300000000
#072361:00000053000000000000000000000000
#072370:1300002300000000
#0723b0:00000053000000000000000000000000
#0723a0:00000013
#073360:23
#072361:00000013
#073321:23
#0733a1:00140000
#073361:0024
#073360:00140000
#073320:0024
#074370:1323
#0743b0:00330000
#074321:0013
#074361:00000033
#075321:23
#075370:13
#0753c0:00000022
#0763b0:00001300000000003353535353000000
#076370:00000000005300000000000000000000
#0763a0:0000000000000000000000000000000000530053005300530000000000000000
#076380:00000000000000000000000000530000
#077380:26
#076321:00000000000000001353535353000000
#076331:0000000000000000000000000000000000530053005300530000000000000000
#076351:00000000000000000000000000530000
#077321:26
#077371:00000013
#0773b1:00000000000000000000000000530000
#0783b1:23
#077320:00000013
#077360:00000000000000000000000000530000
#078360:23
#078320:00130000
#079320:23
#0793b1:13
#079371:0023
#079350:0013000000000000
#079320:0023
#080320:1323000000000000
#080381:0013230000000000
#080350:0000132300000000
#0803b1:0000001300000000
#0813b1:23
#081371:0013
#0813b1:00000053
#0823b1:23
#081360:00000014
#082360:24
#082340:00132300
#082320:00000012
#083320:22
#083371:13
#0833b1:00330000
#083381:0023
#083350:0013
#083320:00000033
#084360:23
#084360:0013
#084320:00000053
#085320:23
#084361:00000014
#085361:24
#085391:00132300
#0853c1:00000012
#0863c1:22
#086371:0013
#0863b1:00000033
#087371:33
#0873b1:00230000
#086360:00000013
#087320:33000023
#087360:00533300
#0873b1:0013
#087371:00000023
#088321:13
#088361:0023000000000000
#088321:00130000
#088361:0000002300000000
#0883b1:0013
#0883a1:0000000000330000
#089371:23
#089320:13230000
#0893b1:0000132300000000
#089321:0000000013230000
#089381:00000012
#0893c1:00000000000000000000000000520000
#0903c1:22
#089360:00000012
#089320:00000000000000000000000000520000
#090320:22
#090380:0000000000130000
#090390:000033
#0903a0:000000000000000000000000000000000033000000000000
#0903b0:00000023
#091370:00130000
#092320:23
#092361:18
#0923c1:0022
