This file was generated by Ched 2.7.0.0.
#TITLE ""
#ARTIST ""
#DESIGNER ""
#DIFFICULTY 0
#PLAYLEVEL
#SONGID ""
#WAVE ""
#WAVEOFFSET 0
#JACKET ""
#REQUEST "ticks_per_beat 480"
#00002: 4
#BPM01: 140
#00008: 01
#TIL00: ""
#VOLUME: ""
#HISPEED 00
#MEASUREHS 00
#00114:0014
#0011a:14
#0021a:14
#00214:0014
#00318:14
#00312:0014
#00418:14
#00412:0014
#0051a:14
#00512:0014
#00718:0014
#00714:14
#00812:14
#0081a:0014
#01712:14
#01718:0014
#0191a:2414
#01914:00140000
#02018:00140000
#02012:1414
#02118:14
#0211a:0014
#02114:00140000
#02214:14
#02212:0014
#02218:00140000
#02518:1414
#02514:00140014
#02618:14
#02612:0014
#02610:41
#0271a:14
#02714:0014
#0301a:14000000000000001400003400003400
#03014:00140000
#03117:14
#0311a:0000003400002400
#03212:14
#03218:0014
#03314:14
#0331a:0014
#03412:14
#03415:00000034
#03414:0034
#03413:00340000
#03614:00140000
#03618:0014
#03612:00000014
#0361a:24
#0361f:21
#03610:0041
#03718:14
#03714:00140000
#03812:14
#03818:00140000
#03814:0014
#0381a:00000014
#03914:14
#03918:00140000
#03912:0014
#04219:1515
#04217:00150000
#04314:1515
#04312:00150000
#0441a:14
#04412:00140000
#04512:14
#0451a:00140000
#0461a:14
#04614:00140000
#04618:0014
#04612:00000014
#04610:41
#0471a:14
#04714:00140000
#04718:0014
#04712:00000014
#0481a:14
#04812:00000016
#04912:16
#04918:00262600
#05014:14
#05018:00140000
#05012:0014
#0501a:00000014
#05114:14
#0521a:1414
#05214:00140000
#05312:1414
#05318:00140000
#0541a:14
#05418:0014
#05414:00140000
#05512:14
#05514:0014
#05518:00140000
#0581a:14
#05816:00140014
#05812:0014
#0591a:14
#06018:00140000
#06014:0014
#0601a:00000014
#06012:24
#06114:14
#06118:00140000
#0621a:14
#06214:00140000
#06218:0014
#06212:00000014
#06318:14
#06314:00140000
#0631a:0014
#06414:00000014
#06412:14
#06612:1515
#06614:00150000
#06719:00150000
#06717:2515
#06812:14
#0681a:00140000
#06810:41
#0691a:14
#06912:00140000
#07012:14
#07018:00140000
#07014:0014
#0701a:00000014
#07112:14
#07118:00140000
#07114:0014
#0711a:00000014
#07212:14
#07218:00000016
#07318:16
#07312:00262600
#07418:14
#07414:00140000
#0741a:0014
#07412:00000014
#07518:14
#06518:00000014
#0651a:14
#04018:00000014
#0401a:14
#04114:00000014
#04112:14
#07612:0014
#0771a:0014
#07714:00000014
#07715:24
#07818:0000001434343434
#0791a:14
#07918:0034001400000000
#08014:14
#08018:00140000
#0801a:00000014
#08012:0014
#0831a:00140000
#08316:0014
#08312:00000014
#08418:14
#08414:00140000
#08612:0014
#0861a:00000014
#08714:14
#08712:0000001434000000
#08818:1400000014340000
#08814:00140000
#08114:14
#08118:00140000
#08912:0014
#08918:00000014
#09014:0000001434343434
#09112:14
#09114:0034000014000000
#02912:14
#0281a:14
#0281f:11
#00014:00000024
#02414:24
#02412:0000343400340000
#09216:0024
#0061a:0034
#00619:00340000
#05618:00343400
#05610:41
#05714:00343400
#0231a:0000343400000000
#01510:41
#0305a:0054
#03157:24
#0315a:00000014
#03556:0014
#03452:54
#03952:0014
#04259:5555
#04257:00550000
#04354:5555
#04352:00550015
#0485a:54
#04958:0016
#05154:54
#05958:0014
#0595a:54
#0635a:0014
#06652:6565
#06654:00650000
#06759:00650015
#06757:6565
#07252:64
#07558:64
#07352:0016
#06452:64
#0655a:54
#0405a:54
#04152:64
#07652:0064
#07755:14
#07754:00000054
#0795a:54
#07958:0000002400000000
#07858:0000005400000000
#08754:54
#08752:0000002400000000
#08858:0064
#08958:00000064
#0015a:14
#09054:0000006400000000
#09152:64
#09154:0024
#02952:64
#0285a:54
#006380:14
#006390:00340000
#0063a0:00003424
#009340:1424
#010380:1424
#011320:14
#011340:0034
#012340:34
#012320:0024
#0133a0:14
#013380:0034
#014380:34
#0143a0:0024
#015320:14
#015340:0024
#0163a0:14
#016380:0024
#018340:1424
#023380:14
#0233a0:0000343400002400
#024340:14
#024320:0000343400342400
#0283a0:14
#028380:00000024
#029320:14
#029340:00000024
#0303a0:00000000000000001400003400003400
#031370:34
#0313a0:0000003434002400
#034320:14
#034330:00340000
#034340:0034
#034350:00000034
#035360:3424
#0373a0:00001424
#0403a0:14
#040380:0024
#041320:14
#041340:0024
#042390:1535
#042370:00350025
#043340:1535
#043320:00350025
#044380:00001424
#045340:00001424
#0483a0:14
#048380:0000003424000000
#051340:14
#051320:00000024
#0563a0:14
#056380:00343424
#057320:14
#057340:00343424
#0593a0:14
#059380:0024
#061320:00001424
#064320:14
#064340:0024
#0653a0:14
#065380:0024
#066320:1535
#066340:00350025
#067370:1535
#067390:00350025
#068340:00001424
#069380:00001424
#072320:14
#072340:0000003424000000
#075380:14
#0753a0:00000024
#076320:1434
#077350:24
#077340:00000014
#078320:24
#078380:0000001434343434
#0793a0:34000024
#079380:0034005400000000
#081320:0014
#081340:00000034
#082340:24
#082380:00142400
#082340:00000014
#083340:24
#0843a0:0014
#084380:00000034
#085380:24
#085340:00142400
#085380:00000014
#086380:24
#087340:14000024
#087320:0000003434000000
#088380:0000000014340000
#0893a0:24
#089380:00000014
#0903a0:24
#090340:0000001434343434
#091320:34
#091340:0034000054000000
#092320:24
