This file was generated by Ched 2.7.0.0.
#TITLE ""
#ARTIST ""
#DESIGNER ""
#DIFFICULTY 0
#PLAYLEVEL
#SONGID ""
#WAVE ""
#WAVEOFFSET 0
#JACKET ""
#REQUEST "ticks_per_beat 480"
#00002: 4
#BPM01: 128
#00008: 01
#TIL00: ""
#VOLUME: ""
#HISPEED 00
#MEASUREHS 00
#0001a:14
#00218:14
#0041a:14
#00514:14
#00618:14
#00712:14
#0081a:14
#00810:41
#01012:14
#01112:14
#01218:14
#01318:14
#01414:14
#00112:14
#00314:14
#0091a:14
#02212:14
#03212:0016
#03218:26
#0321f:21
#0171a:14
#01812:14
#01918:14
#02014:14
#0211a:14
#02514:14
#02618:14
#02712:14
#03412:16
#03418:0016
#04018:16
#04012:0016
#04118:1616
#04110:0041
#04212:16
#04218:0016
#04312:1616
#04418:16
#04412:0016
#04518:16
#04512:0016
#0511a:14
#05214:14
#05318:14
#05412:14
#0551a:14
#0581a:14
#05814:0014
#05810:41
#06012:14
#06018:0014
#0241f:11
#01610:41
#03310:0041
#04910:41
#015340:14
#016340:24
#0233a0:1434
#0243a0:24
#0283a0:1434
#0293a0:3424
#030320:1434
#031320:24
#033380:1626
#035320:1626
#036380:1636
#037380:3626
#038320:1636
#039320:3626
#046380:1626
#047320:1626
#048380:1626
#049320:16
#050320:26
#056340:14
#057340:24
#0593a0:1424
#061320:1424
#062380:14
#0633a0:3424
#064340:14
#065320:3424
#066380:14
#068380:24
