This file was generated by Ched 2.7.0.0.
#TITLE ""
#ARTIST ""
#DESIGNER ""
#DIFFICULTY 0
#PLAYLEVEL
#SONGID ""
#WAVE ""
#WAVEOFFSET 0
#JACKET ""
#REQUEST "ticks_per_beat 480"
#00002: 4
#BPM01: 128
#00008: 01
#TIL00: ""
#VOLUME: ""
#HISPEED 00
#MEASUREHS 00
#00012:00001300001300000013000013000000
#00016:13
#0001b:23000000000000130000000000000000
#00017:00000013000000000000130000000000
#00816:0012121200001200
#0081a:00000000000000000000000000120000
#00814:0000000000000012
#00818:00000000000000000000000000000012
#0081c:22000000000000000000001200000000
#00810:41
#00918:0012121200000000
#00912:22000000000000000000001200000000
#01016:00001200120012000012000012000000
#0101c:22000000120000120000120000000000
#01012:0000000000000012
#01212:00001200000000000012000012000000
#01216:0000121200000000
#0121c:00000000120000000000000000000012
#01218:22000000000000000000001200000000
#0121a:00000000000000000000000000120000
#01214:0000000000000012
#0131c:0012001200000000
#01312:00000000120000000000001200000000
#01318:00120000
#01316:22
#01416:0000001200000000
#01418:00000012
#01412:0000000000120013
#0141c:22000000120000120000000000000000
#01417:0000000000000013
#01612:00001300130013000013000000000000
#01617:00000000000000130000000000000013
#0161b:23000000000000000000001300000000
#01616:23000013
#01619:00000000000000000000000000130000
#01614:0000000000000013
#01610:41
#0171b:00001300130013000013000000001300
#01716:00000000000000130000000000001300
#01712:23000000000000000000001300000000
#01717:00000013
#00112:00001300001300000013000000000000
#00116:23000013
#0011b:13000000000000130000000000000000
#00117:00000013000000000000130000000000
#0021b:00001300001300000013000013000000
#00212:00000000000000130000000000000000
#00216:00000013000000000000130000000000
#00217:23
#0031b:00001300001300000013000000000000
#0031b:00000000000000000013000000000000
#00317:00000013
#00312:23000000000000130000000000000000
#00316:00000013000000000000130000000000
#0041b:2313000000000013
#00412:00000000000000000013000013000000
#00416:13000013000000130000000000001300
#00417:00000000001300000000130000000000
#00512:2313000000130013
#00517:13000013000000130013000000001300
#0051b:00000013
#00516:00000000001300000000000000000000
#01116:00121200
#01118:12000012
#0111c:0000001200000000
#01112:22
#01817:2300001300001300
#01812:23000000000000130000000000000000
#01816:00000000000000000013000000001300
#0181b:0000000000130000
#01916:0013001300130000
#01912:00132313
#0191b:0013001300130000
#01917:23130013
#02012:00001300000000130000001300000000
#02017:0000001300000000
#0201b:23000000000000000000000000130000
#02015:0000000000000013
#02018:00000000000000000000000000000013
#0211b:00001300000000130000001300001300
#02116:0000001300000013
#02112:23000000000000000013000000000000
#0221b:0013000000000000
#02212:23
#02217:23
#02312:00001300000000001300000000000023
#02314:00000000130000000000000000130000
#02316:0000001300000000
#02317:0013000000000000
#02319:0000130000000013
#0231b:2300001300001300
#0261b:23000000000000230000000000000013
#02612:00002313000000000000000023000000
#02616:0023
#02614:0000000000230000
#02617:00000023000000000000002300000000
#02619:00000000000000000023000000000000
#02412:00000000000000230000000000000013
#0241f:11
#02417:2323
#02416:0023000000230000
#0241b:00000023000000000000002300000000
#02512:0000000013000000000000000000000000000013330000000000000000000000
#02517:0000000000130000
#0251b:0000131300001313
#02516:00000000000000130000000000000023
#0281b:00000000130000230000000013000013
#02816:2300001323000013
#02817:0023000000230000
#02812:00000023000000000000002300000000
#0291b:00001300000000130000000000000000
#02912:0000131300130013
#02916:00000013
#02917:0000000000000000000000000000000000130000000000000000000000000000
#03217:0013000000000000
#03216:0000001300140014
#03218:00000014
#0321a:0000000000000014
#03219:00130000
#0321b:0000001300000000
#0321f:21
#03312:0000241200000012
#03316:0014000000120000
#03318:0000000000000012
#03317:00140000
#0331a:0012
#0331c:0000000000120000
#03314:00000012
#03310:0041
#03516:0014000000130014
#03512:00141313
#03517:00241313
#0351a:0000000000000014
#0351b:0000001300130000
#03612:00140000000013000000000000000000
#03617:0014001300000012
#0361a:00000000140000000013000000000000
#03616:0000000000130000
#03614:00000013
#0361c:0000000000000012
#03715:00000000120000000000000000000000000000000000000000000000000000000000000000000000120000000000000000000000000000000000000000130000
#03718:00000000000000001200000000000000000000000000000000000000000000000000000000000000000000000000000000000000000000000000150000130000
#03719:0000120000000023
#03712:0000001200001200
#03713:0000000000000000000000000000000000000000000000000000000000150000
#03714:0000000000000023
#03912:0000001200001200
#03918:0000001200001200
#03916:00133300000000001200000000002200
#0391c:0000000012000012
#03914:0000000000120000
#0391a:0000000000120000
#0391b:00133300000000000000000000000000
#04016:0013000013000014
#04017:0000001300000000
#04012:0000001300140000
#04014:00130014
#0401a:0000000000000014
#04018:12
#0401b:0013
#04219:00130000
#0421b:0000001300000000
#04218:00000014
#04216:1200001300000024
#04214:00130024
#04212:0000000013000014
#0421a:0000000000240000
#04312:0000001200001200
#04318:0000001200001200
#04316:1400000012000012
#0431c:0000000012000012
#0431a:0000140000120000
#04314:0000000000120000
#04317:0014000000000000
#04315:00240000
#04412:0013001300140000
#04416:0000130000000014
#04418:12
#04417:0000001300000000
#0441b:0000000013000013
#04414:00000014
#04512:1400001300000000
#04516:0013
#04517:1300001300001300
#04514:00130000
#0451b:0000000000130000
#04519:0000000000000013
#05012:24001300130000000013000000000000
#05016:00000000000000130000000013000000
#05017:00000013001300000000130000000000
#0501a:24
#05216:1413130000130000
#05217:00000013
#05212:00000000000000130000000000000000
#0521b:00000013001300000013000000000000
#05412:00001300000000000013000000000000
#05416:1400001300001300
#0541b:00000000000000130000000000000000
#05417:00000013000000000000130000000000
#05414:00130000
#05419:00000000001300000000000000000000
#0511b:00001300130000000013000000000000
#05117:00000000000000130000000023000000
#05116:00000013001300000000230000002300
#05112:23
#05317:0013130000230023
#0531b:23000000000000130000000000000000
#05312:00000013001300000013000000000000
#05316:00000023
#0551b:00001300000000000013000000000000
#05512:23000000000000130000000000000000
#05516:00000013000000000000230000002300
#05519:00130000
#05517:0000001300002300
#05514:00000000001300000000000000000000
#05612:0000130000130000
#05617:0000130000230000
#05618:00000000000000000000000000000000000000000000000000000000000000000000000000000000000000000000000000000000000000130000000000000000
#05616:00000000000000000000000013003313
#0561b:00000013
#05717:1313131313130000
#05718:00130000001300000013000000130000
#05716:00000013000000130000001300000000
#05712:00000013
#05715:0000000000000013
#0571b:00000000000000000000000000000013
#0581b:00001300000000000000130000130000
#05815:0000000000000013
#05818:00000000000000000000000000000013
#05810:41
#0591a:00000000001400000000000000000000
#05912:00000014000000140013000000130000
#05918:0013000000130013
#05915:00000000000000000000001300000013
#0591b:00000013
#0601b:13001300000000130000000000130000
#06015:00130013000000001300001300001300
#06018:00000000001300000000130000000013
#06012:0000001300000000
#06112:1414
#0611a:14000000140000000000000000230000
#06116:00130000
#06114:0000001300001400
#06117:00000000000000130000000000000000
#06118:00000000000000000023000000000000
#06119:00000000000000000000002300000000
#0611b:00000000000000000000000000000023
#06212:00000000000000130000000000000000
#06217:00000000000023130000000000000000
#06216:24
#0631b:13
#06316:00130000000000000000000000000000
#06319:0013000000000000
#06314:00000013000000000014000000000000
#06317:00130000
#06318:00000000000000140000000000001300
#06312:00000000001400000000000000130000
#0631a:00000000000000000000001400000000
#06315:00000000000000000000000000000013
#06518:00140000000000000000000000000000
#06514:0014000000000000
#0651a:00140000
#06512:24000000000000140014000000000000
#06516:0000240024242400
#04916:0000001300000014
#04919:15150000
#04912:0014150013000000
#04914:15
#04917:0013
#0491b:0000001300000000
#04910:41
#04115:0014000000000000
#04112:0000140012000012
#04116:1400001200001200
#04118:0000000012000022
#0411a:0000000000120000
#0411c:0000001200001200
#04114:0000000000120000
#04117:00240000
#04110:0041
#03016:0000000000000014
#0311a:1400140000000024
#03116:0012000000000022
#03112:24240000
#03118:0022000000000000
#0381b:0000132300002300
#03816:0000002300001300
#03812:00000016000000000000000000000000130000000000000000000000000000001300000000000000000000000000000000000000000000001300000000000000
#03817:0000000013000023
#03818:00000016000000000000000000000000000000000000000000000000000000000000000000000000000000000000000000000000000000000000000000000000
#0271b:0000130000130000
#02717:0013001313000000
#02712:0013000013000000
#02716:1300000000130000
#00617:0013000000000013
#0061b:23000000001300000013000013000000
#00612:00000013000000130000000000001300
#00616:1300000000130000
#0071b:2313000000130013
#00716:00000013000000130013000000000000
#00712:13000013
#00717:00000000001300000000000000000000
#03416:0013000000140014
#03417:0000001300000000
#03414:00130014
#03412:0000001300000014
#04612:0000000000120000
#04616:12001213
#0461b:00000013
#04614:0000000000000013
#0461c:12000000000000120000000000000000
#04618:00120000
#0461a:0012000000000000
#0471b:0000000000130000
#04718:00000014
#04712:13000000000000130000000014000000
#04714:0013000000000014
#04717:1313
#04716:00130000
#04812:0000000000141500
#04819:00000015
#04816:1400140000000015
#0481a:14000000000000140000000000000000
#04815:0014
#04818:0014000000000000
#0151b:0013001300130000
#01516:0013001300130000
#01512:0000130013000013
#01517:0000130013000013
#06412:0023230000000000
#06418:00000023000000000000000000000000
#0641b:00000000000023000023000000230023
#06415:00000000000000230000002300002300
#00052:00000000006300000000000063000000
#00057:00000063000000000000630000000000
#0005b:13000000000000130000000000000000
#01657:00000000000000130000000000000000
#01652:00000000000000000053000000000000
#01656:13
#0165b:13
#01756:00000000000000130000000000006300
#0175b:00000000000000000063000000000000
#00156:13000000000000130000000063000000
#00157:00000063000000000000630000000000
#00152:00000000006300000000000000000000
#0025b:00000000005300000000000053000000
#00256:00000053000000000000530000000000
#00257:13000000000000130000000000000000
#00357:00000053
#00356:00000053000000000000530000000000
#0035b:00000000005300000000000000000000
#00352:13000000000000130000000000000000
#00452:00000063
#0045b:13
#00456:63000063000000130000000000002300
#00457:00000000006300000000630000000000
#0055b:00000063
#00557:63000063000000000000000000002300
#00552:13000000000000130000630000000000
#00556:00000000006300000000000000000000
#0065b:13000000006300000000000063000000
#00652:00000063000000130000000000000000
#00656:6300000000630000
#00657:0000000000000023
#01956:0000000000230000
#01952:00006363
#0195b:0023002300000000
#01957:63630000
#01856:0000000000000053
#01852:13
#0185b:0000000000530000
#01857:00000023
#02052:00000000000000130000006300000000
#02056:13
#0205b:13
#0215b:00000000000000130000000000006300
#02152:00000000000000000063000000000000
#02156:0000000000000063
#02357:0023000033000000
#02359:00630000
#0235b:6300002300000000
#02352:0033
#02552:0000000000000000000000000000000000000023000000000000000000000000
#02556:00000000000000530000000000000000
#02457:6363
#0245b:00000013000000000000001300000000
#0295b:00000000000000630000000000000000
#02957:0000000000000000000000000000000000230000000000000000000000000000
#03256:0000005300000054
#0325a:0000000000000014
#0325b:0000001300000000
#03358:0000000000000052
#03352:0000340000000012
#03357:00440000
#0105c:00000000000000620000620000000000
#03556:0000000000000064
#0355a:0000000000000014
#03557:00440000
#03552:00340000
#03652:00240000000013000000000000000000
#03657:0000005300000062
#0365a:00000000000000000023000000000000
#03755:00000000220000000000000000000000000000000000000000000000000000000000000000000000000000000000000000000000000000000000000000530000
#03758:00000000000000000000000000000000000000000000000000000000000000000000000000000000000000000000000000000000000000000000250000530000
#03753:0000000000000000000000000000000000000000000000000000000000250000
#03754:0000000000000053
#03759:0000000000000053
#04057:0000006300000000
#04056:0000000000000014
#04052:0000001300000000
#0405a:0000000000000054
#04058:22
#0405b:0023
#0425b:0000001300000000
#04256:2200006300000014
#04252:0000000023000064
#0395c:0000000000000052
#03956:00230000000000000000000000001200
#03957:00330000
#0395b:00230000000000000000000000000000
#03952:00330000
#0265b:53
#02657:00000013000000000000000000000000
#02652:00000063000000000000000053000000
#0445c:0042000000000000
#04458:22
#04457:0000005300330000
#0445b:0000000023000053
#04456:0000000000000054
#0435c:0000000000000052
#04356:24
#04355:00340000
#0435a:00440000
#04552:2400005300001300
#04556:0023
#04557:23
#0455b:0043000000000000
#0145c:00000000000000620000000000000000
#01452:0000000000000053
#01457:0000000000000053
#0505a:14
#05052:14
#05057:00000000006300000000630000000000
#0505b:00000000000000130000000013000000
#05056:00000063
#05257:00000000000000130000000053000000
#0525b:00000000005300000000000000000000
#05256:1400000000530000
#05252:13000013
#05456:14000063
#05457:0000000000630000
#0545b:13000000000000130000000013000000
#05152:13000000000000130000000000000000
#05156:14000000005300000000630000006300
#05157:00000063
#05352:00000000006300000000000000000000
#05357:0000000000630063
#05356:14000000000000130000000063000000
#0535b:13
#05552:13000000000000130000000000000000
#05556:1400000000630053
#0555b:0000000000000013
#05557:00000063
#05652:0000530000630033
#05657:0000530000630000
#0565b:0000001300002300
#05656:00000000000013000000000023000023
#05658:00000000000000000000000000000000000000000000000000000000000000000000000000000000000000000000000000000000000000630000000000000000
#05757:5363536353630000
#05758:00230000002300000023000000000000
#05756:00000023000000230000002300000000
#05952:00000014000000140000000000000000
#0595a:00000000001400000000000000000000
#06055:00000000000000006300006300000000
#06152:3434
#06154:00000034
#0615a:44440000
#06252:00000000000000630000000000000000
#06257:00000000000000630000000000000000
#06256:54
#06358:00000000000000440000000000000000
#0635a:00000000000000000000004400000000
#06352:00000000003400000000000000000000
#06354:00000000000000000034000000000000
#0655a:00240000
#06556:0000140000641400
#04152:0000340000000062
#04156:24
#04157:00440000
#02856:5353
#02852:00000013000000000000001300000000
#03056:0000001300000000
#0305b:00000013
#0315a:0000440000000014
#03152:00340000
#03156:0000000000000052
#03856:0000005300430000
#0385b:0000005300430000
#03852:00000026000000000000000000000000000000000000000000000000000000002300000000000000000000000000000000000000000000005300000000000000
#03857:0000000023000053
#03858:00000026000000000000000000000000000000000000000000000000000000000000000000000000000000000000000000000000000000000000000000000000
#02757:00006313
#02756:63130000
#0275b:0000000000230000
#02752:0023000000000000
#06455:00000000000000130000001300000000
#0645b:00000000000000000013000000000000
#00752:63000063
#00756:00000063000000000000000000000000
#00757:00000000006300000000000000000000
#0075b:13000000000000130000630000000000
#02257:13
#02252:13
#03457:0000006300000000
#03456:0000000000000064
#03452:0000001300000014
#0465c:00000000000000220000000000000000
#04658:00620000
#04656:52
#04652:00120000
#04752:00000000000000230000000000000000
#04756:00530000
#04757:63
#0475b:00130000
#0485a:00000000000000240000000000000000
#04856:54640000
#04852:00140000
#0155b:0063006300630000
#01556:0063006300630000
#01552:0000530053000053
#01557:0000530053000053
#04959:65
#04956:0000005300430000
#0495b:0000005300430000
#04957:0023
#04952:0023
#000370:00000013000000000000000000000000
#0003b0:00000000002300000000000000000000
#000321:00000000001300000000000000000000
#000361:00000000000000230000000000000000
#000371:0000000000130000
#0003b1:00000023
#000320:00000013
#000360:0000000000000033
#001360:23
#001370:00000013000000000000000000000000
#0013b0:00000000002300000000000000000000
#001321:00000000001300000000000000000000
#001361:00000000000000230000000000000000
#001371:0000000000130000
#0013b1:00000023
#001360:00000013
#001320:0000000000000033
#002320:23
#002360:00000013000000000000000000000000
#002320:00000000002300000000000000000000
#0023b1:00000000001300000000000000000000
#002371:00000000000000230000000000000000
#002361:0000000000130000
#002321:00000023
#0023b0:00000013
#002370:0000000000000033
#003370:23
#003360:00000013000000000000000000000000
#003320:00000000002300000000000000000000
#0033b1:00000000001300000000000000000000
#003371:00000000000000230000000000000000
#003361:0000000000130000
#003321:00000023
#003370:00000013
#0033b0:0000000000000033
#0043b0:23
#004361:13
#004321:0023000000000000
#004361:00000013000000000000000000000000
#004321:00000000002300000000000000000000
#004370:00000000001300000000000000000000
#0043b0:00000000000000230000000000000000
#004370:0000000000130000
#0043b0:00000023
#004321:00000013
#004361:0000000000000053
#005321:23
#005370:13
#0053b0:0023000000000000
#005370:00000013000000000000000000000000
#0053b0:00000000002300000000000000000000
#005361:00000000001300000000000000000000
#005321:00000000000000230000000000000000
#005321:0000000000130000
#005361:00000023
#0053b0:00000013
#005370:0000000000000053
#0063b0:23
#006361:13
#006321:0023000000000000
#006321:00000013000000000000000000000000
#006361:00000000002300000000000000000000
#0063b0:00000000001300000000000000000000
#006370:00000000000000230000000000000000
#006360:0000000000130000
#006320:00000023
#0063b1:00000013
#006371:0000000000000053
#0073b1:23
#007320:13
#007360:0023000000000000
#007360:00000013000000000000000000000000
#007320:00000000002300000000000000000000
#007371:00000000001300000000000000000000
#0073b1:00000000000000230000000000000000
#0073b1:0000000000130000
#007371:00000023
#007320:00000013
#007360:0000000000000053
#008360:23
#0083c1:1222000000000000
#0083c1:0000122200000000
#0083c1:00000000000000120022000000000000
#008360:00000000000000000012002200000000
#009320:1222000000000000
#009320:0000122200000000
#009320:00000000000000120022000000000000
#009381:00000000000000000012002200000000
#009381:0000000000001222
#009360:0000000000000012
#010360:22
#0103c1:1222000000000000
#0103c1:00000000000000120000000000000000
#010381:00000000000000000022000000000000
#0103c1:0000000000120000
#010381:00000022
#011321:1222000000000000
#011380:0012220000000000
#0113c0:0000000012220000
#011361:0000000000122200
#011321:0000000000000012
#012321:22
#012380:1222000000000000
#0123c0:00000000000000120000000000000000
#012380:00000000000000000022000000000000
#013360:1222000000000000
#013360:00000000000000120022000000000000
#013381:00000000000000000012002200000000
#013381:00000012
#0133c1:0000000000000022
#013320:0000000000000012
#014360:22
#0143c1:1222000000000000
#014360:0012220000000000
#0143c0:00000000000000120000000000000000
#014380:0000000000220000
#014370:0000000000000013
#0153b0:0033003300330000
#015370:0000330033003333
#0163b0:23
#014321:0000000000000013
#015361:0033003300330000
#015321:0000330033003333
#016361:23
#016371:0000132300000000
#016321:00000000000000000013000000000000
#016361:00000000000000000000002300000000
#017361:0000132300000000
#0173b1:00000000000000000013000000000000
#017371:00000000000000000000002300000000
#017361:0000000000000013
#018321:23
#018371:0013230000000000
#018320:0000132300000000
#0183b0:0000000000130023
#018370:00000053
#018361:0000000000000013
#019321:23
#019370:13332300
#0193b0:0053005300000000
#019321:00001333
#019361:0000000000530053
#020361:23
#0193b0:0000000000000013
#0203b0:23
#020370:0013230000000000
#020321:0000132300000000
#020371:00000000000000000013002300000000
#020320:00000000000000000000001300000000
#020360:00000000000000000000000000230000
#021360:0013230000000000
#0213b1:0000132300000000
#021321:00000000000000000013000000000000
#021361:00000000000000000000002300000000
#021361:0000000000001353
#022321:23
#0213b0:0000000000000013
#022370:23
#022360:0013000000000000
#022320:00230000
#0223b1:00130000
#022371:0000002300000000
#022320:0000001323000000
#022371:0013
#0223b1:0000000000230000
#022320:0000000000130000
#022360:00000023
#0223b1:00000013
#022371:0000000000000023
#022320:0000000000000013
#023360:23
#0233b1:1300005300000000
#023371:0053000023000000
#023391:00530000
#024371:13
#0243b1:0023000000000000
#024371:0013
#0243b1:0000000000230000
#025371:1323000000000000
#025361:0000132300000000
#025361:00000000000000130000000023000000
#025321:0000000000000000000000000000000000000053330000000000000000000000
#0263b1:13
#026371:0023000000000000
#026320:00001333000000000000000000000000
#026360:00000000000000230000000000000000
#026320:00000013
#026360:00000000000000000000000000000023
#027360:13230000
#027320:0053000000000000
#027370:00001323
#0273b0:0000000000530000
#027321:00000013
#027351:0000000000000023
#027380:0000000000000013
#0283b0:23
#028361:13
#028321:0023000000000000
#028361:0013
#028321:0000000000230000
#029361:1323000000000000
#029371:0000132300000000
#0293b1:00000000000000130000330033003300
#029371:0000000000000000000000000000000000530000000000000000000000000000
#0303b1:23
#030360:1300002300000000
#030320:00330000
#030371:0000130000330000
#0303b1:0000003300002300
#030320:0000000000130024
#030360:00000033
#031360:0000000000000012
#032320:0022000000000000
#032360:0000001300000000
#032320:0000000000230000
#032360:0000000000000014
#033320:0024000000000000
#033380:0000000000000012
#0343c0:0022000000000000
#034370:0000001300000000
#0343b0:0000000000230000
#034360:0000000000000014
#0353a0:0024000000000000
#035360:0000000000000014
#036320:00540000000000000000000000000000
#036360:00240000
#036370:0000001300002300
#0363a0:00000000000000000053000000000000
#036370:0000000000000012
#037350:00520000000000000000000000000000
#037370:00220000
#037370:0000001200002200
#037340:0000000000000013
#037330:0000000000000000000000000000000000000000000000000000000000550000
#037350:00000000000000000000000000000000000000000000000000000000000000000000000000000000000000000000000000000000000000000000000000530000
#038320:00000056000000000000000000000000000000000000000000000000000000000000000000000000000000000000000000000000000000000000000000000000
#038340:0023000000000000
#037391:0000000000000013
#037381:00000000000000000000000000000000000000000000000000000000000000000000000000000000000000000000000000000000000000000000550000530000
#038381:00000056000000000000000000000000000000000000000000000000000000000000000000000000000000000000000000000000000000000000000000000000
#038391:0023000000000000
#038361:0000001300230000
#038321:0053
#0383b0:0000001300230000
#038370:0053
#038370:0000000000000013
#0393b0:00533300000000000000000000000000
#039370:00230000
#038321:0000000000000013
#039361:00533300000000000000000000000000
#039321:00230000
#0393c1:0000000000000012
#040381:52
#0403c1:0022000000000000
#040371:0000001300230000
#0403b1:0033
#0403a1:0000000000000014
#041361:54
#0413a1:0024000000000000
#041321:0000000000000012
#042361:52
#042321:0022000000000000
#042361:0000001300230000
#042321:0053
#042321:0000000000000014
#043361:54
#043321:0024000000000000
#0433c1:0000000000000012
#044381:52
#0443c1:0022000000000000
#044371:0000001300230000
#0443b1:0053
#0443b1:0000000000000013
#045371:53
#0453b1:0023000000000000
#044360:0000000000000014
#045320:54
#045360:0024000000000000
#045320:0000001300332300
#045360:0053
#046360:12
#046320:00220000
#046381:0000120000220000
#0463c1:00000000000000520000000000000000
#047371:13
#0473b1:00230000
#047360:0000130000230000
#047320:00000000000000530000000000000000
#048360:14
#048320:00240000
#048361:0000140000240000
#0483a1:00000000000000540000000000000000
#049391:15
#049361:0024000000000000
#049361:0000001300230000
#049321:0053
#0493b0:0000001300230000
#049370:0053
#050370:00000000001300000000000000000000
#0503b0:00000000000000230000000000000000
#050370:0000000000130000
#0503b0:00000023
#050361:00000013
#050321:0000000000000053
#051321:23
#050360:0000000000000014
#051360:24
#051360:00000000001300000000000000000000
#051320:00000000000000230000000000000000
#051360:0000000000130000
#051320:00000023
#051371:00000013
#0513b1:0000000000000023
#051360:0000000000000013
#052320:23
#0523b0:00000000001300000000000000000000
#052370:00000000000000230000000000000000
#052360:0000000000130000
#052320:00000023
#052371:00000013
#0523b1:0000000000000053
#0533b1:23
#052360:0000000000000014
#053360:24
#053320:00000000001300000000000000000000
#053360:00000000000000230000000000000000
#053370:0000000000130000
#0533b0:00000023
#053361:00000013
#053321:0000000000000023
#053370:0000000000000013
#0543b0:23
#054370:0000000000130000
#0543b0:00000023
#054361:00000013
#054321:0000000000000053
#055321:23
#054360:0000000000000014
#055360:24
#055360:0000000000130000
#055320:00000023
#055371:00000013
#0553b1:0000000000000023
#055360:0000000000000013
#056320:0053530000000000
#056360:0000002300000000
#056371:00130000
#0563b1:0000002300000000
#056321:0000000000130023
#056361:00000053
#056370:0000000000130000
#0563b0:00000053
#056380:00000000000000000000000000000000000000000000000000000000000000000000000000000000000000000000000000000000000000530000000000000000
#056360:00000000000000000000000000003353
#057370:5353535353532300
#057380:00530000005300000053000000000000
#057360:00000053000000530000005300000000
#058360:135353230000000000000000000000000000000000000000
#058350:005300530053000000000000000000000000000000000000000000000000000000000000000000000000000000000000
#058320:000000000000000000130053005300530053000000000000000000000000000000000000000000000000000000000000
#058330:000000000053535353230000000000000000000000000000
#0583b1:000000000000000000135353230000000000000000000000
#0583a1:000000000000000000000000000000000000005300530053000000000000000000000000000000000000000000000000
#058360:000000000000000000000000135353230000000000000000
#058350:000000000000000000000000000000000000000000000000005300530053000000000000000000000000000000000000
#058320:00000000000000000000001300000000
#058340:000000000000000000000000000000000000000000000000000000000000000000005300005300000000000000000000
#058330:000000000000000000000000000000000000000000000000000000000000000000000053000000000000000000000000
#058350:00000000000000000000000053230000
#058360:000000000000000000000000000000000000005300000000
#059320:135353230000000000000000000000000000000000000000
#059330:005300530053000000000000000000000000000000000000000000000000000000000000000000000000000000000000
#059380:000000000000000000000000000000000000000000130053005300230000000000000000000000000000000000000000
#059370:000000000000000000000053535300000000000000000000
#060350:0013
#060320:0000000000230000
#060350:00000000000000000000001300000000
#060320:00000000000000000000000000230000
#062360:14
#062320:00000000000033330000000000000000
#062350:0053
#062370:00000000000000000000000000000022
#062371:00000000000013330000000000000000
#0623a1:0053
#0623c1:0000000000000022
#0643b0:135353230000000000000000000000000000000000000000
#0643a0:005300530053000000000000000000000000000000000000000000000000000000000000000000000000000000000000
#0653a0:00000014540000000000000000000000
#065360:00000000000000240000000000000000
#065360:0000000000140000
#0653b0:00000000000000000000000000520000
#0683c0:32
#0683b0:0032000000000000000000000000000000000000000000000000000000000000
#0683a0:00320000000000000000000000000000
#068390:0000002200000000000000000000000000000000000000000000000000000000
#066321:12
#066331:003200000000000000000000000000000000000000000000000000000000000000000000000000000000000000000000
#066341:003200000000000000000000000000000000000000000000
#066351:00320000000000000000000000000000
#068361:32
#068351:0032000000000000000000000000000000000000000000000000000000000000
#068341:00320000000000000000000000000000
#068331:0000002200000000000000000000000000000000000000000000000000000000
