This file was generated by Ched 2.7.0.0.
#TITLE ""
#ARTIST ""
#DESIGNER ""
#DIFFICULTY 0
#PLAYLEVEL
#SONGID ""
#WAVE ""
#WAVEOFFSET 0
#JACKET ""
#REQUEST "ticks_per_beat 480"
#00002: 4
#BPM01: 128
#00008: 01
#TIL00: ""
#VOLUME: ""
#HISPEED 00
#MEASUREHS 00
#00018:00001300000000130000000013000000
#00015:00000013000000000000000000000000
#0001b:00000000001300000033130000000000
#00012:23
#0321b:0000000000000013
#03212:0013000000000000
#03215:0000130000130000
#03218:0000001300001300
#0321f:21
#03415:0000001300001300
#03412:0000000000000013
#0341b:0013000000000000
#03418:0000130000130000
#04912:1300001300000000
#0491b:1300000000000013
#04915:0013000000000000
#04918:00130000
#04910:41
#00115:00001300000000130000000013000000
#00118:00000013000000000000000000000000
#00112:00000000001300000033130000000000
#0011b:23
#00218:00001300001300000033130000000000
#0021b:00000000000000130000000013000000
#00215:00000013000000000000000000000000
#00212:23
#00315:00001300001300000033130000000000
#00312:00000000000000130000000013000000
#00318:23000013000000000000000000000000
#00418:00001300000000000013000013000000
#00415:23000013000000000000130000000000
#0041b:00000000001300000000000000000000
#00412:00000000000000130000000000000000
#00515:00001300000000000013000013000000
#00518:00000013000000000000130000000000
#00512:00000000001300000000000000000000
#0051b:23000000000000130000000000000000
#0061b:00001300000000000013000013000000
#00615:00000013000000000000130000000000
#00618:00000000001300000000000000000000
#00612:23000000000000130000000000000000
#00712:00001300000000000013000013000000
#00718:23000013000000000000130000000000
#00715:00000000001300000000000000000000
#0071b:00000000000000130000000000000000
#0081b:00001300000000000000001300130013
#00818:0000001300000000
#00812:00130000
#00815:0000000000001313
#00810:41
#00912:00001300000000000000001300001300
#00915:0000001300000000
#0091b:00130000
#00918:00000013
#0101b:0013000000000000
#01015:00130000
#01018:00000000000013000013000000000000
#01012:00000000000000130000000000000000
#01212:00001300000000000000001300130013
#01215:0000001300000000
#0121b:00130000
#01218:1300000000001313
#0131b:00001300000000000000001300001300
#01318:0000001300000000
#01312:00130000
#01315:00000013
#01412:0013000000001300
#01418:00000000130000130000000000001300
#01415:0000001300000000
#0151b:0013001300130000
#01518:00131300
#01612:00001300000000000013000000000000
#01618:2300000000000000130000000000000000000000000000003300331333003300
#01615:0000001300000000
#0161b:00000000000000130000001300000000
#01610:41
#01715:00001300000000000013000000000000
#0171b:00130000
#01712:0000001300000000
#01718:00000000000000130000001300000000
#01818:0013001300130000
#01812:00130000
#01815:00000000000000130000000000000000
#0181b:00000013
#0201b:00001300000000000013000000000000
#02015:1300000000000000130000000000000000000000000000000000331333003300
#02018:0000001300000000
#02012:00000000000000130000001300000000
#02118:00001300000000000013000000000000
#02112:00130000
#0211b:0000001300000000
#02115:00000000000000130000001300000000
#02212:0013000000000013
#02215:00130013
#02218:0000001300130000
#0221b:0013
#02319:23130000
#0231b:0013000000000000
#02317:0000001300000000
#02315:00000000000000000000000000000023
#02415:00000000000000000000000000000013
#0241f:11
#02418:00000000000000230000000000000000
#0241b:0000000033330000
#02412:3333000000000000
#02518:13000000000000130000000000001300
#02512:00001300000000000000000013000023
#0251b:00130000
#02515:0000001300000000
#03312:0013000013000013
#03318:0000001300130000
#03315:00130013
#0331b:00230000
#03310:0041
#0351b:0013000013000000
#03518:00130013
#03515:0000001300130000
#03512:00230000
#03618:00130000
#03615:00000013
#03718:0000131300001300
#03712:0000000000130013
#03818:0000131300000000
#03812:0000000000001313
#0391b:0000001300000023
#03915:0013
#03918:0000000000130000
#03912:00000013
#04012:0013000000000013
#04015:00131300
#04018:0000001300130000
#0401b:00000013
#04115:00130000000000000000000000001300
#04110:0041
#04212:13
#0421b:00130000
#04218:0000001300003313
#04312:0000001300000013
#0431b:0013
#04318:0000000000130000
#04315:00000013
#0441b:0013000000000000
#04418:0000130000130000
#04415:0000001300001300
#04412:0000000000000013
#0451b:0013000000000000
#04512:00130000
#04518:0000001300001300
#04515:0000000000130013
#0461b:13
#04618:0013000000130013
#04615:00130013
#04712:13
#04715:0013000000130013
#04718:00130013
#0481b:13
#04818:0013000000130013
#04815:00130013
#04812:13
#0501b:0013130000000000
#05015:00000013000000000000000000000000
#05012:2400000000130000
#05018:00000000000000000013000013000000
#0521b:0013000000001300
#05215:00000013000000000000130000000000
#05218:00000000130000000013000000000000
#05212:24
#0541b:0013000000000000
#05415:00000013000000000000000000000000
#05418:00000000130000000013000000000000
#05412:2400000000130000
#05416:00000014
#0581b:13
#05818:0000001300000000
#05815:00000013000000000000001300000000
#05812:0013
#05810:41
#05918:13000000000000130000333333333333
#05915:0013000000000000
#0591b:00000013000000000000000000000000
#05912:00000000001300000000000000000000
#06018:00000000000000000000130000000013
#06012:00000000000000000000001300000000
#0601b:00000000000000000000000000130000
#06015:0000000000000013
#0611a:00140000
#06112:00000014
#0631b:13001300130000000000001300000000
#06315:00130013001300000000000000000000
#06318:00000000000000130000000000000000
#06312:00000000000000000013000000000000
#06512:1313000000000000
#06518:00130000000000000000000000000000
#06515:00000000000000130013000000000000
#0651b:0000000013130000
#01116:00140014
#01916:00140014
#05112:0013130000002400
#05118:00000013000000000000000000000000
#05115:00000000000000000013000000000000
#0511a:0000000000240024
#0511b:23
#05312:0013000000002400
#05318:23000013000000000000000000000000
#05315:00000000130000000013000000000000
#0531a:0000000000240024
#05512:0013000000000024
#05518:00000013000000000000000000000000
#05515:00000000130000000013000000000000
#05516:00000024
#0551a:2400000000240000
#05616:00140000000000000000000000000000
#0561a:0000000000240000
#05612:0000000000000024
#05713:0014001400140000
#05714:00140000
#05712:1414
#02615:33003300000000000000000000000013
#0261b:00000000000000230000000000000000
#02618:00000000000000003333330000000000
#0281b:00003300000000000000000000000013
#02818:23
#02815:00000000000000230000000000000000
#02812:0000000033330000
#02912:1300000000000000000000000000000000000000331300003300000000000000
#02918:0013001300000000
#02915:00000000130000130000000000000000
#03018:13000013
#03015:0000001300000013
#02716:00140014
#03112:1300000000000024
#03115:0013000000000000
#0311a:0000240000000024
#06418:0023000000000000
#06419:00000033000000000000000000000000
#06619:0033330000000000000000000000000000000000000000000000000000000000
#06819:0033330000000000000000000000000000000000000000000000000000000000
#0325b:0000000000000013
#03258:0000001300000000
#03452:0000000000000013
#03455:0000001300000000
#0395b:0000000000000013
#04952:0000005300000000
#04956:0000000000130000
#05052:14
#05058:00000053
#05055:00000000000000130000000000000000
#00058:00000000000000530000000053000000
#0005b:00000000005300000000530000000000
#00052:13
#0015b:13
#00152:00000000006300000000630000000000
#00155:00000000000000630000000063000000
#00252:13
#00258:00000000006300000000630000000000
#0025b:00000000000000630000000063000000
#00358:13
#00355:00000000005300000000530000000000
#00352:00000000000000530000000053000000
#00455:13
#00458:00000053
#0055b:13
#00555:00000063
#00652:13
#0065b:00000063
#00758:13
#00752:00000053
#01458:00000000000000630000000000006300
#0155b:0063006300630000
#01558:00636300
#01658:1300000000000000000000000000000000000000000000000000002300000000
#0165b:00000000000000000000005300000000
#01855:00000000000000530000000000000000
#01858:0000000000530000
#0185b:00000023
#02055:0000000000000000000000000000000000000000000000000000002300000000
#02052:00000000000000000000006300000000
#02359:53531300
#0235b:0023000000000000
#02357:0000002300000000
#02355:00000000000000000000000000000053
#02558:00000000000000630000000000000000
#02552:00000000000000000000000000000063
#03352:0000000000000013
#03752:0000000000000053
#03858:0000005300000000
#03852:0000000000000053
#04052:0000000000000053
#04155:00230000000000000000000000005300
#04152:00130000
#04252:23
#04258:0000005300000053
#0435b:00130000
#04352:0000000000000013
#04455:0000001300000000
#04452:0000000000000013
#04655:00530000
#04758:00630000
#04855:00530000
#0525b:00000063
#05252:14000000000000130000000000000000
#0515b:13
#05158:00000000000000130000000000000000
#05358:13
#0535b:00000000000000130000000000000000
#0555a:14
#0555b:00000000000000130000000000000000
#05552:0000000000000054
#05456:00000064
#05452:14000000000000130000000000000000
#05852:0063
#05855:00000000000000000000006300000000
#05958:00000000000000630000000000000000
#0655b:0000000000630000
#03152:6300140000000014
#0315a:0000140000000014
#03155:0063000000000000
#02458:00000000000000630000000000000000
#0245b:00000000000000000000001300000000
#02452:00000013000000000000000000000000
#05656:00240000000000000000000000000000
#05753:0054005400540000
#05754:00240000
#05752:2424
#02955:00000000000000530000000000000000
#02952:0000000000000000000000000000000000000000002300000000000000000000
#03058:63
#03055:0000006300000063
#0265b:00000000000000530000000000000000
#02655:00000013000000000000000000000000
#02658:00000000000000000000001300000000
#02858:63
#02855:00000000000000530000000000000000
#0285b:00000013000000000000000000000000
#02852:00000000000000000000001300000000
#0003b0:00000000001300000033330000000000
#000380:00000000000000330000000033000000
#0013b0:23
#001320:00000000001300000033330000000000
#001350:00000000000000330000000033000000
#002320:23
#002380:00000000001300000033330000000000
#0023b0:00000000000000330000000033000000
#003380:23
#003350:00000000001300000033330000000000
#003320:00000000000000330000000033000000
#004350:23
#004380:00000013
#0053b0:23
#005350:00000013
#006320:23
#0063b0:00000013
#007380:23
#007320:00000013
#008350:23
#008350:00000000000000130023000000000000
#009380:00000000000000130023000000000000
#010350:0000000000130023
#0113b0:1333333323000000
#011321:0000000013333333
#012321:23
#012381:00000000000000130023000000000000
#013351:00000000000000130023000000000000
#014381:00000000000000130000000000000000
#0143b1:0000000000230000
#014381:0000000000000013
#0153b1:0033003300330000
#015381:0000330033000033
#016381:23
#0163b1:00000000000000000000001300000000
#016381:0000000000000000000000000000000000000000000000003300335333003300
#0173b1:23
#017321:00000013
#017351:0000000000000033
#018321:23
#018351:00000000000000130000000000000000
#018321:00000000000000000023000000000000
#018381:0000000000130023
#0183b1:00000053
#019321:1333333323000000
#0193b0:0000000013333333
#0203b0:23
#020320:00000000000000000000001300000000
#020350:0000000000000000000000000000000000000000000000000000335333003300
#021320:23
#0213b0:00000013
#021380:0000000000000033
#0223b0:23
#023390:13332300
#0233b0:0033000000000000
#023370:0000003300000000
#023350:00000000000000000000000000000013
#024320:33003323000000000000000000000000
#024380:00000000000000130000000000000000
#0243b0:00000000000000003300332300000000
#025380:00000000000000130000000000000000
#0253b0:0000000000230000
#025320:00000000000000000000000000000013
#026350:33003323000000000000000000000000
#0263b0:00000000000000130000000000000000
#026380:00000000000000003333332300000000
#0273b0:1333333323000000
#027321:0000000013333333
#028321:23
#028380:13
#0283b0:00003323000000000000000000000000
#028350:00000000000000130000000000000000
#028320:00000000000000003300332300000000
#029350:00000000000000130000000000002300
#029320:0000000000000000000000000000000000000000335300003300000000000000
#030380:13
#0303b0:00230000
#030350:0000001300000000
#030320:0000000000230000
#030350:0000000000000013
#031320:33240000
#031350:0033000000000000
#035350:0000000000000013
#036320:0023000000000000
#036380:0000001300000000
#0363b0:0000000000230000
#036350:0000000000000013
#037320:0023000000000000
#037320:0000000000000013
#038350:0023000000000000
#038380:0000001300000000
#0383b0:0000000000230000
#038320:0000000000000013
#039350:00230000
#040320:0000000000000013
#041350:00530000000000000000000000000000
#041320:00230000
#0413b0:0000001300330000
#041380:00003323
#041350:0000000000000013
#042320:53
#042350:0023000000000000
#042380:0000001300003333
#0423b0:0000000000330000
#0433b0:00230000
#046350:00130000
#046320:0023
#047380:00130000
#0473b0:0023
#048350:00130000
#048320:0023
#049320:0000001300000000
#049360:0000000000230000
#050350:00000000001300230000000000000000
#050380:00000013
#0513b0:23
#051380:00000000001300230000000000000000
#052320:00000000001300230000000000000000
#0523b0:00000013
#053380:23
#0533b0:00000000001300230000000000000000
#054320:00000000001300230000000000000000
#054360:00000014
#0553a0:24
#0553b0:00000000001300230000000000000000
#055320:0000000000000014
#056360:00540000000000000000000000000000
#056320:0000342400000000
#056320:0000000000000014
#057320:3454
#057330:0054005400540000
#057340:00540024
#058320:0000000013000023
#058350:00000000000000000000003300000000
#059380:00000000000000130000333333333333
#0593b0:00000000000000000033000000000000
#060380:33
#060390:00330000000000000000000000000000
#0603a0:0033000000000000
#0603b0:00000023000000000000000000000000
#060320:00000000001300000000000000000000
#060330:0000003300000000
#060340:00000000000000330000000000000000
#060350:0023
#061350:1323
#061381:0013
#062381:23
#062320:13000000000033330000000000000000
#062350:00000023
#063350:00000000000000000000000000130000
#063340:0000000000000033
#063330:00000000000000000000000000000033
#064320:23
#064380:00001300000033330000003300000000
#064390:00000033000000000000000000000000
#0643b0:00000000330000000033000000333323
#065380:00000013000000000000000000000000
#0653b0:0000002300000000
#0653b0:0000000000130000
#066370:33
#066390:0033333300000000000000000000000000000000000000000000000000000000
#0683b0:33
#068390:0033332300000000000000000000000000000000000000000000000000000000
