This file was generated by Ched 2.7.0.0.
#TITLE ""
#ARTIST ""
#DESIGNER ""
#DIFFICULTY 0
#PLAYLEVEL
#SONGID ""
#WAVE ""
#WAVEOFFSET 0
#JACKET ""
#REQUEST "ticks_per_beat 480"
#00002: 4
#BPM01: 128
#00008: 01
#TIL00: ""
#VOLUME: ""
#HISPEED 00
#MEASUREHS 00
#0001b:00001300001313000000000000000000
#00016:00000000000000130000240013000000
#00012:14000000000000000013000000001300
#0001a:00000000000000000000000000140000
#00017:23
#01217:00001200120012000012000000000000
#01214:00000000000000000000000000120000
#01218:0000000000000012
#01212:00000000000000000000000000000012
#0121c:2200120000220000
#01216:00000000000000000000001200000000
#0121a:00000012
#01317:12001200120012000012000000000000
#01312:2200120000220000
#01417:0012120000000000
#01415:00000000000012120000000000000000
#01419:00000000000000120000000000000000
#0141c:22120000
#01418:00000012
#01412:0000000000221200
#02315:00000015
#02312:22000000220000000000000000130000
#02317:0000000000000015
#0231c:0012
#02314:00000000000000000000000000000023
#01612:00000000230013000000000000000013
#01616:24001300000000000013001300000000
#01614:00000000000000000000000000130000
#01618:0000000000000013
#0161b:2313000000000000
#01617:00000000000000130000000000000000
#0161a:00000023
#01610:41
#01712:0013000000002300
#01717:00001300000000000013000013000000
#0171b:2300231300000000
#01716:24000000000000130000000000000000
#00216:00001300000000000013000000141300
#00217:00000000000000130000000000000000
#0021b:13000013000000000000000000000000
#00212:00000000001313000000000013000000
#0021a:0000000000240000
#00316:13000000000000130000000000140000
#00312:00000013000000000000240000000000
#0031b:00000000001313000000000013000000
#00317:00001300000000000013000000001300
#00112:13001300001313000000000000140000
#00117:00000000000000130000000013000000
#0011b:00000000000000000013000000001300
#00116:0000000000240000
#0041b:00001300131300000000130000001300
#00416:00000013001300000014240000000000
#00417:13000000000000130000000013000000
#00412:00000000000000000000000000140000
#00715:00000000000000000000001300000000
#00712:00001300000000000013000000000000
#00717:00000013000000000000000000000000
#00714:00130000
#00719:00000000001300000000000000000000
#00716:13000000000013130000000000000000
#0071b:00000000000000130000000013000000
#00718:0000000000130000
#0061b:0013000000000000
#00616:00000013000000000000130000141300
#00619:00130000
#00614:00000000001300000000000000000000
#00617:00000000000013130000000000000000
#00612:13000000000000130000000013000000
#0061a:00000000000000000014240000000000
#01012:0012121200000000
#01017:22000000120000120000220000000000
#0101c:00000000000000000012000012000000
#01016:0000000000000012
#01112:0012000000220000
#01117:2200001200000000
#0111c:0012
#01118:00120012
#0091c:2200120000220000
#00917:12001200120000000012001200000000
#00914:0000001200000000
#00817:00001200120000000012000000000000
#0081a:00000000000012000000000000120000
#0081c:00000000000000000000000000000012
#00816:0000000000000012
#00812:2200120000220000
#00818:00000000000000000000001200000000
#00814:00000012
#00810:41
#01512:00000000000000001400000000130013
#01516:1200000000241313
#01518:22
#0151a:0024
#01519:00230000
#01514:00230000
#01817:00001300000000000013000000001300
#0181b:23000000230000130000000023000000
#01812:0013000000130000
#01816:2400131300001300
#01912:0013001223000000
#01917:0012001300130013
#0191b:0000230000000013
#0191c:0000000000120000
#01916:23000023
#02017:00001300000000000013001300000000
#0201b:00000000230013000000000000000013
#02019:00000000000000000000000000130000
#02016:24000000000000130000000000001300
#02012:2313000000000000
#02014:00000023
#0211b:00001300000000000013000013000000
#02112:2300231300000000
#02116:2413000000002300
#02117:00000000000000130000000000000000
#02217:0012001212002212
#0221c:0000000000120000
#02216:24
#02212:23220000
#02417:00000000000000000000000000000013
#0241f:11
#02419:2525
#02412:0023000000230000
#02416:00000023000000230000002300000000
#02512:00001300000000130000000000001300
#02516:0000130000130000
#02517:00001300000013130000000000000023
#0251b:1300000000130000
#02717:13
#0271b:0013000013130000
#02712:0000131300001200
#0271c:0000000000000012
#02812:2500001325000013
#02816:00000000000000130000000000000013
#0281b:0023130000231300
#02817:00000023000000000000002300000000
#0291c:0000000012000000000000000000000000120000000000000000000012000000
#02917:00001300120012120000000012000000
#02912:13000013
#0301b:1300001300000000
#03017:0000000000001313
#03012:0013130000130000
#03016:0000000000130000
#03212:2513001300001400
#03216:0014230000140000
#0321a:00140000
#03217:00000000000000130000000023000000
#03219:25000000000000000013000000000000
#0321b:0000000000130013
#03214:0013
#0321f:21
#0351b:0000001300002300
#03517:0013
#03519:0000000000130000
#03512:0013230013000000
#03516:0000001300001300
#03514:0000000000130000
#0351c:0000000000000012
#03515:00160000
#0351a:14
#03317:0000001300001300
#0331b:0013230013130000
#03316:0013
#03312:1400001300002323
#03315:00160000
#03310:0041
#03618:1600000000160000
#03616:00241800
#03612:0014001400130013
#0361c:00120000
#0361a:0014000000001400
#03619:0000001500000000
#03617:0000000000000017
#03615:00000023
#03714:1a00220000000023
#03712:0012001200002200
#03712:00000023
#03716:0018000000000000
#03718:00000000000000000000000000000000160000000000000000000000000000000000000000000000130000000000000000000000000000000000150000130000
#03715:00000000000000000000000000000000000000000000000000000000000000000000000000000000130000000000000000000000000000000000000000130000
#03713:0000000000000000000000000000000000000000000000000000000000150000
#0371b:00000023
#03719:0000000000000023
#03916:00130000000000000000120000000000
#03912:1212121200000000
#03918:00000000000000120000000000000013
#0391c:00000000000000000012000000000000
#03919:00000000000000000000001200000000
#0391b:00000000000000000000000000130000
#03915:0000000000000013
#03913:00000022
#0401a:00000014
#04016:00001400240000120000140024000000
#04012:2300140000140013
#0401b:0013001300000000
#04014:00000000000000000012000000000000
#04019:0012
#04018:23
#0411a:14000024
#04116:0000001300001300
#04117:00131300
#0411b:0000001300000023
#04112:0014240013130000
#04110:0041
#0381b:0000000000001323
#03816:00000000000000120000000023001300
#03818:00000016000000000000000000000000000000000000000000000000000000000000000012000000000000000000000000000000000000000000000000000000
#03812:00000016000000000000000000000000000000000000000000000000000000000000000000000000220000000000000000000000000000000000000000000000
#03814:00230000
#03819:00230000
#0381c:0000002200000000
#04317:0000001300000000
#0431b:0000000013000013
#04312:1400000000130013
#0431a:0014240000000000
#04316:00130024
#04415:1300001300000000
#04418:1300001300000000
#04412:00000000000000000000000000000000230000000000000000000000000000001300000000000000000000000000000000000000000000000000000000150000
#0441b:00231300
#04419:00000000000000000000000000000000000000000000000000000000000000000000000000000000000000000000000023000000000000000000000000150000
#04414:00000023
#04512:12150000000013000000130000000000
#04519:00150000000000000000000023000000
#0451c:12
#04517:0000001300130000
#04516:0000230000000013
#0451b:0000230000000013
#04514:00000023
#04612:1915291300000016
#04619:00000000000000130000000000000000
#04614:0013
#0461b:13000000000000000013000023000000
#04616:0000000000132300
#04617:0013000000000000
#0471a:0014001400000000
#04714:00000000000000140000000000000000
#04718:0014
#04712:14000000000000000014000023000000
#04716:1814280000140018
#04717:00000023
#04816:00000000000000160000160023000000
#04814:0016
#04818:00000000000000000016000000000000
#04812:171327160000001c
#04819:15
#04815:0015000000000000
#0481b:00000023
#04917:0000121212000000
#0491c:0000001200000000
#04912:2c00120012000012
#04910:41
#05712:15000000001200000000000013000000
#05715:0000000000000013
#0571b:00000000000000000000000000000013
#05718:00000000000000000000000000130000
#0571c:00000000001200000000000000000000
#05719:25
#05817:00001313000000000000000000000000
#05812:00000000000000000000000000140000
#0581a:00000000000000000000000000000014
#05816:0000000000000014
#0581b:23
#05810:41
#0591c:00001212000000120000000000000000
#05916:00000014001400000000140000000000
#05912:00000000001200000000001400000013
#0591a:14000000000000000014000000000000
#0591b:00000013
#05918:00000000000000000000000000130000
#05915:0000000000000013
#06018:13130000000000130000000000000000
#06015:0013001300000000
#0601b:00000013001300000000000000000000
#06014:0000000000130000
#06016:00000000000000000000000000140000
#06012:00000013000000001300001300000014
#0601a:0000000000000014
#06117:0012130000000000
#06116:13000000000000140000002400000000
#0611a:14000000000014001400000000000024
#06112:00140014
#06114:00000000000000000024000000000000
#06118:00000000000000000000000000240000
#0631c:12
#0631a:0012000000000000
#06316:00000012000000000000000000000000
#06318:00120000120000000000000000001300
#06312:00000000001200000000000000130000
#06314:00000000000000000014000000000000
#06315:00000000001300000000001500000013
#06313:00000000000000130000000000000000
#06317:00000000000000130000000000000000
#06319:00000000000000000013000000000000
#0631b:00000000000000000000001300000000
#06418:16000022000000120012000012001200
#06412:1322000000000000
#06414:00220000
#0641c:00000000000000220022002200220022
#06416:0000002200000000
#0641a:00000000002200000000000000000000
#0651b:00130013000000000000000000001300
#06515:0013000000000000
#06512:24000000000000130013230000001200
#06516:00000000000000002400131200000000
#06514:0000000000000000240000000000000000000000000000000012000000000000
#06518:00000024
#0661c:0000001200000000
#06618:0000001200000000
#06615:0012000000001200
#06619:00000012
#06617:1232323200000000000000000000000000000000000000000000000000000000
#06716:0012000000000000
#06712:0012000000000000
#06714:00000000000000000012000000000000
#06719:00000000000000000012000000000000
#05518:00000000001300000000120022000000
#05512:00001200000000140012220000000000
#05516:00000012000014000000000000002300
#05514:00130000
#0551a:00000000000000140000000000000000
#0551b:13
#05612:00130000000000000000130000000000
#05616:0000001500000025
#05614:00000013
#05617:0013000000000000
#05619:0013
#05615:0000000000250000
#0261b:00002300000000000000002300000013
#02612:2525
#02614:0000000000250000
#02617:00000023000000230000000000000000
#02619:00000000000000000023000000000000
#02616:00000025
#03112:18140000
#03118:0012000000000000
#03116:0022280000000000
#0311a:24
#00512:00001300131300000000130000001300
#00517:00000013001300000000000000000000
#00516:00000000000000130014240013000000
#0051b:13
#0051a:00000000000000000000000000140000
#0341b:1313001300000000
#0341a:00000014
#03416:00001400000000130000140023000000
#03412:0000140000130013
#03414:00000000000000000013000000000000
#03419:0013
#03417:00230000
#04212:1313001300001400
#04216:0014240000142424
#0421a:00000000140000000012240000000000
#04218:00000000000000120000000000000000
#04215:0012
#0421b:0000000000000023
#05016:2400000013000000000000001300000000000000000000140000000000000000
#0501b:00000013001300130000000013001300
#05012:13000000000000000014240000140000
#05017:0000000000130000
#0511a:00000000000000000014240000000000
#05117:0013001300000000
#05112:00000013001300130000000012000000
#05116:00000000000000000000120000141200
#0511b:13
#05416:0000000000000000000000001400000000000000000000140000000000000000
#05412:00000000000000140014240000140000
#0541a:00000000000000140000000000000000
#05415:00000000001300000000000000000000
#05419:00130000
#05418:00000012000000000000000000000000
#0541c:0012000000000000
#0541b:0000000000001313
#05417:0000000000130000
#0521a:00000000000000000014240000140000
#05212:00001300000000130000000013001300
#05216:0000000000000000000000000000000000000000130000140000000000000000
#0521b:00000000001300000000000000000000
#05215:00130000
#05218:00000013000000000000000000000000
#05217:00000000000000130000000000000000
#05312:13000000001300000014240000000000
#05318:0000130000120012
#0531c:00000012
#05316:00000000000000130000000000140000
#0531b:00001300000000130000000000000000
#05315:00000013000000000000000000000000
#06216:2400002300000000
#06816:0032320000000000000000000000000000000000000000000000000000000000
#0681c:0032320000000000000000000000000000000000000000000000000000000000
#02459:5555
#02456:00000013000000000000001300000000
#0265b:00000000000000000000001300000000
#02652:65
#02657:00000013000000000000000000000000
#02656:00000065
#01757:00000063
#01756:00000000000000330000000000000000
#00052:44
#00057:43
#00056:00000000000000130000540000000000
#0005a:00000000000000000000000000540000
#0025b:13000053000000000000000000000000
#00257:00000000000000130000000000000000
#00256:14000000000000000000000000640000
#0025a:0000000000640000
#00352:00000063000000000000540000000000
#00356:13000000000000130000000000540000
#0035a:14
#00456:00000000006300000000640000000000
#00457:13000000000000130000000000000000
#00452:14000000000000000000000000640000
#0075b:00000000000000430000000063000000
#00756:13
#0075a:14
#01056:0000000000000052
#01057:0000000000120000
#01152:0052000000120000
#01157:0000005200000000
#0115c:0062
#01158:00520062
#0145c:00620000
#01459:00000000000000620000000000000000
#01452:0000000000126200
#01458:00000062
#0185b:33
#01856:34000023
#01852:0000000000630000
#01857:0000000000000053
#01956:63000063
#0195b:0000630000000023
#01952:0023000063000000
#01957:0000002300230023
#02052:33
#02056:34000000000000330000000000000000
#0215b:00000053
#02157:00000000000000430000000000000000
#02256:44
#02252:43
#02357:0032
#0235c:0032
#0255b:2300130000630000
#02556:0000130000630000
#02552:00000000000000230000000013000000
#02557:0023000000001300
#0275b:0053000000530000
#02752:0000006300002200
#02756:00430043
#02757:3333
#0275c:0000000000000022
#02957:00002300000000620000000000000000
#0295c:0000000000000000000000000000000000220000000000000000000000000000
#02952:63000063
#03056:0000430000630000
#03057:3300003300005300
#0305b:6300005300001300
#03052:0000630000630013
#03259:45
#03252:3500003300002400
#03256:0054000000540014
#0325a:00240000
#0325b:0000000000000053
#03356:0023
#03352:0000006300000053
#03357:00000023
#0335a:0000000000000044
#03355:00160000
#0335b:0000130000630000
#03552:0000130023000033
#03556:0000005300002300
#03554:0000000000630000
#0355c:0000000000000062
#03555:00160000
#03754:2a00003a00000053
#03756:0068000000000000
#03758:00000000000000000000000000000000260000000000000000000000000000000000000000000000000000000000000000000000000000000000250000530000
#03753:0000000000000000000000000000000000000000000000000000000000250000
#03755:00000000000000000000000000000000000000000000000000000000000000000000000000000000000000000000000000000000000000000000000000530000
#03759:0000000000000053
#03656:0028
#03658:2600000000660000
#03652:0000001400000000
#0365c:00220000
#0365a:0064000000002400
#03659:0000006500000000
#03657:0000000000000067
#03956:00230000000000000000000000000000
#0395b:00430000
#03953:00000032
#0405a:00000024
#04056:0064000000640014
#04052:3300240000000063
#0405b:0000004300000000
#04058:43
#04157:00432300
#0415b:0000005300000063
#04156:00000023
#04152:0000140000530034
#04352:0000000000000063
#0435b:0000000000000063
#04356:00330000
#0435a:00140000
#04455:2300006300430000
#04458:2300005300330000
#04452:00000000000000003300000000000000000000000000000000000000000000002300000000000000000000000000000000000000000000000000000000250000
#0445b:0043000023000000
#04459:00000000000000000000000000000000000000000000000000000000000000000000000000000000000000000000000000000000000000000000000000250000
#04552:52251300000000000000000000000000
#04559:00250000000000000000000000000000
#0455c:62
#0455b:0013000000000000
#04957:0000005222420000
#0495c:0000005200420000
#04952:0022
#0585b:43
#0595c:00000042000000420000000000000000
#05952:00000000003200000000000000000000
#06152:00140014
#0615a:1414
#06458:46
#0645c:00000000000000420042004200420042
#06352:00000000003200000000000000000000
#06353:00000000000000330000000000000000
#06354:00000000000000000034000000000000
#06355:00000000000000000000003500000000
#06655:0062000000006200
#06659:00000062
#06658:0000002200000000
#0665c:0000002200000000
#06657:62
#06759:00000000000000000062000000000000
#06754:00000000000000000062000000000000
#06752:0022000000000000
#06756:0022000000000000
#06552:1400000000630022
#06554:0000000000000000140000000000000000000000000000000062000000000000
#06556:00000000000000001400002200000000
#06558:00000014
#0655b:00000023000000000000000000000000
#05652:00230000000000000000000000000000
#05656:0000003500000000
#05655:0000000000450000
#05752:55000000002200000000000000000000
#0575c:00000000002200000000000000000000
#05759:55
#0555c:0000000000000012
#0555a:00000000000000440000000000000000
#05552:0000000000220000
#05558:00000062
#05556:3400000000000063
#0555b:33
#00157:00000000000000130000000000000000
#00152:13000000000000000000000000640000
#00156:1400000000640000
#00652:13000000000000330000000000000000
#00656:14000000000000000000000000640000
#0065a:0000000000640000
#0165b:43
#01657:00000000000000430000000000000000
#01556:0000000000640000
#03152:00340000
#03156:00480000
#0465b:53430000
#04657:0023000000000000
#04752:64340000
#04756:0024000000000000
#04859:55450000
#04855:0025000000000000
#01352:0000000000120000
#0125c:0000000000120000
#0095c:0000000000120000
#00852:0000000000120000
#00557:00000000005300000000000000000000
#00556:14000000000000130000540000000000
#0055b:13
#0055a:00000000000000000000000000540000
#0345a:00000024
#03456:0064000000640014
#03452:0000240000000063
#0345b:0000004300000000
#03852:00000026000000000000000000000000000000000000000000000000000000000000000000000000320000000000000000000000000000000000000000000000
#03858:00000026000000000000000000000000000000000000000000000000000000000000000000000000000000000000000000000000000000000000000000000000
#0385b:0000000000000053
#04252:0000003300002400
#04256:0054000000540014
#0425a:00240000
#0425b:0000000000000063
#02852:6565
#02857:00000013000000000000001300000000
#05052:43000000000000000000640000540000
#0505b:00000000000000330000000000000000
#05056:4400000000000000000000000000000000000000000000240000000000000000
#05452:44000000000000340000640000540000
#05458:42
#05456:0000000000000000000000000000000000000000000000240000000000000000
#05358:0000000000000062
#05356:44000000000000330000000000540000
#0535b:00000000000000330000000000000000
#05352:4300000000540000
#05156:34000000000000000000000000645200
#0515b:33
#05152:00000000000000430000000000000000
#0515a:0000000000640000
#05257:00000000000000430000000000000000
#05252:00000000000000430000000000000000
#0525a:34000000000000000000540000640000
#05256:3200000000000000000000000000000000000000000000240000000000000000
#000360:00000013002300000000000000000000
#000360:0000000000000000000000000000000000000000140000000000000000540000
#0003a0:0000000000000000000000000000000000000000000000540000340000000000
#001360:24
#001370:00000013002300000000000000000000
#001360:0000000000000000000000000000000000000000140000000000000000540000
#001320:0000000000000000000000000000000000000000000000540000340000000000
#002360:24
#0023b0:00000013000000000000000000000000
#002370:00000000002300000000000000000000
#0023a0:0000000000000000000000000000000000000000140000000000000000540000
#002360:0000000000000000000000000000000000000000000000540000340000000000
#0033a0:24
#003320:00000013000000000000000000000000
#003360:00000000002300000000000000000000
#003320:0000000000000000000000000000000000000000140000000000000000540000
#003360:0000000000000000000000000000000000000000000000540000340000000000
#004320:24
#004360:00000000001300000000000000000000
#004320:00000000000000230000000000000000
#004360:0000000000000000000000000000000000000000140000000000000000540000
#004320:0000000000000000000000000000000000000000000000540000340000000000
#005360:24
#005370:00000000001300000000000000000000
#0053b0:00000000000000230000000000000000
#005360:0000000000000000000000000000000000000000140000000000000000540000
#0053a0:0000000000000000000000000000000000000000000000540000340000000000
#006360:24
#0063a0:0000000000000000000000000000000000000000140000000000000000540000
#006360:0000000000000000000000000000000000000000000000540000340000000000
#0073a0:24
#0073b0:00000013
#008370:22
#008321:1222000000000000
#008321:00000000000000120022000000000000
#0093c1:1222000000000000
#0093c1:00000000000000120022000000000000
#0093c1:00000012
#009381:0000000000000022
#009360:0000000000000012
#010320:22
#010371:1222000000000000
#010361:0000000000000012
#011321:22
#011370:1222000000000000
#011321:0012000000000000
#011361:00220000
#011380:00120000
#0113c0:0000002200000000
#011371:0000001222000000
#0113c0:0012
#011380:0000000000220000
#011380:00000012
#0113c0:0000000000000022
#011371:0000000000000012
#012371:22
#0123c0:1222000000000000
#0123c0:00000000000000120022000000000000
#013320:1222000000000000
#013320:00000000000000120022000000000000
#0133c0:0000000000001222
#013371:0000000000000012
#014371:22
#0143c0:1222000000000000
#0143c0:00120000
#014390:0000002200000000
#014390:00000000000000120000000000000000
#014360:00000000000000000052220000000000
#014320:00000012
#014360:0000000000000022
#014381:00000012
#0143c1:0000000000000022
#015381:1222000000000000
#015391:0000132300000000
#0153a1:0000000014240000
#015360:0000000000140000
#015320:00000022
#016370:0000132300000000
#0163b0:00000000000000000013002300000000
#017360:0000132300000000
#017320:00000000000000000013002300000000
#017371:00000000000000000000001333000000
#0173b1:0000000000000033
#0183b1:23
#017360:0000000000000014
#018360:24
#018320:0000000000130023
#018360:00000053
#018371:0000000000000013
#0193b1:23
#019360:13230000
#019320:0053000000000000
#0193b1:00132300
#019371:0000005300000000
#019320:00001323
#019370:0000000000530000
#019361:00000013
#0193b1:0000000000000053
#020361:24
#019370:0000000000000013
#020320:23
#020360:0000132300000000
#020320:00000000000000000013002300000000
#021370:0000132300000000
#021360:00000000000000000013002300000000
#0213b1:00000000000000000000001333000000
#021361:0000000000000034
#022361:24
#021320:0000000000000013
#022320:23
#0223c0:0012002200000000
#022370:00320000
#022320:00001222
#022370:0000000000320000
#0223c0:0000000000000012
#023370:32320000
#0233c0:0032002200000000
#023321:12
#023371:0022000000000000
#023321:00120000
#023371:0000003222000000
#024391:15
#024361:0023000000000000
#024391:0015
#024361:0000000000230000
#0253b1:13230000
#025371:0053000000000000
#025321:00000000000000130000000023000000
#025361:0000000000330000
#0253b0:0000000000130000
#025370:00000023
#026320:15
#026370:0023000000000000
#026360:00000015
#026370:0000000000000000000000000000000000000000000000000053000000002300
#0273b0:0013000000000000
#027360:00230000
#027320:0000001300000000
#027370:0023
#0273b0:0000000000130000
#027360:00000023
#027321:00000012
#027371:0000000000000022
#0273c0:0000000000000012
#028370:22
#028321:15
#028371:0023000000000000
#028321:0015
#028371:0000000000230000
#029321:13333333
#029371:0053000000000000
#030371:23
#029370:00000000000000120000220000000000
#0293c0:0000000000000000000000000000000000520000000000000000000000000000
#0303b0:13
#030360:00230000
#030321:00130000
#030371:0000002300000000
#0303b0:0000001300002300
#030360:0000000000330000
#030321:0000000000130023
#030371:00000033
#032361:0014002400000000
#0323a1:00540000
#032361:0000000000140024
#032321:00000054
#0323b0:0000000000000013
#033370:23
#033320:0000001300230000
#033360:0053
#0333b1:0000000000130000
#033371:00000053
#0333a1:0000000000000024
#033320:0000000000000013
#034370:23
#034360:0014002400000000
#034320:00540000
#034360:0000000000140024
#0343a0:00000054
#034321:0000000000000013
#035361:23
#035361:0000001300005300
#035321:0000000053000023
#035341:0000000000330000
#0353c0:0000000000000012
#036380:5600000000360000
#0363a0:0034000000003400
#0363c0:00320000
#036390:0000003500000000
#036360:0058
#036370:0000000000000037
#037340:5a00002a00000000
#037360:0038000000000000
#037380:00360000
#037340:0000000000000013
#037330:0000000000000000000000000000000000000000000000000000000000550000
#037350:00000000000000000000000000000000000000000000000000000000000000000000000000000000000000000000000000000000000000000000000000530000
#038320:00000056000000000000000000000000000000000000000000000000000000000000000000000000000000000000000000000000000000000000000000000000
#038340:0023000000000000
#037391:0000000000000013
#037381:00000000000000000000000000000000000000000000000000000000000000000000000000000000000000000000000000000000000000000000550000530000
#038381:00000056000000000000000000000000000000000000000000000000000000000000000000000000000000000000000000000000000000000000000000000000
#038391:0023000000000000
#0383b1:0000000000000013
#039361:00530000000000000000000000000000
#0393b1:00230000
#040361:0014002400000000
#040321:00540000
#040361:0000000000140024
#0403a1:00000054
#040320:0000000000000013
#041360:23
#0413b0:0000001300230000
#041370:0053
#041321:0000000000130024
#041361:00000053
#0413b0:0000000000000013
#042360:23
#042360:0014002400000000
#0423a0:00540000
#042360:0000000000140024
#042320:00000054
#0423b1:0000000000000013
#043371:23
#043321:0000001300000000
#043361:0023
#043371:0000000000130000
#0433b1:00000023
#043321:0000000000000013
#044351:53
#044321:0023000000000000
#0433b0:0000000000000013
#044380:53
#0443b0:0023000000000000
#044350:0000001300230000
#044320:0053
#044381:0000001300230000
#0443b1:0053
#044321:00000000000000000000000000000000000000000000000000000000000000000000000000000000000000000000000000000000000000001500000000550000
#045321:52552300000000000000000000000000
#044390:00000000000000000000000000000000000000000000000000000000000000000000000000000000000000000000000000000000000000001500000000550000
#0453c0:52
#045390:00550000000000000000000000000000
#0453b0:0023000000000000
#0463b0:13230000
#046370:0053000000000000
#047320:14240000
#047360:0054000000000000
#048390:15250000
#048350:0055000000000000
#049320:1c2c000000000000
#0493c0:0000001200220000
#049370:0052
#049371:0000001200220000
#049321:0052
#050361:00000013002300000000000000000000
#050321:00000000000000000000140000340000
#050361:0000000000000000000000000000000000000000000000540000000000540000
#051361:24
#051371:00000013002300000000000000000000
#0513a1:0000000000000000000000000000000000000000140000000000000000540000
#051361:0000000000000000000000000000000000000000000000540000340000000000
#0523a1:24
#051360:0000000000000012
#052360:22
#0523a0:00000000000000000000140000340000
#052360:0000000000000000000000000000000000000000000000540000000000540000
#053360:24
#053320:0000000000000000000000000000000000000000140000000000000000540000
#053360:0000000000000000000000000000000000000000000000540000340000000000
#054320:24
#053381:0000000000000012
#054381:22
#054321:00000000000000000000140000340000
#054361:0000000000000000000000000000000000000000000000540000000000540000
#055361:24
#055321:0000000000120000
#055361:00000022
#055380:00000012
#0553c0:0000000000000022
#055361:0000000000000013
#056321:00530000000000000000000000000000
#056361:00230000
#0563b0:0000132300000000
#0563b0:0000000000001323
#056361:0000000000000015
#057321:3500000000250000
#0573c1:00000000005200000000000000000000
#057390:1500000000250000
#057320:00000000005200000000000000000000
#058360:13530000000000000000000000000000000000000000000000000000000000000000000000000000000000000000000000000000000000000000000000000000
#058350:0053000053005300000000000000000000000000000000000000000000000000000000000000000000000000000000000000000000000000000000000000000000000000000000000000000000000000000000000000000000000000000000000000000000000000000000000000000000000000000000000000000000000000
#058340:0000005300530000530053000000000000000000000000000000000000000000000000000000000000000000000000000000000000000000000000000000000000000000000000000000000000000000000000000000000000000000000000000000000000000000000000000000000000000000000000000000000000000000
#058330:0000000000000053005300005300530000000000000000000000000000000000000000000000000000000000000000000000000000000000000000000000000000000000000000000000000000000000000000000000000000000000000000000000000000000000000000000000000000000000000000000000000000000000
#058320:0000000000000000000000530053005323000000000000000000000000000000000000000000000000000000000000000000000000000000000000000000000000000000000000000000000000000000000000000000000000000000000000000000000000000000000000000000000000000000000000000000000000000000
#058320:00000000000000000000000013535300000000000000000000000000000000000000000000000000000000000000000000000000000000000000000000000000
#058330:0000000000000000000000000000000000000000000000000053005300005300530000000000000000000000000000000000000000000000000000000000000000000000000000000000000000000000000000000000000000000000000000000000000000000000000000000000000000000000000000000000000000000000
#058340:0000000000000000000000000000000000000000000000000000000000530053000053005300530053000000000000000000000000000000000000000000000000000000000000000000000000000000000000000000000000000000000000000000000000000000000000000000000000000000000000000000000000000000
#058350:0000000000000000000000000000000000000000000000000000000000000000005300530053005300005300530053000000000000000000000000000000000000000000000000000000000000000000000000000000000000000000000000000000000000000000000000000000000000000000000000000000000000000000
#058360:0000000000000000000000000000000000000000000000000000000000000000000000000000000000530053005300532300000000000000000000000000000000000000000000000000000000000000000000000000000000000000000000000000000000000000000000000000000000000000000000000000000000000000
#0583b1:00000000000000000000000000000000000000000000000013530000000000000000000000000000000000000000000000000000000000000000000000000000
#0583a1:0000000000000000000000000000000000000000000000000000000000000000000000000000000000000000000000000053000053005300000000000000000000000000000000000000000000000000000000000000000000000000000000000000000000000000000000000000000000000000000000000000000000000000
#058391:0000000000000000000000000000000000000000000000000000000000000000000000000000000000000000000000000000005300530000530053000000000000000000000000000000000000000000000000000000000000000000000000000000000000000000000000000000000000000000000000000000000000000000
#058381:0000000000000000000000000000000000000000000000000000000000000000000000000000000000000000000000000000000000000053005300005300530000000000000000000000000000000000000000000000000000000000000000000000000000000000000000000000000000000000000000000000000000000000
#058371:0000000000000000000000000000000000000000000000000000000000000000000000000000000000000000000000000000000000000000000000530053005323000000000000000000000000000000000000000000000000000000000000000000000000000000000000000000000000000000000000000000000000000000
#058320:00000000000000000000000000000000000000000000000000000000000000001353000000000000000000532300000000000000000000000000000000000000
#058330:0000000000000000000000000000000000000000000000000000000000000000000000000000000000000000000000000000000000000000000000000000000000530000530000000000000000000000000000005300005300000000000000000000000000000000000000000000000000000000000000000000000000000000
#058340:0000000000000000000000000000000000000000000000000000000000000000000000000000000000000000000000000000000000000000000000000000000000000053000053000000000000000000000053000053000000000000000000000000000000000000000000000000000000000000000000000000000000000000
#058350:0000000000000000000000000000000000000000000000000000000000000000000000000000000000000000000000000000000000000000000000000000000000000000005300005300530000005300530000530000000000000000000000000000000000000000000000000000000000000000000000000000000000000000
#058360:0000000000000000000000000000000000000000000000000000000000000000000000000000000000000000000000000000000000000000000000000000000000000000000000530053000053000053005300000000000000000000000000000000000000000000000000000000000000000000000000000000000000000000
#058370:0000000000000000000000000000000000000000000000000000000000000000000000000000000000000000000000000000000000000000000000000000000000000000000000000000005300530000000000000000000000000000000000000000000000000000000000000000000000000000000000000000000000000000
#0583b1:00000000000000000000000000000000000000000000000000000000000000000000000000000000000000001353000000000000000000000000000000000000
#0583a1:0000000000000000000000000000000000000000000000000000000000000000000000000000000000000000000000000000000000000000000000000000000000000000000000000000000000000000000000000000000000530000530053000000000000000000000000000000000000000000000000000000000000000000
#058391:0000000000000000000000000000000000000000000000000000000000000000000000000000000000000000000000000000000000000000000000000000000000000000000000000000000000000000000000000000000000000053005300005300530000000000000000000000000000000000000000000000000000000000
#058381:0000000000000000000000000000000000000000000000000000000000000000000000000000000000000000000000000000000000000000000000000000000000000000000000000000000000000000000000000000000000000000000000530053000053005300000000000000000000000000000000000000000000000000
#058371:0000000000000000000000000000000000000000000000000000000000000000000000000000000000000000000000000000000000000000000000000000000000000000000000000000000000000000000000000000000000000000000000000000005300530053230000000000000000000000000000000000000000000000
#059321:13530000000000000000000000000000000000000000000000000000000000000000000000000000000000000000000000000000000000000000000000000000
#059331:0053000053000000000000000000000000000000000000000000000000000000000000000000000000000000000000000000000000000000000000000000000000000000000000000000000000000000000000000000000000000000000000000000000000000000000000000000000000000000000000000000000000000000
#059341:0000005300005300000000000000000000000000000000000000000000000000000000000000000000000000000000000000000000000000000000000000000000000000000000000000000000000000000000000000000000000000000000000000000000000000000000000000000000000000000000000000000000000000
#059351:0000000000530000530053000000000000000000000000000000000000000000000000000000000000000000000000000000000000000000000000000000000000000000000000000000000000000000000000000000000000000000000000000000000000000000000000000000000000000000000000000000000000000000
#059361:0000000000000053005300005300530000000000000000000000000000000000000000000000000000000000000000000000000000000000000000000000000000000000000000000000000000000000000000000000000000000000000000000000000000000000000000000000000000000000000000000000000000000000
#059371:0000000000000000000000530053005323000000000000000000000000000000000000000000000000000000000000000000000000000000000000000000000000000000000000000000000000000000000000000000000000000000000000000000000000000000000000000000000000000000000000000000000000000000
#059371:00000000000000000000000000000000000000000000000000000000135300000000000000000000000000000000000000000000000000000000000000000000
#059361:0000000000000000000000000000000000000000000000000000000000000000000000000000000000000000000000000000000000000000005300005300000000000000000000000000000000000000000000000000000000000000000000000000000000000000000000000000000000000000000000000000000000000000
#059351:0000000000000000000000000000000000000000000000000000000000000000000000000000000000000000000000000000000000000000000000530000530000000000000000000000000000000000000000000000000000000000000000000000000000000000000000000000000000000000000000000000000000000000
#059341:0000000000000000000000000000000000000000000000000000000000000000000000000000000000000000000000000000000000000000000000000053000053005300000000000000000000000000000000000000000000000000000000000000000000000000000000000000000000000000000000000000000000000000
#059331:0000000000000000000000000000000000000000000000000000000000000000000000000000000000000000000000000000000000000000000000000000005300530000530053000000000000000000000000000000000000000000000000000000000000000000000000000000000000000000000000000000000000000000
#059321:0000000000000000000000000000000000000000000000000000000000000000000000000000000000000000000000000000000000000000000000000000000000000053005300532300000000000000000000000000000000000000000000000000000000000000000000000000000000000000000000000000000000000000
#060371:00000000000000000000000000000000000000000000000000000000000000001353000000000000000000000000000000000000000000000000000000000000
#060381:0000000000000000000000000000000000000000000000000000000000000000000000000000000000000000000000000000000000000000000000000000000000530000530053000000000000000000000000000000000000000000000000000000000000000000000000000000000000000000000000000000000000000000
#060391:0000000000000000000000000000000000000000000000000000000000000000000000000000000000000000000000000000000000000000000000000000000000000053005300005300530000000000000000000000000000000000000000000000000000000000000000000000000000000000000000000000000000000000
#0603a1:0000000000000000000000000000000000000000000000000000000000000000000000000000000000000000000000000000000000000000000000000000000000000000000000530053000053005300000000000000000000000000000000000000000000000000000000000000000000000000000000000000000000000000
#0603b1:0000000000000000000000000000000000000000000000000000000000000000000000000000000000000000000000000000000000000000000000000000000000000000000000000000005300530053230000000000000000000000000000000000000000000000000000000000000000000000000000000000000000000000
#060371:00000000000000000000000000000000000000000000000000000000000000000000000000000000000000001353000000000000000000000000000000000000
#060381:0000000000000000000000000000000000000000000000000000000000000000000000000000000000000000000000000000000000000000000000000000000000000000000000000000000000000000000000000000000000530000530053000000000000000000000000000000000000000000000000000000000000000000
#060391:0000000000000000000000000000000000000000000000000000000000000000000000000000000000000000000000000000000000000000000000000000000000000000000000000000000000000000000000000000000000000053005300005300530000000000000000000000000000000000000000000000000000000000
#0603a1:0000000000000000000000000000000000000000000000000000000000000000000000000000000000000000000000000000000000000000000000000000000000000000000000000000000000000000000000000000000000000000000000530053000053005300000000000000000000000000000000000000000000000000
#0603b1:0000000000000000000000000000000000000000000000000000000000000000000000000000000000000000000000000000000000000000000000000000000000000000000000000000000000000000000000000000000000000000000000000000005300530053230000000000000000000000000000000000000000000000
#062361:14545454000000000000000000000000000000000000000000000000005300000000000000000000000000000000000000000000000000000000000000000000
#062351:0054005400540000540054005400540000000000000000000000000000000000000000000000000000000000000000000000000000000000000000005300000000000000000000000000000000000000000000000000000000000000000000000000000000000000000000000000000000000000000000000000000000000000
#062341:000000000000000000000000000000000000000000540000000000540000000000540000000000540000000000000000540000000000540000000000540000000000540000000000540000000000000000000000000000000000000000000000000000000000000000000000000000000000000000000000000000000000000000000000000000000000000000000000000000000000000000000000000000000000000000000000000054000000000053000000000000000000000000000000000000000000000000000000000000000000000000000000000000000000000000000000000000000000000000000000000000000000000000000000000000000000000000000000000000000000000000000000000000000000000000000000000000000000000000000000000000000000000000000000000000000000000000000000000000000000000000000000000000000000000000000000000000000000000000000000000000000000000000000000000000000000000000000000
#062331:000000000000000000000000000000000000000000000000000000000000000000000000000000000000000000540000000000540000000000540000000000540000000000540000000000000000540000000000540000000000540000000000540000000000540000000000530000000000530000000000530000000000530000000000530000000000530000000000000000530000000000530000000000530000000000530000000000005300000000000000000000000000000000000000000000000000000000000000000000000000000000000000000000000000000000000000000000000000000000000000000000000000000000000000000000000000000000000000000000000000000000000000000000000000000000000000000000000000000000000000000000000000000000000000000000000000000000000000000000000000000000000000000000000000000000000000000000000000000000000000000000000000000000000000000000000000000000000000
#062321:0000000000000000000000000000000000000000000000000054005400540054005400530053005300530053005300533300530053005300540000000000000000000000000000000000000000000000000000000000000000000000000000000000000000000000000000000000000000000000000000000000000000000000
#062371:000000000000000000000000000000000000000000000000000000000000000000000000000000000000000000000000000000000000000000000000000000000000000000000000000000000000000000000000000000000053000000000000000000000000000000000000000000000000000000000000000000000000000000000000000000000000000000000000000000000000000000000000000000000000000000000000000000000000000000000000000000000000000000000000
#062381:00000000000000000000000000000022
#062360:0000000000000000000000000000000000000000000000000000000000000000000000000000000000000000000000001300000000000053540000000000000000000000000000000000000000000000000000000000000000000000000000000000000000000000000000000000000000000000000000000000000000000000
#062380:000000000000000000000000000000000000000000000000000000000000000000000000000000000000000000000000000000000000000000000000000000000000000000000000000000000000000000000000005400005300000000000000000000000000000000000000000000000000000000000000000000000000000000000000000000000000000000000000000000000000000000000000000000000000000000000000000000000000000000000000000000000000000000000000
#062370:000000000000000000000000000000000000000000000000000000000000000000000000000000000000005300000000000000000000000000000000000000000000000000000000000000000000000000000000000000000000000000000000
#0623a0:00000000000000000000000000000000000000000000000000000000005300000000000000000000000000000000000000000000000000000000000000000000
#0623b0:000000000000000000000000000000000000000000000000000000000000000000000000000000000000000000000000000000000000000000000000000000000000000000000000000000000000000000000000000000000053000000000000000000000000000000000000000000000000000000000000000000000000000000000000000000000000000000000000000000000000000000000000000000000000000000000000000000000000000000000000000000000000000000000000
#062390:0000000000000000000000000000005300000000000000000000000000000000
#0623c0:0000000000000022
#0653b1:00000013000000000000000000000000
#065361:00000000000000230000000000000000
#065321:0000000000130052
#065361:00000000000000000000005200000000
#065341:0000000000000000000000000000000000000000000000000052000000000000
#066351:0052000000005200
#066381:0000005200000000
#067321:0052000000000000
#067341:00000000000000000052000000000000
#068361:3232320000000000000000000000000000000000000000000000000000000000
#068321:0000002200000000000000000000000000000000000000000000000000000000
#066370:1232323200000000000000000000000000000000000000000000000000000000
#0663c0:0000005200000000
#066390:00000052
#067360:0052000000000000
#067390:00000000000000000052000000000000
#0683c0:3232320000000000000000000000000000000000000000000000000000000000
#068380:0000002200000000000000000000000000000000000000000000000000000000
