This file was generated by Ched 2.7.0.0.
#TITLE ""
#ARTIST ""
#DESIGNER ""
#DIFFICULTY 0
#PLAYLEVEL
#SONGID ""
#WAVE ""
#WAVEOFFSET 0
#JACKET ""
#REQUEST "ticks_per_beat 480"
#00002: 4
#BPM01: 128
#00008: 01
#TIL00: ""
#VOLUME: ""
#HISPEED 00
#MEASUREHS 00
#0001a:14
#00014:0014
#00218:14
#00212:0014
#0041a:14
#00414:0014
#00518:14
#00512:0014
#0061a:14
#00614:0014
#00718:14
#00712:0014
#0081a:14
#00814:0014
#00810:41
#0011a:14
#00114:0014
#00318:14
#00312:0014
#02018:14
#02014:00140000
#0201a:0014
#02012:00000014
#01012:14
#01018:0014
#0121a:14
#01214:0014
#0141a:14
#01414:0014
#02212:14140000
#0221a:00001414
#0161a:14
#01612:00140000
#01618:0014
#01614:00000014
#01610:41
#0091a:1414
#01112:1414
#01318:14
#01312:0014
#01512:00140014
#0151a:1414
#0171a:14
#01712:00140000
#01718:0014
#02118:14
#02114:00140000
#0211a:0014
#0231a:00000014
#01814:0014
#01812:14
#01818:00140000
#0181a:00000014
#01912:14
#01918:00140000
#01914:0014
#02812:14
#02814:00140000
#0291a:14
#02918:00140000
#02514:14
#02518:00140000
#02512:0014
#0251a:00000014
#02712:14
#0271a:00140000
#02714:0014
#02718:00000014
#0421a:0000000000140014
#04214:00000014
#04218:00140000
#04212:0014001400000000
#04112:0000001400000000
#04118:0000000000343400
#04110:0041
#04012:0000000000140014
#04018:00000014
#04014:00140000
#0401a:0014001400000000
#0431a:0000001400000000
#04314:0000000000343400
#0351a:0000001400000000
#03512:0000000000343400
#0341a:0000000000140014
#03414:00000014
#03418:00140000
#03412:0014001400000000
#03312:0000001400000000
#0331a:0000000000343400
#03310:0041
#03212:0000000000140014
#03218:00000014
#03214:00140000
#0321a:0014001400000000
#0321f:21
#04818:0000000000140000
#0481a:0000000000003434
#04714:0000000000140000
#04712:0000000000003434
#0461a:0000000000140000
#04618:0000000000003434
#04512:0000000000140000
#04514:0000000000003434
#05314:00000014
#05312:00140000
#0531a:0014
#05318:14
#05212:00000014
#05218:0014
#05214:00140000
#0521a:14
#05112:00140014
#05118:1414
#05412:00140000
#05418:14001414
#0551a:00140000
#05514:14001414
#06518:00001616
#06512:16160000
#06418:14
#06212:00000000000000140000000000000000
#06214:14
#06014:00140014
#0601a:1414
#05818:00140014
#05812:1414
#05810:41
#0561a:0014
#05618:14
#0241f:11
#04914:0000000000000024
#04910:41
#03118:24240000
#03114:0024000000000000
#03112:0000000034343400
#03914:0000000034343400
#0165a:14
#02352:0014
#02852:64
#02854:00240000
#0295a:54
#02958:00240000
#0425a:0000000000000014
#04052:0000000000000014
#0345a:0000000000000014
#03252:0000000000000014
#04858:0000000000540000
#04852:00140000
#04754:0000000000640000
#04758:00140000
#0465a:0000000000640000
#04654:00140000
#04552:0000000000540000
#06458:64
#06252:00000000000000640000000000000000
#06254:64
#0565a:0054
#05658:54
#04954:0000000000000014
#03552:0000000000000014
#03954:0000000000000014
#03152:0000000000000014
#0335a:0000000000000014
#04158:0000000000000014
#023320:14342400
#024340:14
#024320:00240000
#024380:0014
#0243a0:00000024
#026320:14
#026340:00240000
#0263a0:0014
#026380:00000024
#028320:1424
#028340:00340000
#0293a0:1424
#029380:00340000
#030320:14000024
#030340:00343400
#031340:0000001400000000
#031320:0000000034343424
#033380:0014
#0333a0:0000000000343424
#035340:0014
#035320:0000000000343424
#0363a0:0014342400000000
#036360:0000000000143424
#037320:0014342400000000
#0373a0:0000000000140000
#037390:00000034
#037380:0000000000000024
#038320:0014000000000000
#038330:00340000
#038340:0000002400000000
#038340:0000000000140000
#038330:00000034
#038320:0000000000000024
#0383a1:0000000000140000
#038391:00000034
#038381:0000000000000024
#039321:0000001400000000
#039341:0000000034343424
#0413a1:0014
#041381:0000000000343424
#043321:0014
#043341:0000000000343424
#044381:0014342400000000
#044321:0000000000143424
#0453a1:0014342400000000
#045321:0000000000140000
#045341:0000000000003434
#046341:34240000
#0463a1:0000000000140000
#046381:0000000000003434
#047381:34240000
#047341:0000000000140000
#047321:0000000000003434
#048321:34240000
#048381:0000000000140000
#0483a1:0000000000003434
#0493a1:3400342400000000
#049341:0000000000140024
#056381:14
#0563a1:0034
#057381:3424
#059321:1424
#0613a1:1424
#062341:14
#062321:00000000000000340000000000000000
#063341:3424
#064381:14
#0643a1:00003424
#066321:16
#068321:24
