This file was generated by Ched 2.7.0.0.
#TITLE ""
#ARTIST ""
#DESIGNER ""
#DIFFICULTY 0
#PLAYLEVEL
#SONGID ""
#WAVE ""
#WAVEOFFSET 0
#JACKET ""
#REQUEST "ticks_per_beat 480"
#00002: 4
#BPM01: 145
#00008: 01
#TIL00: ""
#VOLUME: ""
#HISPEED 00
#MEASUREHS 00
#0011a:14
#00212:14
#0031a:14
#00412:14
#00518:14
#00614:14
#00718:14
#00814:14
#01014:14
#01118:14
#01212:14
#0131a:14
#01414:14
#01518:14
#01612:14
#0171a:14
#01710:41
#0181a:14
#01912:14
#02012:14
#02118:14
#02218:14
#02314:14
#02414:14
#0251a:14
#02510:41
#02612:14
#02718:14
#02814:14
#0291a:14
#03012:14
#03118:14
#03214:14
#0391a:0014
#04012:14
#04112:0016
#04118:26
#0411f:21
#04218:16
#04212:0016
#04318:16
#04312:0016
#04310:41
#04512:16
#04518:0016
#04612:16
#04618:0016
#04918:0016
#04912:26
#05012:16
#05018:0016
#05112:16
#05118:0016
#05518:1616
#05612:1616
#05914:14
#05918:0014
#05910:41
#06012:14
#0601a:0014
#06114:14
#06118:0014
#06212:14
#0621a:0014
#06312:14
#06318:0014
#06414:14
#0641a:0014
#06512:14
#06518:0014
#0331f:11
#0091a:24
#00910:41
#05310:41
#0333a0:14
#0343a0:34
#0353a0:34
#0363a0:24
#037320:14
#038320:34
#039320:24
#044380:1626
#047320:1626
#048380:1626
#052320:1626
#053380:16362600
#054320:16362600
#0573a0:14
#0583a0:24
#066340:14000000000000340000000000000000
#067340:0024000000000000
