This file was generated by Ched 2.7.0.0.
#TITLE ""
#ARTIST ""
#DESIGNER ""
#DIFFICULTY 0
#PLAYLEVEL
#SONGID ""
#WAVE ""
#WAVEOFFSET 0
#JACKET ""
#REQUEST "ticks_per_beat 480"
#00002: 4
#BPM01: 145
#00008: 01
#TIL00: ""
#VOLUME: ""
#HISPEED 00
#MEASUREHS 00
#00012:00000000000000001300000000130000
#00018:00000000000000000013000000130000
#00015:00000000000000000000001300000000
#0001b:00000000000000000000001300000000
#00217:00130000000013000000000013000000
#00212:13131313
#0021b:0013
#00219:0000000000130013
#00112:00131313
#00117:00000000000013000000001300000000
#0011b:00130000000000001313000000130000
#00114:24
#00316:13001313
#00314:0013001300000000
#00312:0000130000130013
#0031b:13131313
#0041b:13131313
#00415:00000000000000001313000000130000
#00412:00000000000000000000001300000013
#00416:000000000013000000000000000000000000000000000000000000000000000000000000000000000000000000000000
#00414:0013000000000000
#0051b:00131313
#00512:00000000000013000000000000000013
#00516:00000000000000001313001300000000
#00514:00000000000000000000000000130000
#00519:0000000000000013
#00518:24
#0061b:13131313
#00616:0013000013000013
#00614:00130013
#00612:0000001300130000
#0071b:1323
#00718:00130000130000000000000000130000
#00714:00000013000000000000000000000000
#00715:00000000001300000013000013000000
#00712:2313
#00719:00000000000013000000001300000000
#0081b:13
#00818:00001300130013002424000024240016
#00815:00000013001300130000000000000000
#00814:00000000000000000000241400002400
#00912:00130000000000000000001300000013
#0091b:00000000130000130000000013000000
#00916:00000000001300001300000000000000
#00918:00130000000000000000130000001300
#00915:00000000000000000000000000130000
#00910:41
#01017:00000000000000000000000000000013
#01016:00000000000000131300000013000000
#01015:00000013000000000000000000000000
#0101b:00000000001300001300000013000000
#01018:00130000000000000000000000000000
#01012:0000000000000013
#01112:00000000130000130000000013000000
#01117:00000000001300001300000000000000
#01115:0000000000130013
#0111b:00000000000000000000001300000013
#01118:00000000000000000000000000130000
#01218:00000000001300000013001300000000
#0121b:00000013000000130000000000130013
#01215:0000001300130000
#01212:00130000130000001300000013000000
#01216:0000000000000013
#0131b:00000000130000000000001300000013
#01315:00000000001300000000130000001300
#01318:00000000000013000000000000130000
#01312:24000000130000130000000013000000
#01317:0013
#0131a:0024000000000000
#0141b:0000000000000013
#01416:00000000000000000000000000000013
#01417:00000000000000131300000013000000
#01412:00000000001300001300000013000000
#01418:00000013000000000000000000000000
#01415:00130000000000000000000000000000
#0151b:00000000130000130000000013000000
#01516:00000000001300001300000000000000
#01518:0000000000130013
#01512:00000000000000000000001300000013
#01515:00000000000000000000000000130000
#01615:00000000001300000013001300000000
#01612:00000013000000130000000000130013
#01618:0000001300130000
#0161b:00130000130000001300000013000000
#01617:0000000000000013
#01712:13000000000000001300130000000013
#01716:0000130000001313
#0171b:00000000130000000000001300130013
#01717:13000000000000000013000000000000
#01710:41
#01917:0013130000131300
#0191b:1300001313000000
#01916:00000000000000130000000000000000
#01912:00000013000000000000001300000000
#0181b:0000001300000013
#01816:00000000000013000000000000000013
#01812:00131300000000000000000000000000
#01817:0013000000000000
#02012:0000130000130000
#0201b:0000000000000013
#02017:0000230000130000
#02019:00000013
#02014:00000013
#02016:0000000000000013
#02116:0000130000000013
#02112:13000000000000000013001300000000
#02117:1300000013130000
#0211b:00000000130000000000000013000013
#0221b:00131300000000000000000013000000
#02212:0000000013130000
#02217:00000000000000000013000000000000
#02216:00001300000000000000000013000013
#02316:00001300000000130000000000000000
#0231b:0013000013000000
#0231b:0013000000000000
#02318:00000000000000000000001300130000
#02312:00000000131300000000000013001300
#02319:00000000000000000000000000000014
#02317:00000000131300000000000000000000
#02413:00140000000000000000000000000000
#02412:00000000000000230000000000130013
#02415:0000131300130000
#02418:00000013001300130000000023002300
#0241b:00000000000000000023000000000000
#02515:0013000000000000
#02518:26000013000000000000000013001300
#02512:00000000001300000000000000130013
#0251b:00000000000000130000000000000000
#02516:0013
#02510:41
#02615:0013000000001313
#02618:16000013000000000000000000000000
#02612:00000000001300130000000000000000
#02617:0013
#0261b:00000000000013000000000000130013
#02719:00001300000000000000001400000000
#02717:00000000001300001400000000000000
#02712:00000000000013130000000000000000
#02714:0000000000130000
#02716:00000000000000000000000000130000
#0271b:00000000000000000000000000001313
#02715:14
#02713:00000014000000000000000000000000
#02812:13000000000000000013000000000000
#02818:00130000000000000000130000000000
#02815:00001300000000130000000013001300
#0281b:00000013000013000013000000130013
#0291a:0013000000000000
#02916:00000013000000000000000000000000
#02915:00000000001300000000000013001300
#02914:00000000000000130000000000000000
#02917:0013
#0291b:00000000000000000000000000130013
#02919:00130000
#02918:0000001300000000
#02912:26
#03012:1613000000000000
#0301b:00000000001300130000000000000000
#03016:0000001313000000
#03015:0000000000000013
#03018:00000000000000000000000013000013
#03017:00130013000000000000000000000000
#03116:00000014140000000000001414000000
#0311b:13
#03214:00000000000000140000000000001200
#03217:0000000000130000
#03216:2424000000001200
#0321a:00240024000000001400000000000000
#03212:00000014001400000000000000000000
#03218:00000000001400000000000000000000
#03316:00120000
#03312:2200000000000012
#0331f:11
#0331b:00330033
#03416:0012001200000000
#03414:12120000
#03412:0000000000000013
#0341b:00330033
#03518:0012000000121200
#0351a:0000120000000012
#0351c:0000001200000000
#03512:00330033
#0361c:1200001200000012
#0361a:00001212
#03618:0000000000120000
#03612:00330033
#03716:00120000
#03714:0000000000000012
#03712:23
#0371b:00330033
#0381c:0012001200000012
#0381a:00120000
#03812:00330033
#03912:23000013000000000000000000000000
#03914:00000000000000130000000000000000
#03916:14
#03918:00140000
#04117:1300000013000013
#0411b:0013001300001300
#04112:2400130000000013
#04116:0000001300001300
#0411f:21
#04212:0000001300002400
#04219:0000000000000013
#04217:0000001300001300
#04216:0000000000130000
#04214:0000000000000013
#0421a:0000000000240000
#0441a:00001424
#04416:0015000000240014
#04412:14
#04419:25
#04418:00260000
#04515:00130000
#04512:0000001300000013
#04518:0013
#04517:0000000000000013
#0451b:00000013230000000000000000000000
#0451a:24
#04516:00000023
#04612:0000231300000013
#04616:0013000000000000
#04617:0000001300000013
#0461a:0000000000242400
#04017:1300000000130000
#04014:00000013
#0401b:00003333333300001300000000000000
#04012:1300000000130000
#04016:00003333333300000000000000001400
#0481b:1300001300000000
#04815:0000001300002300
#04817:0013000013000013
#04812:00000000230000000013000000001300
#0481a:0000000000242400
#04816:23
#05316:1400000014000014
#05314:00000014000000000000140000000000
#05312:00001414
#0531a:14000024
#05318:00240000
#05310:41
#05418:0014001400000000
#05416:1400000014000013
#0541a:00000000140000341400000000000000
#0541b:0000000000000013
#05414:00240000
#05412:0000000000242400
#05518:0013001300001300
#05512:00001323
#05515:0000130000130013
#0551b:0000230013000013
#05618:1300001313000014
#05615:00000000000000130013000000000000
#0561b:00230000
#05612:00000023
#05718:0014001600000026
#05712:00160016
#05716:0016
#05714:0000000000160000
#06618:0000131300130000
#06615:00000000001300000013001300000000
#0661c:00000012
#06612:000033003300000000230000000000000000000000230000000000000000000000000000000000000000160000000000
#06616:23
#0661b:23002300000000230000000000000000
#06215:0013130000000013
#06212:00000000000013000013130023000000
#0621b:00131300000000130000000023000000
#06218:00000000001300000000000000000013
#06216:0000000000240000
#06117:00000000130000000000000000000013
#06116:00000000000000001400001400130000
#0611b:00000000000000000000000000130000
#06112:13000000140000000000000000000013
#0611a:14
#06015:00000000001300000000130000000013
#06018:00001300000013000013000000001300
#0601b:13000000130000130000001300130000
#06012:00130013000000130000000013000000
#05915:00000000000000000000000000130013
#05918:0000000000000013
#05916:00000000130000001400001400000000
#0591a:00140000
#05910:41
#0471b:1323
#04714:0013001300000000
#04712:00130023
#04719:0000000000130013
#04716:2313
#04717:00230013
#04314:0013000000000000
#04312:23131414
#04315:0000001300140000
#04316:0000000000002414
#0431b:23
#04317:00230000
#0431a:0024
#04310:41
#04916:1300000013000013
#04912:0013001300001300
#0491b:0000130000000013
#04917:0000001300001300
#0491a:24
#05119:0013000000000000
#0511b:23130000
#05118:0000001300000000
#0511a:00001414
#05117:0000000000140000
#05116:0000230000002414
#05112:2324
#0521a:14
#05215:0015000000000000
#05216:0000001400240014
#05212:25261424
#05816:0000000000000000000000000000000000000000000000000000000000140000000000000000000000000000000000000000000000000000000000000000000000000000000000000000000000000000000000000000000000000000000000000000000000000000000000000000000000000000000000000000000000000000
#05818:00140000
#05812:0024
#06517:00000000000000000000000000130000
#06512:14000000000000000000000000130000
#06516:00000000130000001400001400000023
#0651a:00140000
#0651b:13000000000000000000000000000013
#06418:00000000001300000000130000000013
#06415:00000000000013000013000000001300
#06412:130000000000000033003300000000000000000000130000000000000000000000130000000000130000000000000000
#0641b:00130000130000130000000013000000
#06318:00000000000000000000000000130013
#06315:0000000000000013
#06316:00000000000000001400001400000000
#06317:00130000
#06312:24140000
#0631a:24
#0501b:0000001300000000
#05016:0000001300001300
#05017:0000000000130000
#05014:0000000000000013
#05019:0000000000000013
#05012:0000000000240000
#0501a:00000024
#0015b:00230000000000000000000000000000
#00257:00230000000000000000000000000000
#00352:0000000000000063
#00452:00000000000000000000000000000063
#00454:0053000000000000
#00456:000000000023000000000000000000000000000000000000000000000000000000000000000000000000000000000000
#00552:00000000000000000000000000000013
#00652:0000001300000000
#00952:00630000000000000000000000000013
#00956:0063
#01157:0053
#0115b:00000000000000000000000000000013
#01352:14
#01357:0053
#0135b:00000000000000000000000000000013
#0135a:0014000000000000
#01055:00000013000000000000000000000000
#0105b:00000000001300006300000063000000
#01058:00130000000000000000000000000000
#01056:0063
#01556:0063
#01552:00000000000000000000000000000013
#0165b:00130000000000001300000013000000
#01652:00000013000000000000000000000000
#01852:0063000000000000
#01856:0000002300000000
#01857:0063000000000000
#0185b:0000002300000000
#0175b:00530000
#01757:53
#02056:00000000000000130000000000000000
#02052:00530000
#02057:00530000
#0205b:00000000000000130000000000000000
#02156:00530000
#02152:53
#02256:00006300000000000000000000000013
#0225b:00006300000000000000000000000013
#02359:00000000000000000000000000000044
#02453:00340000000000000000000000000000
#02455:0000000000630000
#02556:0063
#02558:16
#02657:0063
#02658:16
#02957:0053
#02952:16
#03052:16
#03056:0053
#03257:0000000000230000
#03259:00000045
#0325a:0054
#04157:5300000000000023
#0415b:0023000000006300
#04152:34533300
#04156:0000002300000000
#04252:0000005300000000
#0425b:43
#04257:0000006300000000
#0455a:14
#04555:13530000
#04552:0000002300000000
#04558:0063
#04557:0000000000000063
#0465b:0013000000000000
#04656:0000000000430000
#04652:0000002300000000
#0365c:62
#0355c:0000001200000000
#04057:5300000000230000
#0405b:0063
#04052:63
#04059:00000045
#04056:0000000000000024
#0485b:5300001300000000
#04855:0000005300001300
#04857:0023000000000000
#04852:00000000000000000023000000000000
#05356:0000000044000024
#05352:00005464
#0535a:44000044
#05354:0000000000240000
#05358:00440000
#05456:0000000034000053
#05452:34000034
#0545a:00546400
#05458:0000002400000000
#0545b:0000000000000013
#05454:00340000
#05758:0000000000000066
#05952:14
#05956:0014
#0595a:14140000
#05555:0000000000000063
#0665c:00000022
#06652:0000000000000056
#03352:12
#03752:13
#03956:14
#03958:00140000
#03952:13
#02755:34
#02753:00000034000000000000000000000000
#02757:0044
#02759:00000000000000000000004400000000
#00854:13
#00858:00000000000000000000000000000016
#0635a:14
#06352:14140000
#06356:0014
#06156:0014
#06152:00140000
#0615a:14
#04352:53636464
#04354:0023000000000000
#04355:0000002300240000
#04356:0000000000004424
#0435a:0044
#04357:00430000
#0435b:43
#04452:64360000
#04456:0025000000000000
#04458:00460000
#04459:45
#04956:6300000000000023
#04952:0023000000005300
#0495b:00634300
#04957:0000002300000000
#0495a:44
#05159:0023000000000000
#0515b:63530000
#05158:0000002300000000
#0515a:00005454
#05157:0000000000240000
#05156:0000330000003424
#05152:3334
#0525a:54
#05255:0025000000000000
#05252:35360000
#05258:00460000
#05052:33
#0505b:0000006300000000
#05056:0000005300000000
#05856:0000000000000000000000000000000000000000000000000000000000240000000000000000000000000000000000000000000000000000000000000000000000000000000000000000000000000000000000000000000000000000000000000000000000000000000000000000000000000000000000000000000000000000
#05858:00640000
#04752:00000013
#04757:00130000
#01457:0053
#01452:00000000001300005300000053000000
#01458:00000013000000000000000000000000
#01455:00130000000000000000000000000000
#01252:00130000000000001300000013000000
#0125b:00000013000000000000000000000000
#03152:00000014000000000000000000000000
#0315a:00000000000000000000001400000000
#06556:0014
#0655a:00140000
#06552:14
#0003b0:00000000000000000000000000000013
#0013b0:00530000000000000000000000000000
#001370:00230000
#001370:00000000000000000000000000000013
#002370:00530000000000000000000000000000
#0023b0:00230000
#003320:0000000000000013
#004360:530000000053000000000000000000000000000000000000000000000000000000000000000000000000000000000000
#004340:0033000000000000
#004320:000000000000005300000000230000000000000000000000000000000000000000000000000000000000000000000000
#004320:00000000000000000000000000000013
#005360:00230000
#007340:0000000000000013
#008340:23
#009320:00130000000000000000000000000000
#009360:00230000
#009360:0013
#009320:0000000000230000
#0103b0:0013
#010370:0000000000230000
#010361:0013
#010321:0000000000230000
#0103b1:00000013
#010371:0000000000000023
#011321:1323000000000000
#011370:0013230000000000
#011370:0013
#0113b0:0000000000230000
#013370:0013
#0133b0:0000000000230000
#014320:0013
#014360:0000000000230000
#014371:0013
#0143b1:0000000000230000
#014321:00000013
#014361:0000000000000023
#0153b1:1323000000000000
#015360:0013230000000000
#015360:0013
#015320:0000000000230000
#017370:1323
#0173b0:00330000
#018320:0013000000230000
#018360:0000005300000000
#018371:0013000000230000
#0183b1:0000005300000000
#019361:0000000000000013
#020321:23
#020370:13
#0203b0:0023000000000000
#020361:00001300000000230000000000000000
#020321:00330000
#020370:00130000
#0203b0:00000000000000230000000000000000
#021320:1323
#021360:00000033330000000000000000000000
#0223b0:0013000000000000
#022370:0000002300000000
#022361:0013000000000000
#022321:0000002300000000
#0223b1:00000000000000000000000000130023
#023361:00000000000000000013000000000000
#023321:00000000000000000000002300000000
#024351:0000000000130000
#024321:00000023
#025361:0013
#025321:00000023
#026371:0013
#0263b1:00000023
#028321:0000132300000000
#029371:0013
#0293b1:00000023
#030361:0013
#030321:00000023
#031321:14000024000000000000000000000000
#031321:0000001424000000
#0313a0:00000000000000001400002400000000
#0313a0:0000000000000014
#0323a0:24
#0323a0:0014
#032370:0000000000530000
#032390:00000025
#033380:13
#0333b0:00330033
#0343b0:00330033
#0353b0:23
#033321:00000000000000001200002200000000
#034321:00000000000000001200002200000000
#035351:13
#035321:00330033
#036321:00330033
#037321:23
#0363c0:12
#036380:0022000000000000
#037380:13
#0373b0:00330033
#0383b0:23
#037321:00000000000000001200002200000000
#038351:13
#038321:00330033
#039321:23
#038380:00000000000000001200002200000000
#0393a1:0000000014240000
#039360:0000000000130000
#039320:00000023
#0393a1:0000000000001424
#039360:0000000000000013
#040320:33
#040360:00003333333300002300000000000000
#040371:1300000000530000
#0403b1:00003333333300003300000000000000
#040391:00000025
#040361:0000000000000014
#041321:24
#041370:13230000
#0413b0:0053000000000000
#041321:00132300
#041361:0000005300000000
#0413b1:00000013
#041371:0000000000000053
#0423b1:23
#042360:1323000000000000
#0423b1:0013230000000000
#042320:0000133300000000
#042360:0023
#042371:0000001300000000
#0423b1:0023
#043321:13333434
#043341:0053000000000000
#043351:0000005300540000
#043361:0000000000000054
#044321:34260000
#044361:0055000000000000
#044351:00001333
#044321:0000000000330033
#045351:23
#045351:00132300
#045321:0000005300000000
#045380:0013
#0453b0:00000023
#045370:0000000000000013
#0463b0:0023000000000000
#046320:0000001300000000
#046360:0000000000230000
#0483b0:13230000
#048370:0053000000000000
#048350:0000001300002300
#048320:00000000000000000053000000000000
#049360:13230000
#049320:0053000000000000
#0493b1:00132300
#049371:0000005300000000
#049321:00000013
#049361:0000000000000053
#050321:23
#050370:1323000000000000
#050321:0013230000000000
#0503b0:0000133300000000
#050370:0023
#050361:0000001300000000
#050321:0023
#0513b1:13330000
#051391:0053000000000000
#051381:0000005300000000
#0513a1:00003434
#051371:0000000000540000
#051361:0000000000000054
#0523a1:34
#052351:0055000000000000
#052381:00260000
#052381:00001333
#0523b1:0000000000330023
#053321:00001434
#053341:0000000000540000
#053361:0000000000000054
#054321:24
#0543a1:00000000140000343400000000000000
#054381:0000005400000000
#054361:00000024
#054361:0000000000000013
#055321:0023000000000000
#055351:0000000000000013
#056321:0000002300000000
#0563b1:0000000000132300
#056341:0000000000000014
#057341:0024000000000000
#057381:0000000000000016
#058361:000000000000000000000000000000005400000000000000000000000000000000000000000000000000000000000000000000000000000000000000000000000000000000000000000000000000000000000000000000540000000000000000000000000000000000000000000000000000000000000000000000000000000000000000000000000000000000000000000000000000000000000000000000000000000000000000000000000000000000000000000000000000000000000000000000000000000000000000000000000000000000000000000000000000000000000000000000000000000000000000000000000000000000000000000000000000000000000000000000000000000000000000000000000000000000000000000000000000000000000000000000000000000000000000000000000000000000000000000000000000000000000000000000000000000000000000000000000000000000000000000000000000000000000000000000000000000000000000
#058381:0000000000000000340000000000000000550055005500550055005500550055
#0583a1:0000000000000000000000000000000000000000000000000000000000000000000000540000000000000000000000000000000000000000000000000000000034000000000000003400000000000000340000000000000034000000000000003400000000000000340000000000000034000000000000003400000000000000
#0593a1:24
#058320:00000000000000001434343434343434
#058330:0000000000000000000000000000000000550055005500550055005500550055
#059320:24
#059320:00000000000000132300000000000000
#0593b0:00000000000000000000132300000000
#0613b0:00000000000000132300000000000000
#061320:00000000000000000000132300000000
#0633b0:00000000000000132300000000000000
#063320:00000000000000000000132300000000
#064360:0013000000000000
#064320:000000003333230000000000000000000000000000000000
#065320:00000000000000132300000000000000
#0653b0:00000000000000000000132300000000
#066360:13
#066320:003333230000000000000000000000000000000000000000
#0663c0:00000012
#066380:0000000000000026
#066321:0000000000000016
#067321:0022000000000000
