This file was generated by Ched 2.7.0.0.
#TITLE ""
#ARTIST ""
#DESIGNER ""
#DIFFICULTY 0
#PLAYLEVEL
#SONGID ""
#WAVE ""
#WAVEOFFSET 0
#JACKET ""
#REQUEST "ticks_per_beat 480"
#00002: 4
#BPM01: 145
#00008: 01
#TIL00: ""
#VOLUME: ""
#HISPEED 00
#MEASUREHS 00
#00115:0013
#0011b:00000000000000000013000000000000
#00112:00000000000000000000001300000000
#00118:00000000000013000000000000130000
#00212:00000013
#00218:0013
#00215:0000001300130000
#0021b:0000000000000013
#00318:13130000
#00315:0013001300001300
#0031b:0000000000130013
#00312:0013
#00715:00130000001300000000001300001300
#00718:00000013000013000013000000130000
#0071b:23
#00712:0023
#0081b:13
#0081a:00000000000000000000000000240014
#00818:0000000024240000
#00814:00000000000000000024000000000000
#00812:0000000000002424
#00915:00140000000000001300000000000000
#00912:00000013
#0091a:00140000000000000000000000000000
#00918:0000000000130000
#00910:41
#01715:13
#0171b:13000000000000000000000000003313
#01712:0000000013130000
#01718:00000000000000000013001300000000
#01719:00000033
#0171a:00000000000000000000000000330000
#01710:41
#02018:13130000
#02012:0000000000140000
#02016:00000014
#0201a:0000000000000014
#0201b:0013000000000000
#02118:13000000000000000013001300000000
#02112:13000013
#02115:00000033000000001300130000003313
#0211b:00000033000000000000000000000000
#0231b:00000000000000130000000000000013
#02312:00000000330000000013000000000000
#02318:00000000000000000000001300130000
#02315:0013000000001313
#02412:00130000000000000000130000000000
#02415:00000000000000000000000000130013
#02418:0000000000002323
#02518:0000000000001313
#02515:00001300000000000000000000130013
#02512:00000033331300330000000000000000
#0251b:23
#02510:41
#0261b:13
#02615:00000033001333330000000000130013
#02618:0000000000001313
#02612:0013000000000000
#02815:0000001300001313
#02818:00000000000000130000000000130013
#0281b:00000000000000000013000000000000
#02812:00000000000000000013000000000000
#02819:00330033000000000000000000000000
#02915:0000000000001313
#02918:00001300000000000000000000130013
#0291b:00000033331300330000000000000000
#02912:23
#03012:13
#03018:00000033001333330000000000000013
#0301b:0013000000000000
#03015:0000000000000013
#03218:2424000013000000
#03212:00000000001400000000000000000000
#0321a:00000000001400000000000000000000
#03215:00000000000000130000000000000000
#03214:00240024000000000000000000000000
#03316:00130013
#0331f:11
#03312:24
#03918:00000013000000130000000000000000
#03912:00130000
#03915:00001313
#0391b:0000000000130013
#0451b:00130000
#04518:0000001300000000
#04515:23130013
#04512:0000001300000000
#05318:0013
#0531b:13
#05312:00000023
#05315:00230000
#05310:41
#0551b:0000001300000013
#05512:0013
#05515:0000130000130013
#05518:00001313
#06212:1313
#06218:13131300
#0621b:0000001300232300
#06215:0013000000232300
#03112:0000000000000014
#0311a:0000001400000000
#02215:00000013
#0221b:0000000000130000
#02212:00331300000000000000000000000013
#02218:00000000000000000000000000130000
#0631a:24140000
#06312:2400140000000013
#06318:0000000013130000
#06315:00000000000000000013001300000000
#0631b:00000000000000000000000000130013
#06512:14000000140000000000000000130013
#0651a:14140000
#06515:0000000013130000
#06518:00000000000000000013001300000000
#0651b:0000000000000013
#0001b:00000000000000000000000000130000
#00012:00000000000000000000001300000000
#00018:00000000000000000013000000000000
#00015:0013
#00518:00000000000000001300000000000013
#00515:00000000000013000013000000000000
#0051b:00000000000000000000001300000000
#00512:00000000000000000000000000130000
#00618:00130013
#00615:0013000000130000
#00612:0000000000000013
#0061b:0000001300000000
#00412:00000000000000000000000000130000
#0041b:00000000000000000000001300000000
#00415:00000000000000000013000000000000
#00418:0013
#01018:1300000000130000
#0101b:0000130000000013
#01012:0013
#01015:0013000000001300
#01818:00331300000000000000000000000000
#01813:00000000000000000000000000000033
#01912:0000000000000013
#0191a:00000033000000000000000000000000
#01919:00000000000000000000003300000000
#01914:00000000000000330000000000000000
#03412:00130013
#03517:00130013
#0361b:00130013
#03712:00130000
#03716:00000013
#0381b:00130000
#03817:00000013
#04015:1300000000131300
#04018:0000000013000013
#04012:0013
#0401b:00000013
#04115:0000130013000013
#0411b:00131300
#04118:2300001300001300
#04112:23000013
#0411f:21
#04218:1300001300000013
#04212:13
#0421b:0013000000000000
#04215:00130013
#04618:00000013
#04615:0000000000000013
#0461b:0000000000130000
#04612:0013000000000000
#04718:13230000
#0471b:0013001323001300
#04712:2300130000130013
#04715:00001323
#04818:1300000000000013
#04815:0013000000000000
#0481b:00130000
#04812:0000001300000000
#04816:00000000000000000013000000000000
#04918:0000130013000013
#04912:00131300
#04915:2300001300001300
#0491b:23000013
#05015:1300001300000013
#0501b:13
#05012:0013000000000000
#05018:00130013
#0521b:0013
#05218:0000000000130000
#05215:0000001300001300
#05212:2400000000000013
#0541b:1313
#05412:0000001300001300
#05418:0000230000000013
#05415:0013000000000000
#05612:00000013
#05715:0000130000130000
#0571b:0000001300000000
#05718:0013
#05712:00000013
#0571a:0000000000000024
#0591a:00140000
#05912:00140013
#0591b:0013
#05915:0000000013000013
#05918:0000000000131300
#05910:41
#06015:13131300
#0601b:1313
#06012:0000001300001300
#06018:0013000000131300
#06112:14141300
#0611a:14140000
#06118:0000000013000013
#06115:0000000000131300
#0611b:00000013
#0641b:00131300
#06412:13000013
#06416:000000333333000000000000000000000000000000000000
#06417:00000000000000000033330000000000
#06615:0023131300000000
#06618:00000023001300000000000000001300
#0661b:23000000000000230000000013000000
#01115:1300000000130000
#01118:0013000013000000
#01112:00130000
#0111b:00000013
#01215:1300000000130000
#01218:0013000013000000
#01212:0000130000000013
#0121b:00000013
#01315:0013000000001300
#01318:0000130000130000
#01312:0013
#0131b:23
#01415:0013000000001300
#01418:0000130000130000
#0141b:1300000000000013
#01412:0013
#01518:0013000000001300
#01515:0000130000130000
#01512:13
#0151b:0013
#01618:0013000000001300
#01615:0000130000130000
#01612:1300000000000013
#0161b:0013
#0271b:00130000
#02712:00000013
#02718:13003333003333330000000000000000
#02715:00000000000000001300333300333333
#04415:00001313
#04418:0000000000130013
#0441a:24
#05812:0024
#04312:24
#04314:00240000
#04316:0024
#04318:00000024
#04310:41
#0511a:24
#05118:00240000
#05116:0024
#05114:00000024
#00955:00640000000000000000000000000000
#0095a:00640000000000000000000000000000
#02058:53530000
#0205b:00005300000000130000000000000000
#02158:53
#02152:53000053
#02155:00000000000000000000000000000053
#0235b:00000000000000000000000000000043
#02355:0063000000000000
#02452:00330000000000000000000000000000
#0255b:13
#02555:0063000000000000
#02552:00000000002300000000000000000000
#0265b:13
#02655:00000000002300000000000000000000
#02652:0053000000000000
#03052:13
#03058:00000000002300000000000000000000
#0305b:0063000000000000
#02952:13
#0295b:00000000002300000000000000000000
#02958:0053000000000000
#03258:00002313
#0455b:00530000
#04558:0000002300000000
#04555:13530000
#04552:0000002300000000
#05952:14140000
#0595a:14140000
#0555b:0000000000000063
#05555:0000000000000063
#03952:14130000
#0635a:14140000
#06352:14140000
#00558:00000000000000000000000000000013
#0065b:0000001300000000
#0085b:13
#01758:00000000000000000000005300000000
#01755:23
#0175b:23000000000000000000000000000063
#01858:0063000000000000
#0035b:0000000000000053
#04055:63
#04152:13
#04158:13
#04258:0000006300000000
#04352:14
#04354:00140000
#04356:0014
#04358:00000014
#0445a:14
#04852:0000006300000000
#04856:00000000000000000023000000000000
#05055:0000005300000000
#0495b:13
#04955:13
#0515a:14
#05158:00140000
#05156:0014
#05154:00000014
#05252:14
#05458:0000130000000063
#0545b:1313
#05358:0013
#05355:00130000
#05352:00000013
#0535b:13
#06152:14140000
#0615a:14140000
#06452:63
#0645b:0053
#0655a:14140000
#06552:14140000
#01152:00130000
#0115b:00000013
#01252:00130000
#0125b:00000013
#01555:00130000
#01558:00000013
#01655:00130000
#01658:00000013
#02252:00005300000000000000000000000063
#0275b:00230000
#02752:00000023
#02758:63
#02755:0063
#03152:00000014000000000000000000000000
#0315a:00000000000000000000001400000000
#0665b:00000063
#06658:0000000000000063
#000350:00000000000000000000000000000013
#001320:00230000
#0003b1:00000000000000000000000000000013
#001381:00230000
#001381:00000000000000000000000000000013
#0023b1:00230000
#001320:00000000000000000000000000000013
#002350:00230000
#0033b0:0000000000000013
#004380:0023000000000000
#004380:00000000000000000000000000000013
#0053b0:00230000
#004321:00000000000000000000000000000013
#005351:00230000
#009351:00140000000000000000000000000000
#009321:00240000
#0093a0:00140000000000000000000000000000
#009370:00240000
#017350:13
#017320:00230000
#0173b1:13
#017381:00230000
#017381:00000000000000000000001300000000
#017391:00000033
#0173a1:00000000000000000000000000330000
#0173b1:00000000000000000000000000003333
#018381:00333300000000000000000000000000
#0183b1:00000023
#018351:0000000000000013
#018331:00000000000000000000000000000033
#019321:23
#019381:0013000000000000
#0193a1:00000033000000000000000000000000
#0193b1:00230000
#019321:0000001300000000
#019341:00000000000000330000000000000000
#019351:0023
#0193b1:0000000000130000
#019391:00000000000000000000003300000000
#019381:00000023
#020381:13330000
#0203b1:00003300000000230000000000000000
#021381:13
#0213b1:00000033230000000000000000000000
#021320:13
#021350:00000033230000000000000000000000
#021320:00000013
#021350:00000000000000000000000000003333
#022320:00333300000000000000000000000000
#022350:0000002300000000
#022320:00000000000000000000000000000013
#023350:0033000000000000
#023320:00000000332300000000000000000000
#025350:0013000023000000
#025320:00000033333300330000000000000000
#026320:0013000023000000
#026350:00000033003333330000000000000000
#027380:13003333003333332300000000000000
#0273b0:00530000
#027351:00000000000000001300333300333333
#027321:00000053
#028351:23
#028380:13230000
#028390:00330033000000000000000000000000
#0283b0:0033000000000000
#029380:0013000023000000
#0293b0:00000033333300330000000000000000
#0303b0:0013000023000000
#030380:00000033003333330000000000000000
#031320:14000024000000000000000000000000
#0313a0:00000000000000001400002400000000
#032380:0000000013332300
#0333a0:14000000340000003400003454000000
#033380:0000000000000034
#034360:34003400340034003400003400003400
#035360:24
#035321:1434343400343400
#035341:0000000000000034
#036361:3434003434343400
#036341:0000000000000034
#037321:24
#037360:14340000
#0373a0:00000000000000003400003400003400
#0383a0:24
#038361:1434340000000000
#038341:0000003400000000
#038321:00000000000000003400003400003400
#039321:24
#040351:13
#040321:00230000
#042381:0000001300000000
#0423b1:0000000000230000
#0453b1:00132300
#045381:0000005300000000
#045350:00132300
#045320:0000005300000000
#045380:0000000000000013
#046380:0023000000000000
#046350:0000001300230000
#048320:0000001300002300
#048360:00000000000000000053000000000000
#050350:0000001300000000
#050320:0000000000230000
#054380:0000000000000013
#0553b0:0023000000000000
#0553b0:0000000000000013
#056380:0023
#055351:0000000000000013
#056321:0023
#056381:0000000000000013
#057381:0023000000000000
#0573a1:0000000000000014
#0583a1:0000340034343434
#058391:00000000000000000034003400340034
#0593a1:24
#058320:0000000014343434
#058330:00000000000000000034003400340034
#059320:24
#064320:13
#064360:000000333333230000000000000000000000000000000000
#0643b0:0013
#064370:00000000000000000033330023000000
#0663b0:00000000000000130033333333000000
#066380:0000000000000033
#0673b0:0023000000000000
