This file was generated by Ched 2.7.0.0.
#TITLE ""
#ARTIST ""
#DESIGNER ""
#DIFFICULTY 0
#PLAYLEVEL
#SONGID ""
#WAVE ""
#WAVEOFFSET 0
#JACKET ""
#REQUEST "ticks_per_beat 480"
#00002: 4
#BPM01: 145
#00008: 01
#TIL00: ""
#VOLUME: ""
#HISPEED 00
#MEASUREHS 00
#0011a:14
#00114:0014
#0021a:14
#00214:0014
#00318:14
#00312:0014
#0051a:14
#00514:0014
#00618:14
#00612:0014
#0071a:14
#00714:0014
#00818:14
#00812:0014
#01118:1414
#01112:00140000
#0171a:14
#01714:0014
#01710:41
#0211a:14
#02114:0014
#0251a:14
#02514:0014
#02510:41
#02618:1414
#02712:14
#02718:0014
#02814:1414
#0291a:14
#02912:0014
#04118:00140014
#04112:2414
#0411f:21
#0461a:1414
#04614:00140014
#0491a:2414
#04914:00140014
#05018:1414
#05012:00140014
#05914:00140000
#05918:0014
#0591a:24
#05910:41
#06218:0014
#06212:14
#00418:14
#00412:0014
#00914:00140000
#0091a:2414
#00910:41
#01214:14
#0121a:0014
#01514:1414
#0151a:00140000
#01318:00140000
#01312:2414
#01618:14
#01612:0014
#01912:14
#01918:0014
#02312:14
#02318:0014
#03014:0014
#03018:14
#04214:1414
#0421a:00140014
#04312:14
#04314:00140000
#04316:0014
#04318:00000014
#04310:41
#04512:00140014
#04518:0014
#0511a:14
#05118:00140000
#05116:0014
#05114:00000014
#05512:14
#05518:00140000
#05514:0014
#0551a:00000014
#05612:14
#05618:00140000
#05614:0014
#0561a:00000014
#06118:14
#06114:00140000
#0611a:0014
#06318:00140000
#06314:0014
#06312:24
#06514:14
#06518:00140000
#06512:0014
#03212:14340000
#0311a:14340000
#05712:0000000000000014
#0331f:11
#0331a:00340034
#0391a:24
#03912:0024
#04018:24
#05814:0024
#0341a:00340000
#0351a:00340034
#0361a:00340000
#03712:00340034
#03812:00340000
#05310:41
#01054:0014
#01458:0014
#01652:0014
#0125a:0014
#03254:0014
#03252:54
#03158:0014
#0315a:54
#05854:0014
#06052:0014
#06258:0014
#0645a:0014
#04058:54
#05752:0000000000000064
#0255a:14
#02752:14
#0295a:14
#04152:14
#0495a:14
#010340:1424
#014380:1424
#0183a0:1424
#020320:1424
#022380:1424
#024340:1424
#0313a0:14340000
#031380:0024
#032320:14340000
#032340:0024
#0333a0:14340034
#0343a0:00340000
#034380:00000034
#0353a0:00340034
#0363a0:00340024
#037320:14340034
#038320:00340000
#038340:00000024
#040380:14
#0403a0:0024
#0443a0:1400000034343434
#0453a0:24
#0473a0:14342400
#048320:14342400
#052320:1400003434342400
#0533a0:14
#053390:00340000
#053380:00003434
#054380:34
#054390:00340000
#0543a0:0024
#057320:1400000000000034
#058340:0024
#060320:1424
#0643a0:1424
#0663a0:14
#066380:00000000000000340000000000000000
#067380:0024000000000000
