This file was generated by Ched 2.7.0.0.
#TITLE ""
#ARTIST ""
#DESIGNER ""
#DIFFICULTY 0
#PLAYLEVEL
#SONGID ""
#WAVE ""
#WAVEOFFSET 0
#JACKET ""
#REQUEST "ticks_per_beat 480"
#00002: 4
#BPM01: 145
#00008: 01
#TIL00: "0'0:1"
#VOLUME: ""
#HISPEED 00
#MEASUREHS 00
#00914:00000014
#0101a:00000014
#01112:00000014
#01218:00000014
#01210:00000041
#01314:00000014
#01614:00000014
#01718:00000014
#02912:00160000
#03012:00000016
#03112:00160000
#03118:00000016
#03218:00160000
#03212:00000026
#03318:00160000
#03418:00000016
#03518:00160000
#03512:00000016
#03612:00160000
#03618:00000026
#03610:00000041
#03712:00160000
#03812:00000016
#03912:00160000
#03918:00000016
#04018:00160000
#04012:00000026
#04118:00160000
#04218:00000016
#04318:00160000
#04312:00000016
#04412:00160016
#04518:00000014
#04614:00000014
#0471a:00000014
#04812:00000014
#04810:00000041
#04918:00000014
#05014:00000014
#0511a:00000014
#06114:00000014
#0621a:00000014
#06312:00000014
#06818:00000016
#06918:00160000
#06912:26000016
#0691f:21
#06910:00000041
#07018:00160000
#07012:00000016
#07118:16000016
#07112:00160000
#07218:00160000
#07212:00000026
#07312:00160000
#07318:16000016
#07412:00160000
#07418:00000016
#07518:00160000
#07512:16
#07718:00160000
#07712:00000026
#0601f:00000011
#02818:00000026
#07818:00260000
#0041a:003400000000000000000000
#0031a:003400000000000000000000
#0021a:003400000000000000000000
#0011a:003400000000000000000000
#02410:00000041
#05810:00000041
#0003a0:001400000000000000000000
#0013a0:003400000000000000000000
#0023a0:003400000000000000000000
#0033a0:003400000000000000000000
#0043a0:003400000000000000000000
#006380:003400000000000000000000
#008380:00003424
#0143a0:00000014
#0153a0:00000024
#018320:00000014
#019320:00000024
#0203a0:00000014
#0213a0:00000024
#022340:00000014
#023340:00000024
#024380:00000014
#025380:00000024
#026320:00000014
#027320:00000024
#029380:00000016
#030380:00260000
#033320:00000016
#034320:00260000
#037380:00000016
#038380:00260000
#041320:00000016
#042320:00260000
#052320:00000014
#053330:00340000
#053340:00000034
#054330:00340000
#054320:00000034
#055330:00340000
#055340:00000024
#0563a0:00000014
#057390:00340000
#057380:00000034
#058390:00340000
#0583a0:00000034
#059390:00340000
#059380:00000034
#060380:00000024
#064380:00000014
#065380:00000024
#066340:00000014
#067340:00000034
#068340:00240000
#075320:00000016
#076320:00360026
#078320:00000014
#079340:00000034
#080320:00000034
#081340:00000024
#0823a0:00000014
#083380:00000034
#0843a0:00000034
#085380:00000000000000000000000034000034
#086380:0024000000000000
#086320:00000016
#092320:24
