This file was generated by Ched 2.7.0.0.
#TITLE ""
#ARTIST ""
#DESIGNER ""
#DIFFICULTY 0
#PLAYLEVEL
#SONGID ""
#WAVE ""
#WAVEOFFSET 0
#JACKET ""
#REQUEST "ticks_per_beat 480"
#00002: 4
#BPM01: 145
#00008: 01
#TIL00: "0'0:1"
#VOLUME: ""
#HISPEED 00
#MEASUREHS 00
#00818:00000013
#00815:00000000000000000000000000130000
#0081b:0000000000000013
#00812:00000000000000000000000000000013
#00918:1300131300001300
#00915:00130000001300130000000000130000
#0091b:0013000013130013
#00912:00000013000000000013001300000013
#01018:1300000000130013
#01015:00130000001300000000000000130000
#0101b:0013130000001300
#01012:00000013000000000000001300000013
#0101a:0000001300000000
#01014:00000000000000130000000000000000
#01019:0013
#01013:00000000000000000013000000000000
#0111b:1300000013131300
#01115:00130000001300130000000000130000
#01118:0013131300000013
#01112:00000013000000000013001300000013
#0121b:13000000003300000033000000000000
#01215:00130000000000330000003300000000
#01218:0013000000001313
#01212:00000013000000000000000000000000
#01210:00000041
#01315:13000013001300000000000000000013
#0131b:13000013
#01318:0013001300000013
#01313:00000000000000000014000000000000
#01312:00000013
#01314:0022
#01319:0024
#01418:13
#01412:0013000013001300
#01417:00000013000000001300000013000000
#0141b:00000000001300000000130000000000
#01416:0000001300130000
#01419:0000000000000013
#0151b:1313000000130000
#01514:00130000
#01512:0000001313000000
#01516:0000000000130000
#01515:0000000000000013
#01518:00000000000000000000000000000013
#0161b:13000000001300000000130000000000
#01612:00001300000000001300000000000013
#01617:00000013000000000000000000001300
#01615:0000001300000000
#01618:00000000000000130000000000000000
#01717:1300001313000000
#01716:0013130000131300
#0171b:00000013000000000000001300000000
#01712:00000000000000130000000000000000
#0181b:1300001313000000
#01817:0013000000130000
#01812:0013130000132300
#01816:0000001300000000
#0191b:13130013
#01912:1313
#01918:00001300000000130000130000000000
#01915:00000013000013000000001300001300
#02018:1300000000130000
#02015:00000000130000000013000000000000
#02012:00001300000000000000001300000000
#0201b:00131313
#02112:1313000000000000
#0211b:0000001313000000
#02117:00000000000000000000001300000000
#02116:0000000000000013
#02217:0013230000001300
#02212:00130013
#02216:0013
#0221b:0013
#02219:0000000000130000
#02214:0000000000130000
#0231b:1313000000001300
#02312:0000001313000000
#02314:0000000000000013
#02412:13000000000013000000001300000000
#02414:0013000000000000
#02416:0000130000002313
#02417:1300001300000000
#0241b:0013
#02415:00000000000000000013000000000000
#02418:0000000000130000
#02410:00000041
#02517:0013231300002313
#02512:00000013001300000000000000000000
#0251b:0013
#02519:0000000000130000
#02514:0000000000130000
#02516:2323
#02616:0013231300002300
#0261b:00000013001300000000000013000000
#02612:0000000013000013
#02614:0000000000130000
#02619:0000000000130000
#02617:2300000023000013
#02712:1300001313000000
#02716:0013000000130000
#0271b:0013130000131300
#02717:0000001300000000
#02818:0013000000130013
#02815:00001300000000000000001300000000
#02812:00000000000000000000000000000013
#0281b:00000023
#02915:0013001300000000
#02918:00000013000000000000000000001300
#0291b:00000000000000130000130000000000
#02912:0000130000130000
#03012:1300001300001300
#03017:1300001300000000
#0301b:0013000013000000
#03016:0013000013000000
#03014:00130000
#03019:00130000
#03015:00000000000000000000130000000013
#03018:00000000000000000000001300001300
#0311b:1300001300000000
#03115:0013000000000000
#03118:00000013000000000000000000000000
#03119:0013
#03117:0000000000130000
#03116:0000002300001313
#03112:0000230000230000
#03114:0023
#03212:1300001300001300
#03218:00130000000000000000000000000000
#03215:0013000000000013
#03217:00000000000000130000000000000000
#03214:0013
#03219:00000000000000000013000000000000
#03216:0000000000130000
#0321b:00000023000000000000001300000013
#03312:00000000000000130000130000000000
#0331b:0000130000130000
#03315:00000013000000000000000000001300
#03318:0013001300000000
#0341b:1300001300001300
#03416:1300001300000000
#03412:0013000013000000
#03417:0013000013000000
#03419:00130000
#03414:00130000
#03418:00000000000000000000130000000013
#03415:00000000000000000000001300001300
#03512:1300001300001300
#03518:0013000000000000
#03515:00000013000000000000000000000000
#0351b:0000130000130000
#03517:0000001300001300
#03514:0013
#03519:0013
#03516:00000000000000000000130000000013
#03617:00001300000000001300000000000013
#03616:00130013
#0361b:00130023
#03610:00000041
#03718:0013000000000000
#03715:00000013000000000000000000000000
#0371b:0000130000130000
#03712:00000000000000130000000000000000
#03717:0000000000000013
#03716:0000000000130000
#0381b:1300000013000013
#03815:00130000000000130000000013000013
#03818:00001300130013000000001300000000
#03812:00000013001300000000130000000000
#03918:13000013000000000000000000000000
#03912:0013000033000013
#0391b:0000002300001300
#03916:00000013
#03917:0000000000230013
#03915:00230000
#03919:0023
#04018:1313000013000000
#04015:00130000000000130000000000000000
#0401b:00000023000013000000000000000000
#04012:00000023000000000013000000000000
#0401a:0000000000130000
#04014:00000000000000000000001300000000
#04016:00000000000000000000000000000013
#04017:00000013
#04115:0013000000000000
#04118:00000013000000000000000000000000
#04112:0000130000130000
#0411b:00000000000000130000000000000000
#04116:0000000000000013
#04117:0000000000130000
#04212:1300000013000013
#04218:00130000000000130000000013000013
#04215:00001300130013000000001300000000
#0421b:00000013001300000000130000000000
#04315:13000013000000000000000000000000
#0431b:0013000013001300
#04318:00130000
#04317:0000001300130000
#04316:00000013
#04417:00130000
#04412:00130000
#04415:0000000000000013
#04418:00000000000000000000000000000013
#04512:13000000000000130000000000001300
#04516:00000013000000000013000000000000
#04519:00000000001300000000000000000000
#04514:00000000001300000000000000000000
#04517:00000000000000130000000000000013
#0451b:00130013000000000013000000000000
#04614:13000000000000130000000000000000
#04619:00130000000000130000000000000000
#04616:00001300000000000013000000000000
#0461b:00000013000000000013000000001300
#04612:00000000001300000000000000000000
#04617:00000000001300000000000000000000
#04615:00000000000000000000000000000013
#04718:13
#04712:00130000001300000013000000000000
#0471b:00000013000000130000000000000013
#04716:00000013000000130000000013001300
#04717:00000000001300000013000000000000
#04812:13000013000000001300000000000000
#04817:00130000000000131300000000000000
#0481b:00000000001300000000001300000000
#04816:00000000000000000000131300000000
#04818:0000000000000013
#04815:00000000000000000000000000000013
#04810:00000041
#0491b:13000000000000330000000000000000
#04912:0013130000130000
#04917:00000013001300000000000000000000
#04916:00000000000000131300000000000000
#04915:0000000000000013
#04918:00000000000000000000000000000013
#05012:13000000000000131300000000001300
#05018:0013000000000000
#05015:00000013000000000000000000000000
#0501b:00000000001300000000130000000000
#05016:0000000000130000
#05017:00000000000000000000000000000013
#05114:13
#05119:00130000000000000000000000000000
#05116:0013000000000000
#0511b:00000013000000131300000000000000
#05112:00000000001300000000130000000000
#05117:0000000000130000
#0521b:0000131300000000
#05216:0000001300000000
#0531b:00000000000000000000000000130013
#05316:0000000000000013
#05412:13130023
#05418:00130000001300000000000000000000
#05415:0013001300000000
#0541b:00000013000000130000000013000000
#05416:000000000000000000000000003333000000000000000000
#05517:13
#05512:00130013
#05516:0000000000000013
#0551b:000000333333000000000000003333333333000000130000
#05617:00130000000000000000000000000000
#05616:00000000000000000000000000140014
#0561a:0000000000002424
#05612:00000023000000000000000000000000
#05712:00140014001400140014001400140000
#05713:00000000000000000000000000000014
#0571a:2424000024240000
#05716:0000242400002400
#05717:0000000000000024
#05814:00140000000000000014000000000000
#05815:00000014000000140000000000000000
#05816:00000000001400000000000024002400
#05812:00000000000000000000001400140014
#05818:2424
#05819:0024002400000000
#0581a:00240000
#05817:0000000000240000
#05810:00000041
#05912:00140014000000000014001400000000
#05916:00000000001400140000000000000000
#0591a:2424242424242400
#06016:00140000
#0601f:00000011
#06117:13000013
#06116:00131300
#0621b:13000013
#06216:00130000
#06212:0013
#06218:00000000000000000000130000000013
#06215:00000000000000000000001300001300
#06312:1300001300000000
#06318:0013000000130013
#06315:00000013000000001300000000000000
#0631b:00130013
#06415:1300000000130000
#0641b:00000013000000000000000000000013
#06418:00000000000000000000001300000000
#06412:00000013
#06512:00001300000000130000130000003300
#06517:0013000000130000
#06516:00130000
#0651b:0000130000000013
#06616:00130000000000000000001300000000
#0661b:1313130000131300
#06619:0000001300000000
#06617:00000000000000001300000000000013
#06612:3333333300000013
#06712:1300001300001313
#0671b:0013130000001313
#06716:00000013000000000000000000000000
#06715:0013
#06718:0000000000130000
#06812:1313131300000000
#0681b:1313131300000000
#06818:0000000013130000
#06815:00000000000000000013001300000000
#06918:0013130000000000
#06915:00000013000000000000000000000000
#06912:24000000130000130000000000000000
#0691b:0000000000130000
#06916:0000000000130000
#0691a:24
#0691f:21
#06910:00000041
#0701b:1300000013000013
#07016:00130000000000000000000000000013
#07019:0013001300000000
#07014:00000013000000130000000000000000
#07017:00000000130000000000001313000000
#07012:00000000001300000000130013000000
#0711b:1300001300001300
#07112:00001300230000000000230000000013
#07117:00000013130000000000130000000000
#07119:0013
#07115:00000000000000000000000000130000
#07118:0000000000000013
#07116:1300002300000000
#07114:0023
#07218:1313000013001300
#07215:00130000000000130000001300000000
#0721b:00000023000013000000130000000000
#07212:00000023000000000013000013000013
#07315:0013130000000000
#07318:00000013000000000000000000000000
#0731b:00000000130000130000000000000000
#07312:0000000000130000
#07317:0000000000130000
#07412:1300000013000013
#07417:00130000000000000000000000000013
#07414:0013001300000000
#07419:00000013000000130000000000000000
#07416:00000000130000000000001313000000
#0741b:00000000001300000000130013000000
#07512:1300001300001300
#0751b:0013130000130000
#07516:00000013130000000000130000000000
#07514:0013
#07517:1300001300001300
#07519:0013
#07616:00000000130000000000001300000000
#0761b:0013130000131300
#07612:0000000000001313
#07617:00000000000000000000000000000013
#07712:13000000001300000013000013000000
#0771b:1313130013001300
#07716:00000013000000000000000000000000
#07718:0000001300130000
#07715:00000000000000130000001300000000
#07818:00130000
#07815:00130000
#07812:00000000000000000000000000000013
#0791b:00001300000013000000000000000013
#07912:00130013
#07917:00130000
#07915:00000000000000000000000000130000
#07918:0000000000000013
#07916:0000001300000000
#08012:1313000013130000
#08018:00130013000000000013001300000000
#08015:0000131300001300
#0801b:00000000001300130000000013000000
#08118:00001300000000000000000000130000
#08112:00000013000000000000000013000000
#0811b:00000000130000000000000000000013
#08115:0000000000000013
#08212:13000013000000000000000000000000
#08218:00130000000000000000000000000000
#08215:0013000000130000
#0821b:00000013000000000000000000000000
#0831b:0000000000001313
#08315:00000000000000000000000000130013
#08418:13001300000000000000000000130000
#08412:00130013000000000000000000000013
#0841b:00000013
#08415:0000000000000013
#0851b:13000000131300000000000000000000
#08515:00130000000013130000000000000000
#08518:00001300000000001313000026000000
#08512:00000013000000000000131300000026
#08612:00000000001300000000001300000000
#0861b:00000000001300001300000000000000
#08615:00000000000000000013000000000000
#08618:0026000000131600
#08912:00160000
#09118:00000016
#0001b:001300000000001300001300
#0011b:001300000000000000000000
#00119:000000000000001300000000
#00217:001300000000000000000000
#00219:000000000000001300000000
#0031b:001300000000000000000000
#00319:000000000000001300000000
#01355:13
#01353:00000000000000000024000000000000
#01354:0000000052120000
#01359:0000000000140000
#01452:00000053
#01457:00000013000000000000000000000000
#01456:0000001300000000
#0155b:0063000000130000
#01552:0013
#01657:00000013000000000000000000000000
#01656:0000000000130000
#01652:0053
#01756:00130053
#01757:1313
#0185b:5353
#01857:0023000000230000
#01852:00630000
#01856:0000002300000000
#0195b:00000013
#02058:13
#02055:00130000
#0205b:00130053
#02152:0053000000000000
#0215b:0053
#02157:00000000000000000000002300000000
#02156:0000000000000053
#02252:00000063
#02257:00130000
#0235b:0063000000005300
#02352:0063
#02457:23
#0265b:00000053
#02657:0000000000000023
#02752:5353
#0275b:00530053
#02756:0023000000230000
#02757:0000002300000000
#02858:0053000000000000
#02855:0053000000000000
#0285b:00001313
#02852:00000000000000001300000000000013
#02952:0000130000530000
#0295b:00000000000000130000000000000000
#03056:0013
#0305b:0013
#03052:00000013
#0315b:13
#0325b:00000013000000000000000000000013
#03252:00000013
#0335b:0000130000630000
#03352:00000000000000130000000000000000
#03452:0013
#03457:0013
#0345b:00000013
#03552:13000053
#0355b:00130000
#03556:00000000000000000000000000000023
#0365b:00530043
#03657:00000000000000002300000000000013
#03656:00000053
#0375b:00530000
#03752:00000000000000130000000000000000
#03756:0000000000530000
#0385b:0013
#03855:00000013
#03958:13
#04052:00000013000000000000000000000000
#04056:00000000000000000000000000000013
#04057:00000063
#04152:00630000
#0415b:00000000000000130000000000000000
#04157:0000000000630000
#04252:0013
#04258:00000013
#04355:13
#04358:00130000
#0435b:00000053
#04457:00530000
#04452:00530000
#0455b:00000000000000000013000000000000
#04556:00000000000000000013000000000000
#0465b:00000000000000000013000000000000
#04656:00000000000000000013000000000000
#04752:00000000000000000013000000000000
#04757:00000000000000000013000000000000
#04852:00000053000000000000000000000000
#04857:00530000000000000000000000000000
#04957:00000000005300000000000000000000
#04952:0000000000130000
#05055:00000053000000000000000000000000
#0505b:00000000005300000000130000000000
#05152:00000000005300000000130000000000
#0525b:0000005300000000
#0545b:00000063
#05456:0000000000130000
#05557:23
#05552:00630000
#0595a:00000054
#06056:00240000
#06455:53
#06452:00000053
#0655b:00530000
#06552:0000000000530000
#06656:00230000000000000000000000000000
#0695a:14
#06952:14000000130000130000000000000000
#06958:00530000
#06956:0000000000530000
#0695b:0000000000530000
#0705b:0013
#07052:00000013
#0715b:13
#07252:00000013000000000000000013000013
#07258:00000053
#07355:00630000
#0735b:00000000000000130000000000000000
#07352:0000000000630000
#07357:0000000000630000
#07452:0013
#0745b:00000013
#07552:13000053
#0755b:00130000
#07656:00530000
#0765b:00530013
#0775b:00000053
#07752:13000063
#07858:00530000
#07855:00630000
#0795b:0000005300000000
#08055:00000053
#0815b:00530000
#0825b:00000053000000000000000000000000
#08558:00000016
#08552:00000000000000000000000000000016
#08658:0016000000005600
#09158:00000056
#08952:00260000
#0085b:0013
#00852:0013
#0105b:00130000
#0105a:0000001300000000
#01059:0013
#01058:0000000000130000
#000320:001300000000000000000000
#001360:003300000000000000000000
#002320:003300000000000000000000
#003360:003300000000000000000000
#004320:003300000000000000000000
#008320:0023
#004371:001300000000000000000000
#0063b1:003300000000000000000000
#0083b1:0023
#0123b1:00000000133300000000000000000000
#012381:0000002300000000
#012350:00000000000013330000000000000000
#012320:0023
#0123b1:00000000000000001333000000000000
#012381:0000000000230000
#012350:00000000000000000000133300000000
#012320:00000023
#013340:0000000012220000
#013330:00000000000000000054000000000000
#013391:00000000000000001452240000000000
#014321:00000013
#015361:0023000000000000
#0153b0:0013000000000000
#015370:0023
#016320:0013
#016360:0000000000230000
#017360:00000013
#018320:23
#0183b1:13230000
#018371:0053000000000000
#018320:00132300
#018360:0000005300000000
#0183b1:00001323
#018371:0000000000530000
#0203b1:00000013
#021371:0023000000000000
#021320:0013000000000000
#021360:0023
#0213b1:0000000013000023
#021371:00000000000000000000005300000000
#021360:0000000000000013
#022320:0023000000000000
#022320:00000013
#023360:0023000000000000
#0233b1:0013000000000000
#023371:0023
#023320:0013
#023360:00000023
#0233b1:00000013
#024371:53
#0243b1:00230000
#0243b1:00000013
#0253b1:23
#025321:00000013
#026321:23
#0263b1:00000013
#026371:0000000000000053
#0273b1:23
#027320:13230000
#027360:0053000000000000
#0273b1:00132300
#027371:0000005300000000
#027320:00001323
#027360:0000000000530000
#0273b1:00000013
#027381:0000000000000053
#028381:0033000000000000
#0283b1:00532300
#028350:0013000000000000
#028320:00532300
#029320:0000000000130000
#029350:0000000000000023
#0313b0:0000000000001323
#0333b0:0000000000130000
#033380:0000000000000023
#035320:00000013
#035360:00000000000000000000000000000053
#036320:0023000000000000
#0363b0:00130023
#036370:0053
#036361:00000013
#036321:00000000000000000000000000000023
#0373b1:00130000
#037371:00000000000000230000000000000000
#037361:0000000000130000
#037321:0000000000000023
#039361:0000001300000000
#039321:0000000033230000
#040371:00000013
#0403b1:00000000000000000000000000000023
#041321:00130000
#041361:00000000000000230000000000000000
#041371:0000000000130000
#0413b1:0000000000000023
#043321:0000001300230000
#043361:0033
#0433b1:00000013
#043371:0000000000000053
#044371:00330000
#0443b1:0000005300002300
#044320:00130000
#044360:0000005300002300
#0473b0:0000000000001323
#048370:00130000000000000000000000000000
#0483b0:00000023000000000000000000000000
#048321:00000013000000000000000000000000
#048361:00000000002300000000000000000000
#049371:00000000001300000000000000000000
#0493b1:00000000000000333300230000000000
#050351:00000013000000000000000000000000
#050321:00000000002300000000000000000000
#0503b0:00000000001300000000000000000000
#050370:00000000000000332300000000000000
#051320:00000000001300000000000000000000
#051360:00000000000000332300000000000000
#0513b0:00000013
#052370:23
#052321:13
#052361:00230000
#0523b1:0000001300000000
#052371:00000023
#052320:0000000000000000000000000000000000000000000000001353000000000000
#052330:00000000000000000000000000000000000000000000000000000000000000000000000000000000000000000000000000530000530000000000000000000000
#052340:00000000000000000000000000000000000000000000000000000000000000000000000000000000000000000000000000000053000053000000000000000000
#052350:00000000000000000000000000000000000000000000000000000000000000000000000000000000000000000000000000000000005300005300530053005300
#052360:00000000000000000000000000000000000000000000000000000000000000000000000000000000000000000000000000000000000000530053005300530053
#053350:5353535353535353230000000000000000000000000000000000000000000000
#053360:00530053005300530053005300530053000000000000000000000000000000000000000000000000000000000000000000000000000000000000000000000000
#0533b1:0000000000000000135300000000000000000000000000000000000000000000
#0533a1:00000000000000000000000000000000005300005300000000000000000000000000000000000000000000000000000000000000000000000000000000000000
#053391:00000000000000000000000000000000000000530000530000000000000000000000000000000000000000000000000000000000000000000000000000000000
#053381:00000000000000000000000000000000000000000053000053005300530053005300530053005300230000000000000000000000000000000000000000000000
#053371:00000000000000000000000000000000000000000000005300530053005300530053005300530053000000000000000000000000000000000000000000000000
#053320:0000000000000000000000000000000000000000135353535353230000000000
#053330:00000000000000000000000000000000000000000000000000000000000000000000000000000000005300530053005300530053000000000000000000000000
#054320:0013
#054360:000000000000000000000000003333230000000000000000
#0543b0:00000013
#055370:53
#0553b0:000000333333230000000000000000000000000000000000
#055321:00130000
#055361:0023
#0553b0:000000000000000000000000133333333333000000000000
#055370:00000023
#056320:13230000000000000000000000000000
#0563b0:0000000000001353535353532300000000000000000000000000000000000000
#0563a0:00000000000000000000000000530053005300530053005300000000000000000000000000000000000000000000000000000000000000000000000000000000
#056351:0000001323000000
#056380:0000000013230000
#056321:0000000000132300
#0593a1:00000014
#060361:00540000
#0603a1:00000024
#060320:00000013
#061320:23
#0613b0:00132300
#061320:00000013
#062360:23
#0623b0:00130000
#062370:0023
#064350:13
#064320:00000023000000000000000000000000
#064320:00000013
#064360:00000000000000000000000000000023
#0653b0:00130000
#065370:00000000000000230000000000000000
#065320:0000000000130033
#066320:3333333323000000
#066360:00530000000000000000000000000000
#069380:00130000
#0693b0:00000000000000230000000000000000
#069360:0000000000130000
#069320:0000000000000023
#0693b1:0000000000130000
#069371:0000000000000023
#072381:00000013
#0723b1:00000000000000000000000000000023
#073351:00130000
#073321:00000000000000230000000000000000
#073371:0000000000130000
#0733b1:0000000000000023
#073320:0000000000130000
#073360:0000000000000023
#075320:00000013
#075360:0000000000000053
#076360:00330000
#076320:0000005323000000
#0763b1:00130000
#076371:0000005323000000
#0773b1:00000013
#078381:00330000
#0783b1:00000023
#077320:00000013
#078350:00330000
#078320:00000023
#078370:00000000000000000000000000001323
#079360:00132300000000000000000000000000
#0793b0:0000001300000000
#079370:0000000000000000000000000000000053535353535353532300000000000000
#079380:00000000000000000000000000000000000000000000000000000000000000000053005300530053005300530053005300000000000000000000000000000000
#080350:00000013
#081320:0023000000000000
#0813b0:00130000
#081380:00000023
#0823b0:00000013000000000000000000000000
#082380:0000000000230000
#0823b0:00000013
#0823a0:000000000000000000000000000000000000003300000000
#082390:000000000033
#082380:0000000000000023
#082351:0000000000000013
#082341:000000000000000000000033
#082331:000000000000000000000000000000000000000000000033
#083321:23
#0833b0:13
#0833a0:003300000000000000000000000000000000000000000000
#083390:003300000000000000000000
#083380:0023000000000000
#083351:0013000000000000
#083341:003300000000
#083331:000000000033000000000000000000000000000000000000
#083321:00230000
#083380:00130000
#083390:000000000000003300000000000000000000000000000000
#0833a0:003300
#0833b0:0000002300000000
#083321:0000001300000000
#083331:000000000033000000000000
#083341:000000000000000000000033000000000000000000000000
#083351:0023
#083380:0013
#083390:000000000000000000000000003300000000000000000000
#0833a0:000000000000003300000000
#0833b0:0000000000230000
#083321:0000000000130000
#083331:000033
#083341:000000000000000000000000000000000033000000000000
#083351:00000023
#0843b1:00000000132300000000000000000000
#084350:00000000001323000000000000000000
#084381:00000000000013230000000000000000
#084320:00000000000000132300000000000000
#0843b1:00000000000000001323000000000000
#084350:00000000000000000013230000000000
#084381:00000000000000000000132300000000
#084320:00000000000000000000001323000000
#086380:00000016
#089320:00560000
#091380:00000056
#092350:26
