This file was generated by Ched 2.7.0.0.
#TITLE ""
#ARTIST ""
#DESIGNER ""
#DIFFICULTY 0
#PLAYLEVEL
#SONGID ""
#WAVE ""
#WAVEOFFSET 0
#JACKET ""
#REQUEST "ticks_per_beat 480"
#00002: 4
#BPM01: 145
#00008: 01
#TIL00: "0'0:1"
#VOLUME: ""
#HISPEED 00
#MEASUREHS 00
#01312:13000000000000000015000000000000
#01318:00000013000000002500000000001300
#01315:00000000000013000000000000000013
#01313:0023
#01418:13000013000000000000130000000000
#01412:0013000013001300
#01415:00000000001300000000000000000000
#0141b:0000001300000000
#0151b:0013000000000000
#01518:0000000000000013
#01515:00000000000000000000130000000013
#0161b:13000000000000130000000000001300
#01612:0013000000000000
#01618:00000013000000000000000000000000
#01615:00000000001300001300000000000013
#0171b:1300001313000000
#01712:0013130000131300
#01718:00000013000000000000001300000000
#01715:00000000000000130000000000000000
#0191b:0013000000000000
#01918:0000130000131300
#01915:00000000000013000000001300000000
#02015:1313
#02012:00130000
#02018:0000000000130000
#0201b:00130013
#02117:0013000000000000
#02112:0000000000000013
#0231b:00000013
#02316:0013000000000000
#02417:13
#02415:0000001300000000
#02418:00000000000000001300000000000013
#02412:0000000000130000
#0241b:00000013
#02410:00000041
#02918:0013000000000000
#0291a:00000000000000140000000000000000
#02912:0000140000130000
#03015:0013000000000000
#0301b:00130000
#03018:13000000000000001300000000000033
#03012:00000000000013000000003300000000
#03112:00000033000000000000000013000000
#03118:0000000023000013
#0311b:0000002300000000
#03115:0000000000230000
#03215:1300000000130000
#03218:00001300000000000000001300000000
#0321a:00000000000000000000000000000014
#03212:00000023000000000000000014000000
#03512:0000001300000000
#03518:00000000000000001300000000000013
#03515:0000000000130000
#0351b:00000033000000000000000013000000
#03618:00000000000000000000000000000013
#03616:0013
#03612:00130023
#03610:00000041
#03715:0013000000130000
#03718:00130000
#0381b:1313
#03818:00001300000000000000000000000033
#03815:00130000
#03812:00000000000013000000003300000000
#03912:00000013
#0391b:0000002300000013
#03918:0023
#03915:00000033000000000000230000000000
#04015:13000023000000000000001300000013
#04018:0013000000130000
#0401b:00000013
#0431b:00000013
#04312:0000001300000000
#04315:0013
#04318:00000033000000000000130000000000
#04418:0000130000000013
#04412:00130000
#04415:00000000000000000000000000000013
#04518:13000000000000130000000000000000
#0451b:00000013000000000000000000000033
#04515:00130000001300000000000000000000
#04512:00000000000000000013000000000000
#04612:00000000001300000000000000000000
#04615:00000000000000000013000000000000
#04618:00000000000000130000000000000000
#0461b:33333300000000000000000000000000
#04715:00000013000000000000000013000013
#04718:00000000001300000000000000001300
#0471b:00000000000000000013000000000000
#04712:00000000000000130000000000000000
#04818:1300000000130013
#0481b:00000000000000130000000000000000
#04815:00000000000000001300000000000013
#04812:00000000000000000000001300000000
#04810:00000041
#0491b:1300000000130000
#04915:0000000000000013
#04918:00000000000000000000000000000013
#04912:00001333333300000000000000000000
#05015:13
#05012:0000000000130000
#0501b:00001333003300000000000000000033
#05018:0000000000000013
#0511b:33333300000000000000130000000000
#05112:00000000001300000000000000000000
#05218:0000001300000000
#05518:0000000000000013
#05512:000000000000000000000000003333333333000000000000
#05618:00130000000013000000000000000000
#05615:1313
#05612:00000023000000000000130000000000
#0561b:00000023000000000000000000000000
#06016:00140000
#0601f:00000011
#06112:13
#06118:0013
#06115:00130000
#0611b:00000013
#0621b:13
#06218:00130000
#06215:0013
#06212:00000013
#06315:1313
#06318:0000130000000013
#0631b:00000013
#06415:13
#06412:00000013
#06518:0013000000000000
#06515:00130000
#0651b:0000000000000013
#0671b:0000001300000000
#06715:0000000013000013
#06718:0000000000130000
#06712:00000033000000000000000013000000
#07712:00130013
#0771b:1300000000130000
#07715:0013000013000000
#07718:00000013000013000000000000000000
#07815:00130000
#07812:00000000000000000000000000000013
#07818:0000000000000013
#07915:0013001300000000
#07918:0000130000000013
#0791b:00130000000000000000000000000000
#08015:1300001300000000
#0801b:0013000000130000
#08012:00130013
#08018:0013
#08312:0000000000000013
#08415:1313
#08418:0013001300000000
#0841b:00000000130000000000000013333333
#08412:0000000000130000
#08618:00000000001300000036363600000000
#08615:00000016
#08614:0024000000000000
#09118:00000016
#0081b:0000000000001313
#00915:1313000000000013
#00918:0000131300000000
#00912:0000000013130000
#0091b:00000013
#01018:13
#01012:0013000000000013
#0101b:00000000003333330000000000000000
#01015:00000000000000000033333300000000
#01118:1313000000000013
#01115:0000131300000000
#0111b:0000000013130000
#01112:00000013
#01215:1313
#0121b:0013000000130000
#01212:00130013
#01218:0000001300000013
#01210:00000041
#0181b:13
#01815:13
#01812:00130023
#01818:00130023
#02218:0013
#02215:0000000000130000
#02212:00000013
#02216:00230000
#0251b:0013000000000000
#02512:00000013
#02515:00000000000000000000000000000013
#02612:0013000000000000
#0261b:00000013
#02615:00000013
#02712:13001313
#02718:1313
#0271b:00130013
#02715:00130000
#02818:0013000000000000
#02815:0013000000000000
#02812:00000000000000000000000000000014
#0281a:00000024
#03315:0013000000000000
#03312:00000000000000140000000000000000
#0331a:00140000
#0331b:0000000000130000
#03418:0013000000000000
#03412:00130000
#03415:13000000000000001300000000000033
#0341b:00000000000013000000003300000000
#04118:0013000000130000
#04115:00130000
#04212:1313
#04215:00001300000000000000000000000033
#04218:00130000
#0421b:00000000000013000000003300000000
#05412:330000330000330000330000330000330000330000330000130033003300000000000000000000000000000000000000
#05416:0000000000130000000000000000000000000000000000000000000000000000
#0541b:00000013
#05312:00000000000000000000000000133333
#06617:00000013000000000000000000000000
#0661b:33003300330033000000000000000033
#06612:00000000000000000000003300000000
#06818:1300130013130000
#0681b:0013000000000000
#06815:00000000000013000013001300000000
#0681a:00000024
#06915:0013000000000000
#06912:00000000000000140000000000000000
#0691a:00140000
#0691b:0000000000130000
#0691f:21
#06910:00000041
#07018:0013000000000000
#07012:00130000
#07015:13000000000000001300000000000033
#0701b:00000000000013000000003300000000
#0711b:00000033000000000000000013000000
#07115:0000000023000013
#07112:0000002300000000
#07118:0000000000230000
#07218:1300000000130000
#07215:00001300000000000000001300000000
#07212:00000000000000000000000000000014
#0721a:00000014
#0721b:00000023000000000000000000000000
#0751b:0000001300000000
#07515:0013
#07518:0000000000130000
#07512:00000033000000000000000013000000
#07318:0013000000000000
#0731a:00000000000000140000000000000000
#07312:0000140000130000
#07415:0013000000000000
#0741b:00130000
#07418:13000000000000001300000000000033
#07412:00000000000013000000003300000000
#07618:00000000130000000000001300001300
#07615:00000000000000000000130000000013
#07612:00000013
#08115:00003333130000000000000000000000
#0811b:00000000000000000000000013333333
#08117:0000000000000000000000000000000000000000000000000000000000000013
#0821b:33333313000000000000000000000000
#08518:0000001300000000
#08515:13333333000000001300000000000000
#0851b:0000000000130000
#08512:00000024
#0851a:00000000000000000000000000000024
#0591a:00000024
#0581a:00240000
#05814:0000002400000000
#05818:0024
#05812:0000000000240000
#05810:00000041
#00015:000000000000003300003300
#00118:000000000000003300000000
#00215:000000000000003300000000
#00318:000000000000003300000000
#01352:13000000000000000025000000000000
#01353:0000000053130000
#01358:0000000000150000
#01452:00000053
#0155b:0063000000000000
#01652:0000000000130000
#01655:0053
#01958:00000013
#02055:13
#02052:00130000
#0205b:00130053
#02157:0053000000000000
#02152:0000000000000053
#0235b:00000053
#02356:0063000000000000
#02457:23
#0245b:00000053
#02458:00000000000000000000000000000023
#0285b:0013
#0285a:00000014
#02858:0053000000000000
#02855:0063000000000000
#02852:00000000000000001300000000000014
#02952:0000140000530000
#0295a:00000000000000140000000000000000
#03058:0013
#03055:00000013
#03252:00000013000000000000000014000000
#0325a:00000000000000000000000000000014
#0355b:00000063
#03558:00000000000000000000000000000023
#03552:13
#03658:00000000000000000000000000000013
#03656:0023
#03652:00630033
#03755:0000000000530000
#0375b:00000000000000130000000000000000
#03758:00530000
#0385b:0013
#03852:00000013
#04055:00000013000000000000000000000013
#0405b:00000013
#0435b:00000053
#04355:13
#04458:00530000
#04452:00530000
#04552:00000000000000000013000000000000
#04655:00000000000000000013000000000000
#0495b:0000000000130000
#04952:0053000000000000
#05052:0000000000130000
#0505b:0053000000000000
#05058:0000000000000053
#0515b:0000000000130000
#05152:00000000005300000000000000000000
#05258:0000005300000000
#0595a:00000054
#06056:00240000
#06455:53
#06452:00000053
#06555:00530000
#0655b:0000000000000063
#07752:00000063
#0775b:13
#07855:00630000
#07955:0000005300000000
#08552:00000014
#0855a:00000000000000000000000000000014
#08555:63
#08654:0014000000000000
#08655:00000056
#09158:00000026
#02256:00130000
#02252:00000063
#00852:0013
#0085b:0013
#01752:00000053
#0185b:53
#01855:53
#01852:00630000
#01858:00630000
#0255b:0053000000000000
#02552:00000063
#02555:00000000000000000000000000000023
#02652:0063000000000000
#0275b:00000053
#02752:00000063
#0315b:13
#03352:00000000000000140000000000000000
#0335a:00140000
#0335b:0000000000630000
#03455:0013
#03458:00000013
#03958:13
#04158:0000000000630000
#04155:00630000
#04152:00000000000000130000000000000000
#04252:0013
#0425b:00000013
#0475b:00000000000000000013000000000000
#05456:0000000000230000000000000000000000000000130000000000000000000000
#05452:0053
#0545b:00000053
#05352:00000000000000000000000000530000
#06657:00000023000000000000000000000000
#06952:00000000000000140000000000000000
#0695a:14140000
#0695b:0000000000630000
#07055:0013
#07058:00000013
#07552:00000053
#0755b:13
#0735a:00000000000000140000000000000000
#07352:0000140000530000
#07458:0013
#07455:00000013
#07252:00000000000000000000000000000014
#0725a:00000014
#0725b:00000013000000000000000000000000
#07152:13
#07658:00530000
#07652:00000013
#08155:00530000
#0815b:00000053
#08157:0000000000000000000000000000000000000000000000000000000000000023
#08052:00000053
#0825b:00000053000000000000000000000000
#0845b:00000063
#000320:001300000000000000000000
#000350:000000000000003300003300
#001350:002300000000000000000000
#0013b1:001300000000000000000000
#001381:000000000000003300000000
#002381:002300000000000000000000
#002320:001300000000000000000000
#002350:000000000000003300000000
#003350:002300000000000000000000
#0033b1:001300000000000000000000
#003381:000000000000003300000000
#004381:002300000000000000000000
#004350:001300000000000000000000
#006320:003300000000000000000000
#008320:0023
#0063b1:001300000000000000000000
#0083b1:0023
#0103b1:00000000133333330000000000000000
#010381:0023
#010350:00000000000000001333333300000000
#010320:00000023
#013330:0000000013230000
#013320:00000000000000000055000000000000
#013381:00000000000000001553250000000000
#014321:00000013
#015351:0023000000000000
#0153b0:0013000000000000
#015380:0023
#016350:0013
#016320:0000000000230000
#017320:00000013
#018350:3323
#018320:00330000
#0183b1:1323
#018381:00330000
#0203b1:00000013
#021371:0033000000000000
#0213b1:0023
#021321:0000000000000013
#022361:0033230000000000
#022321:00000013
#023361:0033000000000000
#023321:0023
#0233b1:00000013
#024371:53
#0243b1:00230000
#0243b1:00000013
#024381:00000000000000000000000000000053
#0253b1:0033000000000000
#025381:0023
#025321:00000013
#025351:00000000000000000000000000000053
#026321:0033000000000000
#026351:0023
#0273b1:00000013
#028381:0033000000000000
#0283b1:0023
#027320:00000013
#028350:0033000000000000
#028320:0023
#029320:0000000000130000
#029350:0000000000000023
#030320:00000000000000000000133300000000
#030350:00000023
#030380:00000000000000000000000000001333
#0313b0:23
#031350:0013000000000000
#031320:00000033230000000000000000000000
#0333b0:0000000000130000
#033380:0000000000000023
#0343b0:00000000000000000000133300000000
#034380:00000023
#034350:00000000000000000000000000001333
#035320:23
#035380:0013000000000000
#0353b0:00000033230000000000000000000000
#0353b0:00000013
#035380:00000000000000000000000000000053
#0363b0:0023000000000000
#036320:00130023
#036360:0053
#037380:00130000
#0373b0:00000000000000230000000000000000
#037350:0000000000130000
#037320:0000000000000023
#038350:0000000000130000
#038320:00000000000000000000003323000000
#0383b0:0000000000000013
#038380:00000000000000000000000000000033
#039380:23
#039320:0013000000000000
#039350:00000033230000000000000000000000
#041350:00130000
#041320:00000000000000230000000000000000
#041380:0000000000130000
#0413b0:0000000000000023
#042380:0000000000130000
#0423b0:00000000000000000000003323000000
#042320:0000000000000013
#042350:00000000000000000000000000000033
#043350:23
#0433b0:0013000000000000
#043380:00000033230000000000000000000000
#0433b0:00000013
#044380:00330000
#0443b0:00000023
#044321:00130000
#044351:00000023
#0453b1:00000000000000000000000000001333
#0463b1:33333300000000000000000000000000
#046381:00000023000000000000000000000000
#046381:0000000000000013
#046391:00000000000000000000000000000033
#0473a1:33
#0473b1:00230000000000000000000000000000
#048351:00130000002300000000000000000000
#048321:00000033000000000000000000000000
#049321:00001333333300000000000000000000
#049361:00000000000000332300000000000000
#0503b1:00001333003300000000000000000000
#050371:00000000000000332300000000000000
#050381:0000000000000013
#0503b1:00000000000000000000000000000033
#0513b1:33333323000000000000000000000000
#051321:00000000001300000000000000000000
#051351:00000000000000332300000000000000
#051321:00000013
#052351:33
#052321:00230000
#052381:0000001300000000
#0523b1:00000023
#052350:0000000000000000000000000000000000000000000000001353535353535353
#052340:00000000000000000000000000000000000000000000000000000000000000000000000000000000000000000000000000530053005300530053005300530053
#053350:5353535353535353230000000000000000000000000000000000000000000000
#053340:00530053005300530053005300530053000000000000000000000000000000000000000000000000000000000000000000000000000000000000000000000000
#053381:0000000000000000135353535353535353535353230000000000000000000000
#053391:00000000000000000000000000000000005300530053005300530053005300530053005300530053000000000000000000000000000000000000000000000000
#053320:00000000000000000000130000333333
#054320:330000330000330000330000330000330000330000330000330033003300000000000000000000000000000000000000
#054360:0000000000530000000000000000000000000000230000000000000000000000
#0543b0:00000013
#055380:0023000000000000
#055350:00130023
#055320:000000000000000000000000333333333333000000000000
#0563a0:00000000000000000000000014343434
#0573a0:24
#057341:14343434240000000000000000000000
#057380:00000000143434342400000000000000
#057321:00000000000000001434343424000000
#0573a0:00000000000000000000000014343434
#0583a0:24
#058341:14343434240000000000000000000000
#0583a1:00000000000000000000000014343434
#0593a1:24
#059340:14343434240000000000000000000000
#059381:00000000143434342400000000000000
#059320:00000000000000001434343424000000
#0593a1:00000014
#060361:00540000
#0603a1:00000024
#064351:13
#064321:00000023000000000000000000000000
#064321:00000013
#064351:00000000000000000000000000000023
#065351:00130000
#065321:00000000000000230000000000000000
#0653b1:0000000000130033
#0663b1:3333333323000000
#066371:00000053000000000000000000000000
#066321:00000000000000000000133300000000
#066351:00000023
#0663b1:00000000000000000000000000001333
#067381:23
#067351:0013000000000000
#067321:00000033230000000000000000000000
#0683a1:00000014
#0693a1:24
#0693b1:0000000000130000
#069381:0000000000000023
#0703b1:00000000000000000000133300000000
#070381:00000023
#070351:00000000000000000000000000001333
#071321:23
#071381:0013000000000000
#0713b1:00000033230000000000000000000000
#073321:0000000000130000
#073351:0000000000000023
#074321:00000000000000000000133300000000
#074351:00000023
#074381:00000000000000000000000000001333
#0753b1:23
#075351:0013000000000000
#075321:00000033230000000000000000000000
#075321:00000013
#076351:00230000
#076380:00130000
#0763b0:0023
#077320:00000013
#078350:00330000
#078320:00000023
#079350:0000001300000000
#079320:0000000000000000000000000000000053535353535353532300000000000000
#079330:00000000000000000000000000000000000000000000000000000000000000000053005300530053005300530053005300000000000000000000000000000000
#080320:00000013
#081350:00003333330000000000000000000000
#081320:0000000000230000
#0813b0:00000000000000000000000013333333
#081370:0000000000000000000000000000000000000000000000000000000000000053
#0823b0:33333333000000000000000000000000
#082380:0000000000230000
#082320:00000013
#082330:000000000000000000000000000000000000003300000033
#082340:000000000000000000003333
#082350:0000000000000033
#083320:33230000
#083330:003300000033000000000000000000000000000000000000
#083340:003333000000000000000000
#083350:0033000000000000
#0833b1:00133323
#0833a1:000000000000003300000033003300000033000000000000
#083391:000000003333003333000000
#083381:0000003300330000
#0843b1:00000000000000000000000013333333
#085381:23
#085350:13333333000000000000000000000000
#085320:00230000
#086380:00000000000000001636363600000000
#086350:00000036
#091380:00000056
#092350:26
