This file was generated by Ched 2.7.0.0.
#TITLE ""
#ARTIST ""
#DESIGNER ""
#DIFFICULTY 0
#PLAYLEVEL
#SONGID ""
#WAVE ""
#WAVEOFFSET 0
#JACKET ""
#REQUEST "ticks_per_beat 480"
#00002: 4
#BPM01: 145
#00008: 01
#TIL00: "0'0:1, 8'960:1, 6'160:0.4"
#VOLUME: ""
#HISPEED 00
#MEASUREHS 00
#00816:00000012
#00814:00000000000000000000000000120000
#0081a:0000000000000012
#00818:00000000000000000000000000000012
#0081c:00000012
#00916:12000000120000000000001200000012
#00914:00120000000000000000120000001200
#00912:00001200000012000012000000000000
#0091c:00000012000000000000000000000000
#00918:00000000001200001200000012000000
#0091a:00000000000000120000000000120000
#01018:12000000001600000000000012000000
#0101a:00120000000000000000000000120000
#0101c:0012000000000000
#01012:00000012000000000000001600000000
#0101b:00130000
#01016:00000000000000160000000000000012
#01014:00000000000000000016000000001200
#01019:0000001300000000
#01017:0013
#01015:0000000000130000
#0121b:00000013
#01215:00000013
#01218:00000000000000000000131600001300
#01212:00001200131600000000000000001300
#01216:12000000000000001316000000000000
#01214:00120000000013160000000000000000
#0121c:00000012000000000000000000000000
#01210:00000041
#0131b:1300001300001313
#01315:1313001300000000
#01318:00000013001300000000000000000013
#01312:00000013000000000000000013000000
#01313:00000000000000000014000000000000
#01314:0022
#01319:0024
#01415:1300001900130000
#0141b:0013000013001300
#01412:00000019001300130000001300000000
#01418:00000000000000000013000000000000
#01416:00000013
#01414:0000000000000013
#01512:13000000001319001300000000000013
#0151b:0013000013001300
#01515:00000019000000000000001300001300
#01518:00000000000000000000130000130000
#01612:1c130000000000160000130000000000
#01615:0013130000001300
#01618:00000013001300001600000000001313
#0161b:0000001300130000
#01712:16000013
#01718:00001313000013131600131300000000
#01715:00160000
#0181b:13131323
#01815:0000000000130000
#01818:0000000000130000
#01812:13000023
#0191b:1300001313001300
#01918:00000000000000000000130000000013
#01915:00000000000000000000001300001300
#01912:1313000013001300
#01917:0013000000000000
#01914:00130000
#01916:0000001300000000
#01919:00130000
#0201b:13131313
#02018:00001300000000130013000000000000
#02015:00000013000013000000130000000000
#02012:13000000130000000000001300000000
#02112:1300131c230000001300000013000000
#02115:0000130000130000
#02118:0000000000130000
#0211b:00000013
#02318:00000000000000000000001300000000
#02312:1300131c230000001300000013001300
#02315:0000130000130000
#0231b:00000013
#02319:0000000000000013
#02412:1313130000001600
#02414:0000001300000013
#02418:0000000013130000
#02415:00000000000000000013001300000000
#02419:0013001300000000
#02417:13
#0241b:00130000
#0241c:00000022
#02410:00000041
#02516:16001600001600000000001600000000
#02512:00000016000016001600000022000000
#02518:00000016
#02519:0000000000000013
#02514:0000000000160000
#0251c:22222200
#02818:00000000000000000000130000000013
#02815:00000000000000000000001300001300
#02812:00001300000000000000000024000013
#0281b:0013000000000000
#0281a:00000024
#02915:00001300000000130000001300000000
#02917:00000013000000000000000000000000
#02912:00000000130000000000000000001612
#02918:00000000000013000000130016120000
#02919:00130000
#0291b:00000000000000130000000000000000
#03018:16160000
#03012:001600161c001c00
#0301a:00120000000000000000000000001200
#03014:00000012000000000000000000000012
#0301c:00000000001200000000120000000000
#03016:00000000000000120000001200000000
#03112:1c000012001600160016261600000013
#0311b:00000013
#03118:00001200260000000000000000130000
#03115:0000000000000013
#03116:0000002600000000
#03114:0026
#03215:13000000000000130000001319000000
#03218:00130000000000001300130000000000
#0321b:00001300000000000013000000000013
#03212:0000002c000013000000000013000019
#03219:0000000000000013
#03316:0013000000160000
#03314:00000013000000000000000016000000
#03315:00000000190000000000000000000019
#03319:0000001300000000
#0331b:00000000000000130000000000000000
#0331c:00000000000000000000001200000000
#03312:00000000130000190000000000000000
#0331a:00000000000000000000000000120000
#03412:0000160000131c00
#03418:00160000001300001600000000000000
#03415:0000001600000000
#0341b:00000013000000130000000000000000
#03414:0000000000000013
#03417:00000000000000000000001300000000
#03419:00000000000000000000000000000013
#03512:1c0000001c0000001300001300000000
#03516:0013000000000000
#03515:0000001300130013
#0351b:00000013000000001300000000000000
#03518:00000000000000130013000000000013
#0471b:00000000001100000000000000001300
#04718:00000000000000000000000000000013
#0471a:12000000000000000024002424000000
#0471c:00120000000000000000000000000000
#04714:00000011000000000000000000000000
#04712:00000000000000110024002424000000
#04719:00000011000000000000000000000000
#04716:00000000001100000000000000000000
#04717:00000000000000110000000000000000
#04815:13000013001300000013000000001300
#04812:00130000000000000000130000130000
#04818:00000013000000131300000013000013
#0481b:00130000000000000000001300000000
#04810:00000041
#04912:1313141c
#04917:0012000000000000
#04915:00000012001300000000000000000013
#04918:00000000000013000012000000001300
#0491b:13000000000000130000000000130000
#04916:0000000000140000
#0491c:00000000000000000000001200000000
#04919:00120000000000000000000000000000
#05212:1300001314000000
#05215:00130000
#05218:00001313001300000000000000000000
#05216:00000000000000000014001400000000
#0521a:0000000000140000
#0521b:1300001300000000
#05412:1300001300000000
#05415:000000130000000000000000000000130000000000130000000013000000000000000000000000000000000000000000
#05418:0013130013132300
#0541b:000000000000000000130000000000000000000000000000000000001300000000000000000000000000000000000000
#05315:0000000000000013
#05318:00000000000000000000000000130013
#0531b:0013000000000000
#05317:00130000
#0591b:00000000000000000000001300000000
#05915:00130000001300000013000000001300
#05918:26000013260000132600000000000013
#05912:0026002600262c00
#06018:0013161313130000
#06015:00000013000013000000000000000000
#0601b:13000000000000000013001300000000
#06012:16130000
#0601f:00000011
#0611b:13
#06118:00130000
#06115:0013
#06112:00000013
#06215:13
#06218:00131300
#0621b:00000000000013000000000000000033
#06212:00000000000000000000003300000000
#06318:0013
#06319:00000012
#06315:0000001300000000
#0631b:0000000000130000
#06317:0000000000000012
#06312:00000033000000000000000000000000
#06415:12120000
#06417:0000001200000000
#06419:0012
#0641b:0000000000131300
#06412:0013000000000000
#06718:0013000000001313
#06715:1300130013130013
#06812:1300000013130000
#06815:13001300000013000013001300000000
#06815:0013000000000000
#06818:0013131300000000
#0681b:00130000
#07815:00000000000000000000000000130000
#07818:0000000000000013
#0781b:00130013
#07812:00130013
#07918:00130013000000000000000000130013
#07915:0013000000000013
#0791b:00000013
#08012:1300130013130000
#08015:00130013001600160016001600000000
#08018:0013000000000000
#0801b:1300131300001300
#08415:00000013000000000000000000130013
#08418:00001300261600000000000000001300
#0841b:00000013
#08412:2c130000000000000000261600000000
#08416:00000000000026160000000000000000
#08414:00000000000000002616000000000000
#0851b:13000000130000000000131300000000
#08518:00130013000013130000000000001300
#08515:0000000013000000000000000000000013001300000000000000000000132900
#08512:13000000131300000000000029000000
#08618:0000001300000000000013001300000000001300001300000000000000000000
#08615:0000130000000000000000130000000013000000000013000000000000000000
#08612:0029000000131c00
#0861b:0000000000000000000000000000000000000000000000130000000000000000
#0001b:001300000000000000000000
#00016:000000001400001300001400
#00012:001400000000000000001300
#0001a:000000000000001400000000
#00417:001300000000000000000000
#0041b:000000000013
#00112:001400000000000000000000
#00116:000014000014
#0011a:000000000000001400000000
#00212:001400000000000000000000
#00216:000014000014
#0021a:000000000000001400000000
#00312:001400000000000000000000
#00316:000014000014
#0031a:000000000000001400000000
#0221b:1313230013001300
#02212:0000001c000000000000000013000000
#02218:0000130000130000
#02215:0000000000130000
#02619:0000000000000013
#02614:16001600001600000000001600000000
#02618:00000016000016001600000000000000
#02616:0000000000160000
#02612:22222222
#0261b:00000023
#02712:13000000000000000013000013000000
#02719:0013000000000000
#02717:23000000001300000000000000000000
#02713:0000001300000000
#0271a:00000000000000130000000000000000
#02718:0000000000130000
#02715:00000000000000000000001300000000
#0271b:00230023
#02716:0023
#04412:00130014
#04418:00000013000013000013001300001200
#04416:00000000000000000000000000000012
#04415:00001300001300001300130000000000
#0441b:00000000000000130000000000000000
#0441a:00000024
#04514:12000000001100000000000000000000
#04512:00120000000000000024002424000000
#0451b:00000011000000000000000000000000
#0451d:00000000000000110000000000000000
#0451a:00000000000000000024002424001200
#04517:00000000000000000000000000000012
#04516:00000011000000000000000000000000
#04519:00000000001100000000000000000000
#04518:00000000000000110000000000000000
#04614:12000000000000110000000000000000
#04617:00120000001100000000000000000000
#0461a:00001200000000110024002424000000
#04612:00000011000000000024002424000000
#04618:00000011000000000000000000000012
#0461d:00000000001100000000000000000000
#04616:0000000000000012
#05115:00120000000013000000000000001300
#05118:00000000001300000000000000000013
#0511b:13130000
#05117:0012000000000000
#05112:1300000000000013000000121c000000
#0511a:0014
#05116:00000000000000000012140000000000
#05119:00000012000000000000000000000000
#06518:1313000000000000
#06515:00131313
#06512:0000000000130000
#06618:00131313
#06615:1313000000000000
#0661b:0000000000130000
#06914:0016000000000000
#06916:00000016000000000000000000001313
#06912:26160013
#06918:26000000160000160000130000000000
#06915:00000000000000000000001300000000
#0691b:00000000000000000000000013131300
#0691f:21
#06910:00000041
#07019:13131300000000000000000000000013
#07014:00001313130000000000000000001300
#07012:00000000000013131c0013001c000000
#07017:00000000131313000000001300000000
#07016:13
#07112:1c000000000026000000260000000013
#07116:0013000000000000
#07115:00000000001600160016001600001300
#0711b:00000013000000000000000013000000
#07118:00000000260000002600000000130000
#07215:13
#07218:00130000000000000000000000000000
#0721b:0013000000000000
#07216:00000000000000140014001400001400
#07212:0000002c00000000140000001c000018
#0721a:00000000000014000000140000000014
#07518:00001300000013000000130016160013
#07515:00000013001300000000001300001300
#07512:1c000000130000001616000000000000
#0751b:00000000000000130000000000000000
#07612:13000016000016001600000016000000
#07615:00130000000000000000000000000016
#07618:00001600001300160000001600000000
#0761b:00130000
#07614:00000000000000000016000000000000
#07616:0000000000160000
#07617:0000000000000016
#07713:16
#07712:0013000013001300
#07715:00000013001300130013001300000000
#07718:0000131313131300
#0771b:00000000001300000000001300000000
#03618:00001300001300001300130000001300
#03615:00000013000013000013001300000013
#0361b:00000000130000000000000000000013
#03612:00000000000000130000000024000000
#0361a:00000024
#03610:00000041
#03718:00001300000000130000001300001600
#03716:00000013000000000000000000120000
#0371b:00130000
#03715:0000001300130000
#03714:00130000
#03712:00000000000000130000000016000000
#0371c:00000000000000000000000000000012
#03812:16000000161200001c0012001c000000
#03818:00001600000016120000001200000000
#03814:00120000000000000000000000001200
#0381a:00000012000000000000000000000012
#0911b:00000013
#05716:00000000000000000000000000140014
#05718:00132600001326000013260000000000
#05715:00000013000000130000001300000000
#05712:26262624
#0571a:0000000000000024
#05816:00140014000026160000000000000000
#05818:00000000261600000000000026000013
#05814:00000000000000002616000000000000
#05812:24000000000000000000261600002600
#05815:00000000000000000000000000130000
#0581a:0024000000000000
#05810:00000041
#0551a:0014
#05516:000000000000000000000000001400001400000000000000
#05518:000000000013000000000000000014000000000000000000
#05514:0000000000140000
#05512:000000130000000000000000000000000014000000000000
#05515:001300000000
#0561a:14140000000000000000001400000000
#05612:00140024000014000000000026000000
#05618:00000000000000141400000000132600
#05614:00000000000000000014140000000000
#05615:00000000000000000000000000000013
#08315:00000000000000000000000000130000
#08318:0000000026000013
#08312:000000000000270000000000000000000000270000000000000012000000260000000000000000000000000000130000
#08314:001200000000000000000000000000000000000000000000
#08317:000012000012270012000012000012000012000000000000
#0831a:001200000000
#08313:000000000000001200000000000000000000000000000000
#0831b:000000000012000000000000
#0831c:000012
#08316:28
#08319:00000025
#08112:00001300000000000000000000000013
#08115:00000013000000000000000000130000
#08118:0000130000000013
#0811b:00000013
#08216:00140014000000000000000000000000
#08217:000000000000000000000000130000000000000012000012
#0821a:14
#08212:0014000000000029
#08215:000000000000000000000000000000000000291200000000
#08219:000000000000000000000012
#03912:1c260013
#03915:00000000000000000000000000130000
#03918:00000000001600160016261600001300
#0391b:00000000000000000000000000000013
#0391c:00000012000000000000000000000000
#03916:0012000026000000
#03914:0000002600000000
#04018:13000000000000130000001300000000
#04015:00130000000000001300130000000019
#04012:0000132c000000000013000019000013
#0401b:0000001300001300
#04014:0000000000000013
#04117:0013000000000000
#04119:00000013000000000000000000000000
#04112:00000000190000130000001200000019
#04114:00000000000013000000160000120000
#0411b:00130000
#04115:00000000000000190000000000000000
#04116:00000016
#04218:00160000
#04215:00000000001316000000000000000000
#04212:0016001300000013160000001c000000
#0421b:0000000000130000
#04219:0000000000000013
#04216:00000000000000000000001300000000
#04214:00000000000000000000000000000013
#04312:1c0000131c0000001300000000000000
#04317:0013000000000000
#04318:0000001300130013
#04315:00000000000000130013000000000013
#0431b:00000000000000001300001300000000
#0501b:13000000130000000000000000130000
#05017:0012000000000000
#05018:00000000001300000000000000001300
#05015:00120000000013000000000000000013
#05012:1300000000000013000000121c000000
#0501a:0014
#05016:00000000000000000012140000000000
#05019:00000012000000000000000000000000
#01118:12000000120000000000001200000012
#0111a:00120000000000000000120000001200
#0111c:00001200000012000012000000000000
#01112:00000012000000000000000000000000
#01116:00000000001200001200000012000000
#01114:00000000000000120000000000120000
#07316:0016000000000000
#07314:00000016000000000000000000000000
#07318:00000000160000000000001300000000
#07312:00000000160000160000000013131300
#07315:0000000000130000
#07317:00000000000000000000000000001313
#0731b:00000013
#07414:13131300000000000000000000000013
#07419:00001313130000000000000000001300
#0741b:00000000000013130000130000000000
#07412:00001c1c
#07416:00000000131313000000001300000000
#07417:13
#0105b:00430000
#01059:0000004300000000
#01057:0043
#01055:0000000000430000
#01452:00000039000000000000000000000000
#01455:0000004900000000
#0145b:00000023
#01752:16000053
#01755:00160000
#01758:0016
#01852:53
#0185b:23230000
#03452:0036003c
#03455:0000003600000000
#03458:0036
#03552:3c3c0000
#00852:0014
#0085a:0014
#0035a:000000000000002400000000
#00352:002400000000000000000000
#00356:000054000054
#0025a:000000000000002400000000
#00252:002400000000000000000000
#00256:000054000054
#0015a:000000000000002400000000
#00152:002400000000000000000000
#00156:000054000054
#0005a:000000000000002400000000
#00052:002400000000000000000000
#00056:000054000054
#00457:005300000000000000000000
#0045b:000000000023
#01358:00000043000000000000000000000000
#01355:0000003300000000
#01354:0000000052120000
#01353:00000000000000000024000000000000
#01359:0000000000140000
#01555:00000039000000000000000000000000
#01552:0000004900000000
#01658:0016
#0165b:0000000000130000
#01652:0000000000130000
#0205b:00130053
#02052:13
#02155:00230000
#02152:00330063
#02258:00230000
#0225b:00430053
#02355:00230000
#02352:00330000
#02752:00000063
#02852:0063000013000000
#0285b:0063000013000000
#0285a:00000014
#02858:00000000000000000000000000000013
#02952:00130000
#02955:00000000000000130000000000000000
#03052:00001c4c
#03252:0000003c000000000000000000000019
#03255:00000019
#03355:00190000
#03352:00000000000000190000000000000000
#04852:00530000000000000000000000000000
#04855:00000053000000000000000000000000
#0645b:00000053
#06755:00530000
#06658:00530053
#06555:00530053
#06952:36160000
#06958:46000000000000160000000000000000
#07252:0000003c00000000000000001c000018
#05952:0036003600361c00
#05958:46464600
#07652:00000036
#07753:36
#07758:00000053
#0785b:00530000
#07852:00530000
#03655:00000000000000000000000000000013
#03652:00000014
#0375b:00130000
#03758:00000000000000130000000000000000
#03852:00001c3c
#0805b:0000434300005300
#08052:0000000033330000
#08552:00000039
#08555:0000000000000000000000000000000000000000000000000000000000334900
#08558:0000000000000043
#08658:0000004300000000000000000000000000000000000000000000000000000000
#08655:00330000000000000000000000000000
#08652:0039000000005c00
#0915b:00000023
#06052:16
#06058:00160000
#05458:0000000000130000
#08158:00530000
#08256:00000054000000000000000000000000
#08257:0053
#04952:0034
#04956:0000000000340000
#08458:00000000463600000000000000000000
#08456:00000000000046360000000000000000
#08454:00000000000000004636000000000000
#08452:00000000000000000000463600000000
#04055:00000000000000000000000000000019
#04052:0000004c000000000000000019000000
#04152:00190000
#04155:00000000000000190000000000000000
#04258:00460000
#04255:0000004600000000
#04252:0000464c
#04352:4c4c0000
#03152:4c
#03952:3c
#0505a:0044
#05056:0000000000440000
#0515a:0044
#05156:0000000000440000
#05858:00460046
#05856:0000004600000000
#05854:0046
#05852:3400000000460036
#0585a:0044000000000000
#05758:0046004600460000
#05752:36363634
#0575a:0000000000000044
#05658:0000000000000046
#05652:00000036
#01252:00330000
#01254:0000003300000000
#01256:0033
#01258:0000000000330000
#0195b:00000013
#01952:0013
#07052:00001c1c
#07152:1c
#07358:00160000
#07352:00000000000000160000000000000000
#07452:00001c1c
#07552:1c
#000320:001400000000000000000000
#000360:000054000054
#0003a0:000000000000005400000000
#001320:005400000000000000000000
#001360:000054000054
#0013a0:000000000000005400000000
#002320:005400000000000000000000
#002360:000054000054
#0023a0:000000000000005400000000
#003320:005400000000000000000000
#003360:000054000054
#0033a0:000000000000005400000000
#004320:003400000000000000000000
#008320:0024
#0013b1:001300000000000000000000
#001321:000000000000003300000000
#0023b1:002300000000000000000000
#002321:000000000000001300000000
#0033b1:003300000000000000000000
#003321:000000000000002300000000
#004371:001300000000000000000000
#0043b1:000000000053
#005371:000000000000002300000000
#0053b1:000000000013
#005391:0000000000000033
#005371:000000000000000000000023
#0063a1:001400000000000000000000
#0083a1:0024
#013341:0000000012220000
#013331:00000000000000000054000000000000
#013390:00000000000000001452240000000000
#0143b0:00000013
#015350:23
#017320:00000013
#0183b0:53
#018320:00230000
#018321:1323
#0183b1:00530000
#0203b1:00000013
#021351:23
#021351:00130000
#0213b1:0023
#021321:00000013
#022381:23
#022381:00130000
#022321:0023
#0223b1:00000013
#023351:23
#023351:00130000
#0233b1:0023
#027321:00000013
#0283b1:0033000000000000
#028321:0023
#028320:0013000000000000
#0283b0:0023
#033320:00000000000000000000000000001323
#034350:13230000000000000000000000000000
#034380:00001323000000000000000000000000
#0353b0:00000013
#035380:0000000000000023
#036320:13
#036350:0023000000000000
#0413b0:00000000000000000000000000001323
#042380:13230000000000000000000000000000
#042350:00001323000000000000000000000000
#043320:00000013
#043350:0000000000000023
#0443b0:13
#044380:0023000000000000
#048320:00130000002300000000000000000000
#048350:00000033000000000000000000000000
#052320:0000000000000000000000000000000000000000000000001454000000000000
#052330:00000000000000000000000000000000000000000000000000000000000000000000000000000000000000000000000000540000540000000000000000000000
#052340:00000000000000000000000000000000000000000000000000000000000000000000000000000000000000000000000000000054000054000000000000000000
#052350:00000000000000000000000000000000000000000000000000000000000000000000000000000000000000000000000000000000005400005400000000000000
#052360:00000000000000000000000000000000000000000000000000000000000000000000000000000000000000000000000000000000000000540000540000000000
#052370:00000000000000000000000000000000000000000000000000000000000000000000000000000000000000000000000000000000000000000054000054005400
#052380:00000000000000000000000000000000000000000000000000000000000000000000000000000000000000000000000000000000000000000000005400540054
#053370:5454545424000000000000000000000000000000000000000000000000000000
#053380:00540054005400540000000000000000000000000000000000000000000000000000000000000000000000000000000000000000000000000000000000000000
#0533a0:0000000000000000145400000000000000000000000000000000000000000000
#053390:00000000000000000000000000000000005400005400000000000000000000000000000000000000000000000000000000000000000000000000000000000000
#053380:00000000000000000000000000000000000000540000540000000000000000000000000000000000000000000000000000000000000000000000000000000000
#053370:00000000000000000000000000000000000000000054000054000000000000000000000000000000000000000000000000000000000000000000000000000000
#053360:00000000000000000000000000000000000000000000005400005400000000000000000000000000000000000000000000000000000000000000000000000000
#053350:00000000000000000000000000000000000000000000000000540000540054005400540054005400240000000000000000000000000000000000000000000000
#053340:00000000000000000000000000000000000000000000000000000054005400540054005400540054000000000000000000000000000000000000000000000000
#053321:0000000000000000000000000000000000000000135353535353230000000000
#053331:00000000000000000000000000000000000000000000000000000000000000000000000000000000005300530053005300530053000000000000000000000000
#0543b1:0000000000000000000000000000000000000000000000001353000000000000
#0543a1:00000000000000000000000000000000000000000000000000000000000000000000000000000000000000000000000000530000530000000000000000000000
#054391:00000000000000000000000000000000000000000000000000000000000000000000000000000000000000000000000000000053000053000000000000000000
#054381:00000000000000000000000000000000000000000000000000000000000000000000000000000000000000000000000000000000005300005300000000000000
#054371:00000000000000000000000000000000000000000000000000000000000000000000000000000000000000000000000000000000000000530000530000000000
#054361:00000000000000000000000000000000000000000000000000000000000000000000000000000000000000000000000000000000000000000053000053000000
#054351:00000000000000000000000000000000000000000000000000000000000000000000000000000000000000000000000000000000000000000000005300005300
#054341:00000000000000000000000000000000000000000000000000000000000000000000000000000000000000000000000000000000000000000000000000530053
#055351:5353535323000000000000000000000000000000000000000000000000000000
#055341:00530053005300530000000000000000000000000000000000000000000000000000000000000000000000000000000000000000000000000000000000000000
#055321:0000000000000000135300000000000000000000000000000000000000000000
#055331:00000000000000000000000000000000005300005300000000000000000000000000000000000000000000000000000000000000000000000000000000000000
#055341:00000000000000000000000000000000000000530000530000000000000000000000000000000000000000000000000000000000000000000000000000000000
#055351:00000000000000000000000000000000000000000053000053000000000000000000000000000000000000000000000000000000000000000000000000000000
#055361:00000000000000000000000000000000000000000000005300005300000000000000000000000000000000000000000000000000000000000000000000000000
#055371:00000000000000000000000000000000000000000000000000530000530053002300000000000000000000000000000000000000000000000000000000000000
#055381:00000000000000000000000000000000000000000000000000000053005300530000000000000000000000000000000000000000000000000000000000000000
#0553a1:0000000000000000000000000000000000000000000000001454000000000000
#055381:00000000000000000000000000000000000000000000000000000000000000000000000000000000000000000000000000540000000054000000000000000000
#055371:00000000000000000000000000000000000000000000000000000000000000000000000000000000000000000000000000000054000000000000000000000000
#055391:00000000000000000000000000540000
#055361:00000000000000000000000000000000000000000000000000000000000000000000000000000000000000000000000000000000005400002400000000000000
#055351:00000000000000000000000000000000000000000000000000000000000000000000000000000000000000000000000000000000000000540000000000000000
#055320:0000000000000014
#055340:00000000000000000000000000000000000000000000000000000000000000000000000000000000000000000000000000000000000000000054000054000000
#055330:0000000000000000000000000000000000000000000000000000000000540000
#055350:00000000000000000000000000000000000000000000000000000000000000000000000000000000000000000000000000000000000000000000005400005400
#055360:00000000000000000000000000000000000000000000000000000000000000000000000000000000000000000000000000000000000000000000000000540000
#055370:00000000000000000000000000000000000000000000000000000000000000000000000000000000000000000000000000000000000000000000000000000054
#056360:24
#0563a0:0000000000001454000000000000000000000000000000000000000000000000
#056390:00000000000000000000000000540000540000000000000000000000000000000000000000000000000000000000000000000000000000000000000000000000
#056380:00000000000000000000000000000054000054000000000000000000000000000000000000000000000000000000000000000000000000000000000000000000
#056370:00000000000000000000000000000000005400005400000000000000000000000000000000000000000000000000000000000000000000000000000000000000
#056360:00000000000000000000000000000000000000540000540024000000000000000000000000000000000000000000000000000000000000000000000000000000
#056350:00000000000000000000000000000000000000000054005400000000000000000000000000000000000000000000000000000000000000000000000000000000
#060350:00000016
#064350:00000026
#062321:00000000000000000000133300000000
#062351:00000023
#0623b1:00000000000000000000000000001333
#063381:23
#063351:0013000000000000
#063321:00000033230000000000000000000000
#0643b1:00000013
#065321:53230000
#065350:00130000
#065380:00005323
#065351:00000013
#0663b1:53230000
#066380:00130000
#066350:00005323
#066381:00000013
#067321:53230000
#067350:00130000
#0673b0:00005323
#069350:00000000000013230000000000000000
#073380:00000000000013230000000000000000
#077380:00000013
#0773b0:00000000000000000000000000530000
#0783b0:00330000
#078350:00000000005300002300000000000000
#078321:00130000
#078381:00000000005300002300000000000000
#0783b1:0000000000000000000000000000000000000000000000000000000000001353
#0783a1:00000000000000000000000000000000000000000000000000000000000000000000000000000000000000000000000000000000000000000000000000530053
#0793b1:5353230000000000000000000000000000000000000000000000000000000000
#0793a1:00530053000000000000000000000000000000000000000000000000000000000000000000000000000000000000000000000000000000000000000000000000
#0793a1:00140000
#079381:00000000000000000000000000000000005400005400000000000000000000000000000000000000000000000000000000000000000000000000000000000000
#079391:0000000000000000005400000000000000000000000000000000000000000000
#079371:00000000000000000000000000000000000000540000540000000000000000000000000000000000000000000000000000000000000000000000000000000000
#079361:00000000000000000000000000000000000000000054000024000000000000000000000000000000000000000000000000000000000000000000000000000000
#079351:00000000000000000000000000000000000000000000005400000000000000000000000000000000000000000000000000000000000000000000000000000000
#079320:0000001400000000
#079340:00000000000000000000000000000000000000000000000000540000540000000000000000000000000000000000000000000000000000000000000000000000
#079330:0000000000000000000000000054000000000000000000000000000000000000
#079350:00000000000000000000000000000000000000000000000000000054000054000000000000000000000000000000000000000000000000000000000000000000
#079360:00000000000000000000000000000000000000000000000000000000005400005400540054005400540054005400540024000000000000000000000000000000
#079370:00000000000000000000000000000000000000000000000000000000000000540054005400540054005400540054005400000000000000000000000000000000
#0803b0:00000013
#080350:0000000000000000000000000000000000000000000000000000000053535353
#080360:00000000000000000000000000000000000000000000000000000000000000000000000000000000000000000000000000000000000000000053005300530053
#081350:5353535323000000000000000000000000000000000000000000000000000000
#081360:00530053005300530000000000000000000000000000000000000000000000000000000000000000000000000000000000000000000000000000000000000000
#081380:00130000
#081320:0000000000000000000000005353535353535353535353532300000000000000
#081330:00000000000000000000000000000000000000000000000000530053005300530053005300530053005300530053005300000000000000000000000000000000
#082360:00000014000000000000000000000000
#0823a0:00000000005400002400000000000000
#082371:0013
#082321:0000000000532300
#086321:0000001c
#0913b1:00000053
#092321:26
