This file was generated by Ched 2.7.0.0.
#TITLE ""
#ARTIST ""
#DESIGNER ""
#DIFFICULTY 0
#PLAYLEVEL
#SONGID ""
#WAVE ""
#WAVEOFFSET 0
#JACKET ""
#REQUEST "ticks_per_beat 480"
#00002: 4
#BPM01: 145
#00008: 01
#TIL00: "0'0:1"
#VOLUME: ""
#HISPEED 00
#MEASUREHS 00
#00812:00000014
#00918:14
#00914:00140000
#0091a:0014
#00912:00000014
#01018:14
#0101a:00000014
#01114:14
#01118:00140000
#01112:0014
#0111a:00000014
#01214:14
#01218:00140000
#01212:0014
#01210:00000041
#01314:00140000
#01318:0014
#01312:00000014
#01418:14
#01414:00140000
#0141a:0014
#01412:00000014
#01518:14
#01514:00140014
#0151a:0014
#0161a:14
#01614:00140000
#01618:0014
#01812:00000014
#0191a:00140000
#01914:0014
#01918:00000014
#02012:14
#0201a:00140000
#02412:00000014
#02410:00000041
#02518:1414
#02512:00140000
#02514:00000014
#0261a:1414
#02614:00140000
#0291a:14
#02912:00140000
#02918:0014
#03012:00000014
#03118:14
#03114:00140000
#0311a:0014
#03112:00000014
#03318:14
#03314:00140000
#0331a:0014
#03412:00000014
#03518:14
#03514:00140000
#0351a:0014
#03212:00000014
#03718:14
#03714:00140000
#0371a:0014
#03812:00000014
#03918:14
#03914:00140000
#0391a:0014
#03912:00000014
#04118:14
#04114:00140000
#0411a:0014
#04212:00000014
#04318:14
#04314:00140000
#0431a:0014
#04012:00000014
#04814:00000000001400000000000000000000
#0481a:00000014
#04810:00000041
#04914:14
#0491a:00140000
#04912:00000014
#05018:14
#05012:00140000
#0501a:00000014
#05114:14
#0511a:00140000
#05113:00000014
#05219:14
#05213:00240000
#05718:1414
#05712:00140000
#05714:00000014
#0581a:1414
#05814:00140000
#05812:00000014
#05810:00000041
#05918:14
#05914:00140000
#0591a:0014
#05912:00000014
#06118:00140000
#06112:00000014
#0621a:00140000
#06214:00000014
#06318:00140000
#06312:00000014
#0641a:00140000
#06912:00140000
#06918:2414
#0691f:21
#06910:00000041
#07012:00000014
#07118:14
#07114:00140000
#0711a:0014
#07112:00000014
#07318:14
#07314:00140000
#0731a:0014
#07412:00000014
#07518:14
#07514:00140000
#0751a:0014
#07212:00000014
#07718:14
#07714:00140000
#0771a:0014
#07812:00140000
#07918:00140000
#07912:00000014
#08018:14
#08014:00140000
#0801a:0014
#08012:00000014
#08114:00140000
#08218:14
#08214:00140000
#0821a:0014
#08412:00000014
#08518:14
#08514:00140000
#0851a:0014
#09118:00000016
#0601f:00000011
#02814:00000024
#03612:00000024
#03610:00000041
#01852:00000014
#0135a:14
#0205a:00140000
#02854:00000014
#03258:00000014000000000000000000000000
#03252:00000014
#03652:00000014
#04058:00000014000000000000000000000000
#04052:00000014
#05253:00140000
#05952:00000054
#06958:14
#07252:00000014
#07258:00000014000000000000000000000000
#07854:00000014
#07852:00540000
#08052:00000054
#08154:00540000
#09158:00000026
#0003a0:001400000000000000000000
#001380:003400000000000000000000
#0023a0:003400000000000000000000
#003380:003400000000000000000000
#0043a0:003400000000000000000000
#0063a0:003400000000000000000000
#0083a0:0024
#010340:00142400
#0123a0:00000014
#0133a0:24
#016320:00000014
#017320:24
#017380:00142400
#017340:00000014
#018340:24
#0183a0:00142400
#020320:00000014
#021340:00340000
#021320:00000034
#022340:00240000
#0223a0:00000014
#023380:00340000
#0233a0:00000034
#024380:00240000
#026320:00000014
#027320:24
#027380:00142400
#027340:00000014
#028340:0034000000002400
#029340:00000014
#030320:24
#030380:00140000
#0303a0:0024
#032380:14000024000000000000000000000000
#033320:00000014
#034340:24
#0343a0:00140000
#034380:0024
#035320:00000014
#036340:00340000
#036320:00000024
#037340:00000014
#038320:24
#038380:00140000
#0383a0:0024
#040380:14000024000000000000000000000000
#041320:00000014
#042340:24
#0423a0:00140000
#042380:0024
#043340:00000014
#044320:00340000
#044340:00000024
#0453a0:00000000000000000014003424000000
#046340:00000000000000000014003424000000
#047380:00000000000000000014003424000000
#0523a0:00000014
#053380:00340000
#0533a0:00000034
#0543a0:00240000
#054320:00000014
#055340:00340000
#055320:00000034
#056320:34343424
#059320:00000014
#060340:00000024
#064340:00000014
#065320:00340034
#066340:00240000
#066380:00000014
#0673a0:00340034
#068380:00340034
#069380:24
#069340:00000014
#070320:24
#070380:00140000
#0703a0:0024
#072380:14000024000000000000000000000000
#073320:00000014
#074340:24
#0743a0:00140000
#074380:0024
#075320:00000014
#076340:00340000
#076320:00000024
#077320:00000014
#078320:00340000
#078340:00000024
#080320:00000014
#081340:00340000
#081320:00000024
#082320:00000014
#083320:24
#083380:00142400
#083340:00000014
#084340:24
#0843a0:00142400
#085320:00000000000000000000000014000034
#086320:0024000000000000
#086380:00000016
#091380:00000056
#092360:26
