This file was generated by Ched 2.7.0.0.
#TITLE ""
#ARTIST ""
#DESIGNER ""
#DIFFICULTY 0
#PLAYLEVEL
#SONGID ""
#WAVE ""
#WAVEOFFSET 0
#JACKET ""
#REQUEST "ticks_per_beat 480"
#00002: 4
#BPM01: 200
#00008: 01
#TIL00: ""
#VOLUME: ""
#HISPEED 00
#MEASUREHS 00
#03418:14
#03814:14
#04512:14
#0451a:14
#04614:14
#07918:0016
#0791f:21
#07912:26
#0051a:0000000000000014
#00612:0000000000000014
#00712:0000000000000014
#02318:14
#02414:14
#02518:14
#02614:14
#01514:14
#01618:14
#01714:14
#01818:14
#0211a:14
#02212:14
#04718:2616
#04710:41
#04812:1616
#04918:1616
#05012:1616
#05012:0016
#05418:0016
#05512:2616
#05618:1616
#05712:1616
#05818:1616
#05818:0016
#0661a:0000000000000014
#0661f:0000000000000011
#0671a:0000000000000014
#06812:0000000000000014
#06912:0000000000000014
#08712:0016
#08718:26
#08612:0016
#05118:16
#05912:16
#08212:16
#08218:0016
#08312:16
#09118:16
#09018:16
#09012:0016
#11312:0000000000160000
#10718:0000000000000016
#10212:0000000000000016
#10414:0000000000000016
#0041a:0000000000000024
#01112:0000000000000024
#0131a:24
#01310:41
#08010:41
#09310:41
#06110:41
#03110:41
#11352:0000000000660000
#10252:0000000000000056
#10454:0000000000000026
#0003a0:0000000000000014
#0013a0:0000000000000024
#002320:0000000000000014
#003320:0000000000000024
#0083a0:0000000000000014
#0113a0:24
#0133a0:14
#0143a0:24
#013321:14
#014321:24
#019341:14
#020341:24
#027381:14
#028381:24
#029341:14
#030341:24
#0313a1:14
#033381:24
#035321:14
#037341:24
#039381:14
#040381:24
#041341:14
#042341:24
#0433a1:14
#0443a1:24
#051321:0016
#052321:00360000
#053321:3600000000000026
#059381:0016
#060381:00360000
#061381:36
#062381:26
#062321:0000000016000036
#064321:0000000036000036
#065321:0000000000000024
#0703a1:0000000000000014
#0713a1:0000000000000024
#072321:0000000000000014
#074321:3400000000000024
#0753a1:0000000000000014
#0773a1:3400003400003400
#0783a1:0024
#080321:1626
#081381:1626
#083381:0016
#084381:00360000
#085381:3600000000000026
#088381:1626
#089321:1626
#091321:0016
#092321:00360000
#093321:36
#094321:26
#094381:0000000016000036
#096361:0000000036000036
#097381:00000036
#098361:0000000036000036
#100381:0000000000000026
#101321:0000000000000016
#102321:0000000036000036
#104341:0000000000000056
#106321:0000000000000026
#109321:1600003600003600
#113321:0000000000560000
#114321:00240000
