This file was generated by Ched 2.7.0.0.
#TITLE ""
#ARTIST ""
#DESIGNER ""
#DIFFICULTY 0
#PLAYLEVEL
#SONGID ""
#WAVE ""
#WAVEOFFSET 0
#JACKET ""
#REQUEST "ticks_per_beat 480"
#00002: 4
#BPM01: 200.0
#00008: 01
#TIL00: ""
#VOLUME: ""
#HISPEED 00
#MEASUREHS 00
#03616:00000013
#03619:0000001300000000
#0361b:00000013
#03612:13
#03617:23
#03317:0000001300000000
#0331b:13
#03312:0000001300001300
#03316:23
#0341b:2300131300000013
#03412:0000001300130000
#03416:13
#03516:13
#03519:0000001300000000
#03517:00000013
#0351b:23
#03117:13
#03114:0000001300000000
#03116:00000013
#0311b:0000000000000013
#03112:23
#03110:41
#02918:16
#02912:0013
#02915:00230023
#02718:16
#02712:1313
#02715:00230023
#02616:0000000000130000
#0261b:0000000013000013
#02812:16
#0281b:0013
#02818:00230023
#02517:0000000013130013
#02512:0000000013130013
#02416:0000000000000013
#0241b:0000001300130013
#02418:00130000
#02415:0013000000000000
#02412:13
#0221b:1313
#02218:0000001300000000
#02215:1313
#02212:0000001300000013
#02214:0013000000000000
#02219:00130000
#0221a:0013000000000000
#02213:00130000
#01716:0000000013130013
#0171b:0000000013130013
#01617:0000000000000013
#01612:0000001300130013
#01615:00130000
#01618:0013000000000000
#0161b:13
#0141b:2300000013000013
#01412:1313
#01415:0000001300000000
#01414:00130000
#01413:0013000000000000
#0141a:0023000000000000
#01419:00230000
#01418:0000002300000000
#0371b:0000001300001300
#03712:13
#03716:0000001300000000
#03717:23
#03214:0000001300000000
#03212:00000013
#03217:00000013
#03216:23
#04712:1300000013000013
#04716:00000013000000000000000000000000
#0471b:2300001313000000
#04717:00000000000000000000001300000000
#04710:41
#05112:1600130000000013
#05118:0013
#0511b:00000013
#0521b:0000131300000013
#05212:0000000000000013
#05315:1300001300000000
#0531b:0000001300000013
#05312:0000000000130000
#05318:23130000
#05516:00000000000000000000001300000000
#05512:2300001313000000
#05517:00000013000000000000000000000000
#0551b:1300000013000013
#05417:00130000000000001300000000000000
#05414:00000013
#05412:00131300
#05419:00000013
#0761b:00130013
#07616:00130000000000000000000000000000
#07612:00001313
#07512:0000130000001313
#07517:00130000000000000000000000000000
#0751b:0000000013001323
#0741b:0000000000000013
#07416:00000000000000000000001300000000
#07412:0000000013000023
#08716:24000014000014000000001400000000
#08712:0014
#0871a:1400000014000014
#08812:1400001400001400
#08816:0014140000140014
#0881a:1414
#09016:00140000000000001400000000000000
#09014:00000014
#0901a:00142400
#09018:00000024
#08916:0014001400140000
#08912:2400240000002424
#0891a:2400000024000024
#07916:00000014000014000000001400000000
#0791a:0014
#07912:1400000014000014
#0791f:21
#07918:26
#0801a:1400001400000014
#08016:0014140000141400
#08012:1414
#08010:41
#08116:0014001400140014
#08112:14242400
#0811a:00240024
#08316:0013
#0831b:1313
#08317:0000000000001313
#08312:1800130000000013
#08612:00130000000000002400000000000000
#0861b:00130000
#08616:0014
#08618:00000014
#08614:00000024
#08516:0000131300000013
#08517:1300000000130000
#08512:2300000000230000
#0851b:0000002300000023
#08412:0000131300000000
#08417:0000001300000000
#0841b:00130000000000000000000000000000
#08419:0000000000000013
#08414:0000000000000013
#09112:1313
#09117:0013
#09116:24000013
#0911b:00130000
#09216:13000000000000000013000000000000
#09212:0000001300000000
#0921b:13000000000000000013000000000000
#09217:0000131300000000
#0941b:0013
#09417:1300000000000023
#09412:1300000000001313
#09416:0013
#09413:0000000000000000000000000000000000000000000000000000000000130013
#09414:00000000000000000000000000000013
#09312:00000013000000000000000023000000
#0931b:23000000000000000013000000000000
#09316:23
#09318:0000002300000000
#09310:41
#10918:1600002600001600
#10912:2600001600002600
#10816:0013001300000000
#10817:0000000000130000
#1081b:0000001300000000
#10815:00000013
#10818:0000000000000013
#10717:00130000000000000000000000001300
#10716:00130000
#1071b:00130000
#10712:0000000000000023
#1061b:0000000000230013
#10617:0023000000000000
#10618:00230000
#10619:0000002300000000
#1061a:0023
#10612:0000000000230000
#10616:0000000000000023
#09817:00130000000000000000000000000000
#09812:0013230000000000
#09818:0000000000000026
#09816:0000000000230000
#0981b:0023
#10012:0000130000000013
#10014:0013000000000000
#10016:0013
#1001b:00130000
#10112:0000000013000023
#10116:00130000
#10114:0013000000000000
#09916:0000130000000013
#09912:0013
#09914:0013000000000000
#10216:00130000000000000000000000000000
#1021b:0013230000000000
#10213:000000000000000000000000000000000000000000000000000000000000000000000000000000000000001400140014
#10212:000000000000000000000000230000000000000000240014
#10214:000000000000000000000014
#10217:0000000000230000
#1041b:0000130000000013
#10418:0013000013000000
#10413:000014000000140000001400000014000000140000001400000014000000140000001400000014000000140000001400000014000000140000001400000014000000140000001400000014000000140000001400000000140000000000140000
#10414:140000001400000014000000140000001400000014000000140000001400000014000000140000001400000000140000
#10412:001400140014001400140014001400140014001400140000
#10518:0000130000000013
#1051b:0013000013000000
#10513:0014001400140014001400140014001400140014001400140014001400000000
#10514:00140014001400140014001400140000
#10512:1414141414141400
#0051b:0013000000000013
#00515:0000000013000013
#00512:00130000
#01118:1626000000000016
#01112:2616000000000026
#06217:0013
#0621b:1300000000001313
#06216:1300000000000023
#06212:0013
#0621a:0000000000000000000000000000000000000000000000000000000000130013
#06219:00000000000000000000000000000013
#10318:0000130000000013
#1031b:0013000013000000
#10313:001400140014001400140014001400140014001400140014001400140014001400140014001400140014001400140014
#10312:001400140014001400140014001400140014001400140014
#10314:141414141414141414141414
#08214:00000018
#08216:0018
#0821a:00140000
#08212:24
#06516:0013130000000013
#06512:0013
#0651b:0013
#06412:0013130000000013
#06416:0013
#06417:0000000000000013
#0641a:0013001300130013001300130013001300000000000000000000000000000000
#06419:00130013001300130000000000000000
#0641b:1313131313000000
#06316:0013130000000013
#06312:0013
#0631a:0013001300130013001300130013001300130013001300130013001300130013
#06319:00130013001300130013001300130013
#0631b:1313131313131313
#07718:1600000000131600
#07715:00130000
#07712:1400001600002400
#0771a:0000001400000000
#07218:0013000000000013
#07215:00130013
#07212:0000000000130000
#07115:0013000013001300
#07118:0000130000130000
#07112:0000001300000000
#07018:0013000000000000
#07012:0000000000002313
#06912:00000013
#0691b:0000000000000023
#06818:0000000000130000
#0681b:0000001300000000
#06815:0013000000000000
#06712:0000000000000013
#0671b:00000013
#06615:00130013
#06618:0000001300130000
#0661b:0000000013000023
#06612:0013000000000000
#0661f:0000000000000011
#02118:0000130000130013
#02115:0013001300001300
#0211b:1313
#02112:2313
#02312:0013000000001300
#02314:0000000000130000
#02316:0013
#02317:00000013
#02319:0000000000130000
#0231b:0013
#02318:0000001300000000
#02315:00130000
#0151b:0013000000001300
#01519:0000000000130000
#01517:0013
#01516:00000013
#01514:0000000000130000
#01512:0013
#01515:0000001300000000
#01518:00130000
#05814:00000013
#05816:0013
#05812:00130000000000000000000000000000
#05817:00130000000000000000000000000000
#0581b:0023
#05819:00000023
#06012:0000131300000000
#0601b:13
#05915:0013
#05912:00000013
#0591b:00130000
#05917:23
#05015:00000016
#05018:0016
#0501b:00130000
#05012:23130000
#05017:23
#03016:13
#03015:00130000
#03014:0013
#03013:00000013
#0301a:00130000
#03019:0013
#03018:00000013
#01315:0000002300001300
#0131b:2300000013130000
#01318:0000230000000013
#01312:2323000013000000
#01310:41
#0781a:00120000
#1131a:0014
#11317:0000000000130000
#05716:0000001300001313
#0571b:1300000013000023
#05717:0013000000130000
#05712:23130000
#05612:13130013
#05616:0000001300000013
#0561b:1300000000130000
#05617:0013
#0491b:00000013
#04912:0013
#04916:13000013
#04917:00130000
#04812:1300000000130000
#04816:0013
#0481b:13130013
#04817:0000001300000013
#0391b:0000001300000000
#03916:0000001300000000
#03912:23000013
#03917:13
#0381b:0013
#03814:00130013
#03816:0023
#03812:23
#03819:00230023
#04012:0000001300000000
#04017:0000001300000000
#0401b:23000013
#04016:13
#04116:00130000
#04117:13
#0411b:0013
#04118:000000000014
#04115:000014
#04112:2314
#00618:0000000013000013
#00612:0013000000000013
#0061b:00130000
#00715:0013
#0071b:0013000000000000
#00712:0000130000000013
#00818:0000000000130016
#0081b:0000001300000000
#00815:0013000000000000
#00812:0000000000000026
#01012:13001313
#01014:0000001300000000
#01016:00130000
#00916:0000000013130000
#00912:0013130000000013
#01815:0000000013000013
#01818:0000000000130000
#04212:13
#04217:00000000000000000013000000000000
#0421b:2300131300000000
#04216:0000001300001300
#0431b:13
#04312:23130000
#04314:0000000013000013
#04316:00000013
#04317:0000001300000000
#0441b:2300130000000013
#04419:0013
#04412:13
#04417:00000013
#04416:0000001300000000
#09616:0000000000000013
#09613:0013001300130013001300130013001300000000000000000000000000000000
#09614:00130013001300130000000000000000
#09612:1313131313000000
#0961b:0013130000000013
#09617:0013
#09712:00000000001300000000000000000000
#0971b:0000000013002323
#09717:0013130000000000
#09716:0000000000000023
#09513:0013001300130013001300130013001300130013001300130013001300130013
#09514:00130013001300130013001300130013
#09512:1313131313131313
#09517:0013130000000013
#0951b:0013
#06112:00000023
#06116:23
#0611b:2300002300000000
#06110:41
#0461a:00000022
#04618:0022
#04616:00220000
#04614:22
#00415:0000000000000026
#09052:00340000
#09056:00240000000000000000000000000000
#0905a:00440000
#08952:3400540034000054
#0895a:6400440064000044
#08956:0024002400240000
#0825a:44
#08252:54
#08152:54345434
#0815a:00644464
#08156:0024002400240024
#06157:00000013
#06152:0000001300000000
#0615b:13
#10752:0000000013000013
#10757:00230000000000001300000000005300
#10756:00630000
#1075b:00630000
#09357:00000013
#09355:0000001300000000
#09356:63
#09358:0000005300000000
#0935b:13000000000000000023000000000000
#09352:00000023000000000000000000000000
#0265b:00130000
#02656:0000130000630000
#02552:0000130000000053
#02557:0000130000000053
#01852:00130000
#01857:00130000
#01858:0000000000530000
#01855:0000000000000063
#0175b:0000130000000063
#01756:0000130000000063
#1025b:00630000
#10257:0000000000530000
#10256:00230000000000000000000000000000
#10253:000000000000000000000000000000000000000000000000000000000000000000000000000000000000005400540054
#10252:000000000000000000000000000000000000000000240024
#10254:000000000000000000000024
#10152:0000000013000053
#08756:14000024000000000000002400000000
#08752:0054
#0875a:64
#07452:0000000053000033
#0745b:0000000000000063
#07456:00000000000000000000002300000000
#0755b:0000000000000043
#07552:0000530000000053
#07557:00230000000000000000000000000000
#05552:1353
#05556:00000000000000000000002300000000
#05557:00000023000000000000000000000000
#0555b:63
#10958:0000001600005600
#10952:16000016
#0475b:1363
#04752:53
#04756:00000023000000000000000000000000
#04757:00000000000000000000002300000000
#00455:0000000000000016
#03656:00000063
#03652:53
#03357:0000002300000000
#0335b:63
#03352:00000053
#0345b:0000006300000000
#03452:0000000000530000
#03456:63
#03556:63
#0355b:13
#03157:53
#03152:13
#0315b:0000000000000023
#02958:56
#02758:56
#02852:66
#02456:0000000000000063
#0245b:0000000000000063
#0225b:0023
#02258:0000005300000000
#02255:0023
#02252:0000005300000000
#01657:0000000000000053
#01652:0000000000000053
#0145b:0023
#01452:0023
#01455:0000006300000000
#01458:0000005300000000
#05152:0000000000000053
#0525b:0000006300000000
#05355:6300001300000013
#0535b:0000002300000063
#05352:0000000000530000
#05358:0000000000130000
#05457:00230000000000000000000000000000
#0765b:00630000
#07656:00230000000000000000000000000000
#08852:0000002400005400
#08856:0024640000240024
#0885a:6464
#07956:00000024000000000000002400000000
#0795a:0064
#07952:54
#07958:16
#0805a:0000002400000024
#08056:0024540000245400
#08052:5454
#08356:0063
#0835b:63
#08357:0000000000000053
#08652:00230000000000000000000000000000
#08556:0000006300000063
#08557:5300000000530000
#08552:1300000000130000
#0855b:0000001300000013
#08452:0000005300000000
#08457:0000005300000000
#0845b:00230000000000000000000000000000
#09152:53
#09157:0053
#09256:63000000000000000023000000000000
#09252:0000005300000000
#0925b:00000000000000000023000000000000
#09257:0000005300000000
#0945b:00136300
#09457:5300000000000013
#09452:5300000000000023
#09456:00130000
#09453:0000000000000000000000000000000000000000000000000000000000530053
#09454:00000000000000000000000000000023
#10856:0000006300000000
#1085b:0000001300000000
#1065b:0000000000130063
#10652:0000000000130000
#10656:0000000000000013
#09857:00230000000000000000000000000000
#09858:0000000000000056
#09852:00530000
#09856:0000000000630000
#1005b:00230000
#10056:0013
#06457:0000000000000053
#06456:0013
#0645a:0063006300630063006300630063006300000000000000000000000000000000
#06459:00230023002300230000000000000000
#0645b:2323232363000000
#06256:6300000000000013
#0625b:6300000000000023
#06252:00135300
#06257:00130000
#0625a:0000000000000000000000000000000000000000000000000000000000630063
#06259:00000000000000000000000000000023
#06052:0000005300000000
#0605b:63
#0655b:0023
#06552:0013
#0785a:00220000
#0975b:0000000013000063
#09752:00000000002300000000000000000000
#07752:14000014
#07758:00000066
#0775a:0000001400000000
#1135a:0064
#11357:0000000000530000
#03752:53
#0375b:00000063
#03756:0000002300000000
#05652:00530053
#05656:0000002300000023
#0565b:6300000000230000
#05657:0053
#0495b:00001363
#04952:00135300
#04956:63000063
#04957:00530000
#04852:5300000000230000
#04856:0063
#0485b:00630063
#04857:0000002300000023
#05057:13
#05052:13
#06352:0013
#0635a:0063006300630063006300630063006300630063006300630063006300630063
#06359:00230023002300230023002300230023
#0635b:2323232323232323
#09952:0013
#1035b:0013
#10353:005400540054005400540054005400540054005400540054005400540054005400540054005400540054005400540054
#10352:002400240024002400240024002400240024002400240024
#10354:242424242424242424242424
#1055b:0013
#10553:0054005400540054005400540054005400540054005400540054005400000000
#10554:00240024002400240024002400240000
#10552:2424242424242400
#10458:0013
#10453:000054000000540000005400000054000000540000005400000054000000540000005400000054000000540000005400000054000000540000005400000054000000540000005400000054000000540000005400000000540000000000540000
#10454:240000002400000024000000240000002400000024000000240000002400000024000000240000002400000000240000
#10452:002400240024002400240024002400240024002400240000
#0395b:0000002300000000
#03957:53
#03952:13
#04052:0000002300000000
#04056:63
#04157:53
#00555:0000000000000013
#00658:0000000000000013
#0085b:0000001300000000
#00858:0000000000000056
#00852:0000000000000016
#00752:0000000000000013
#04252:53
#04257:00000000000000000023000000000000
#0425b:0000006300000000
#0435b:63
#04357:0000002300000000
#04352:13
#04555:0013
#04558:0013
#04452:53
#04457:00000053
#04456:0000002300000000
#0445b:0000000000000023
#0125b:00000013
#01252:00000013
#0575b:6300430063000063
#05757:0023000000230000
#05752:33533300
#05756:0000002300000063
#0585b:00430000
#05856:00430000
#05852:00230000000000000000000000000000
#05857:00230000000000000000000000000000
#03257:00000053
#09656:0000000000000063
#09653:0053005300530053005300530053005300000000000000000000000000000000
#09654:00230023002300230000000000000000
#09652:2323232353000000
#09657:0013
#09553:0053005300530053005300530053005300530053005300530053005300530053
#09554:00230023002300230023002300230023
#09552:2323232323232323
#0955b:0013
#0003a0:0000000000000012
#0013a0:0022
#001341:00122200
#001341:0000000000000012
#002341:0022
#0023a0:00122200
#0023c0:0000000000000012
#0033c0:0022
#003361:00122200
#003321:0000000000000012
#004321:0022
#004380:00122200
#0053b0:00132300
#006320:00132300
#0073b0:00132300
#007380:0000000000000013
#0083b0:0023000000000000
#008350:0000001300000000
#008320:0000000000230000
#008380:0000000000000016
#0103b0:00000023
#012390:0013003300330000
#0123b0:00333323
#012341:0013003300330000
#012321:00333323
#014351:0000001300230000
#014321:0053
#014380:0000001300230000
#0143b0:0053
#014320:0000000000000013
#015350:0023000000000000
#0163b0:0000001300000000
#016380:0000000000230000
#016370:0000000000000013
#0173b0:00230000
#016321:0000000000000013
#017361:00230000
#017361:0000000000000013
#018321:00230000
#0173b0:0000000000000013
#018370:00230000
#018380:0000000000130000
#0183b0:0000000000000023
#018351:0000000000000013
#019321:0023000000000000
#0193b0:0012220000000000
#019331:0000122200000000
#0193a0:0000001222000000
#019341:0000000012220000
#019390:0000000000122200
#019351:0000000000001222
#019380:0000000000000012
#020380:22
#020361:12000022
#020380:0000001200002200
#022320:0000001300230000
#022350:0053
#022381:0000001300230000
#0223b1:0053
#0223b1:0000000000000013
#023381:0023000000000000
#024321:0000001300000000
#024351:0000000000230000
#024361:0000000000000013
#025321:00230000
#0243b0:0000000000000013
#025370:00230000
#025370:0000000000000013
#0263b0:00230000
#025321:0000000000000013
#026361:00230000
#026361:0000000000130000
#026321:0000000000000023
#027381:16
#0283b1:23
#028320:16
#029320:23
#029381:16
#0303b1:23
#031371:13
#0313b1:0000000000000053
#032371:00000033
#0333b1:33000023
#033371:0000005300000000
#033320:00000013
#034360:33
#034320:00230000
#0343b0:0000001300000000
#034370:0000000000230000
#034321:0000000000130000
#034361:0000000000000023
#035361:13
#036321:53
#036361:00000033
#037321:33000023
#037361:0000005300000000
#0373b0:00000013
#038370:23
#039370:13000023
#0393b0:0000005300000000
#040360:13000023
#040320:0000005300000000
#041370:13
#0413b0:00230000
#042320:13
#042360:00230000
#0423b0:0000001300002300
#042370:00000000000000000053000000000000
#0433b0:13000023
#043370:0000005300000000
#044320:13000023
#044360:0000005300000000
#044371:00000013
#0443b1:0000000000000053
#045381:3323
#045350:1323
#047320:1300002300000000
#047360:00000053000000000000000000000000
#0473b0:0000000013000023
#047370:00000000000000000000005300000000
#048320:13
#048360:00230000
#0483b1:00132300
#048371:0000005300000000
#048360:00001323
#048320:0000000000530000
#0483b1:00000013
#048371:0000000000000053
#0493b1:23
#049360:13
#049320:00230000
#049371:00130000
#0493b1:0023
#049320:0013
#049360:00000033
#050320:23
#0493b1:00000013
#050371:23
#0513b1:13230000
#051321:00001323
#051321:0000000000000013
#052351:00000023
#0523b0:0000001300000000
#052380:00000023
#053350:13
#053320:00230000
#0533b0:0000001300000000
#053380:0000000000230000
#053321:0000000000130000
#053351:0000000000000023
#0533b0:0000000000000013
#054370:00530000000000000000000000000000
#0543b0:00230000
#0553b0:1300002300000000
#055370:00000053000000000000000000000000
#055320:0000000013000023
#055360:00000000000000000000005300000000
#0563b0:13
#056370:00230000
#056321:00132300
#056361:0000005300000000
#056370:00001323
#0563b0:0000000000530000
#056321:00000013
#056361:0000000000000053
#057321:23
#0573b0:13230000
#057370:0053000000000000
#057321:00132300
#057361:0000005300000000
#0573b0:00001323
#057370:0000000000530000
#0573b0:0000000000000013
#058370:00530000000000000000000000000000
#0583b0:00230000
#057361:0000000000000013
#058321:00530000000000000000000000000000
#058361:00230000
#059321:13230000
#0593b1:00001323
#0603b1:13
#060381:00000023
#060320:0000001300000000
#060350:00000023
#061360:13
#061320:0000002300000000
#0613b1:0000001300000000
#061371:00000023
#062361:13
#062321:00230000
#0623b0:13
#062370:00230000
#062320:0013
#062360:0000000000000023
#0623b1:0000000000000013
#0623a1:0000000000000000000000000000000000000000000000000000000000530053
#062391:00000000000000000000000000000053
#0633b1:5353535353535353
#0633a1:0053005300530053005300530053005300530053005300530053005300530053
#063391:00530053005300530053005300530053
#0643b1:5353535333000000
#0643a1:0053005300530053005300530053005300000000000000000000000000000000
#064391:00530053005300530000000000000000
#064371:0000000000000033
#0653b1:0053
#066371:0023000000000000
#066321:0000000000000013
#067351:0023000000000000
#0673b0:0013230000000000
#067321:0000132300000000
#067380:0000001323000000
#067351:0013
#067321:00000023
#067381:0000000000000013
#068381:0023000000000000
#068351:0000001300230000
#0683b1:0000000000000013
#069381:0023000000000000
#069320:0013230000000000
#0693b1:0000132300000000
#069350:0000001323000000
#069381:0013
#0693b1:00000023
#069351:0000000000000013
#070351:0023000000000000
#070321:0000132300000000
#0703b0:0000001323000000
#070351:0000000013230000
#070380:0000000000132300
#0703b0:0000000000000013
#071380:0023000000000000
#071320:0000000000000013
#072350:0023000000000000
#0723b0:0000001300000000
#072380:0000000000230000
#0733b0:0013333323000000
#0733a0:00000033003300330000000000000000
#073361:0013
#073341:00000000000000000033000023000000
#073351:0000000000330000
#073331:00000000000000000000003300000000
#0733a0:00000000000000000000000013000033
#0733b0:00000000000000000000000000330000
#073390:0000000000000033
#074380:23
#074351:13
#074331:00330000230000000000000000000000
#074341:0033000000000000
#074321:00000033000000000000000000000000
#074390:00000000130000330000000000000000
#0743a0:00000000003300000000000000000000
#074380:0000003300000000
#074370:0023
#074321:0000000013000023
#074361:00000000000000000000005300000000
#0743b0:0000000000000013
#075370:00530000000000000000000000000000
#0753b0:00230000
#075321:00130000
#075361:0023
#075321:0000000000000013
#076361:00530000000000000000000000000000
#076321:00230000
#0763b0:00130000
#076370:0023
#077380:00000016
#0783a0:00520000
#079380:26
#079321:1400002400000000
#079361:00000054000000000000000000000000
#0793a1:0000000014000024
#079361:00000000000000000000005400000000
#080321:14240000
#080361:0054000000000000
#080360:00142400
#0803a0:0000005400000000
#080321:00001424
#080361:0000000000540000
#080360:00000014
#0803a0:0000000000000054
#081360:24
#081321:14240000
#081361:0054000000000000
#0813a0:00142400
#081360:0000005400000000
#081321:00001424
#081361:0000000000540000
#0813a0:00000014
#081360:0000000000000054
#0823a0:24
#082321:14
#082361:00240000
#0833b1:13
#083371:00230000
#083361:0013
#083321:00000023
#083371:0000000000000013
#0843b1:00530000000000000000000023000000
#084371:0000333300000000
#084320:0000001300000000
#084360:00000023
#085370:13
#0853b0:00230000
#085360:0000001300000000
#085320:0000000000230000
#085371:0000000000130000
#0853b1:0000000000000023
#085360:0000000000000013
#086320:00530000000000000000000000000000
#086360:00230000
#0873a0:1400002400000000
#087360:00000054000000000000000000000000
#087320:0000000014000024
#087360:00000000000000000000005400000000
#0883a0:14240000
#088360:0054000000000000
#088361:00142400
#088321:0000005400000000
#0883a0:00001424
#088360:0000000000540000
#088321:00000014
#088361:0000000000000054
#089321:24
#0893a0:14240000
#089360:0054000000000000
#089321:00142400
#089361:0000005400000000
#0893a0:00001424
#089360:0000000000540000
#089320:0000000000000014
#090360:00540000000000000000000000000000
#090320:00240000
#091320:13
#091360:00230000
#091370:0013
#0913b0:00000023
#092360:13000000000000000053000000000000
#092320:0000333300002300
#092371:0000001300002300
#0923b1:00000000000000000053000000000000
#093361:13
#093321:00000053000000000000000000000000
#093351:0000002300000000
#093380:0000001300000000
#0933b0:00000000000000000053000000000000
#093370:00000023
#094370:13
#0943b0:00230000
#094321:13
#094361:00230000
#0943b1:0013
#094371:0000000000000023
#094320:0000000000000013
#094330:0000000000000000000000000000000000000000000000000000000000530053
#094340:00000000000000000000000000000053
#095320:5353535353535353
#095330:0053005300530053005300530053005300530053005300530053005300530053
#095340:00530053005300530053005300530053
#096320:5353535333000000
#096330:0053005300530053005300530053005300000000000000000000000000000000
#096340:00530053005300530000000000000000
#096360:0000000000000033
#097320:00000000005300000000000000000000
#097360:00000023
#0973b0:0000000000000013
#098370:00530000000000000000000000000000
#0983b0:00230000
#098321:00130000
#098361:0023
#0983b0:0000000013230000
#098361:0000000000130000
#098321:0000000000000023
#098380:0000000000000016
#1003b0:00530000
#101380:0000000000000026
#101321:0000000000000013
#102361:00530000000000000000000000000000
#102321:00230000
#1023b0:00130000
#102370:0023
#102321:0000000013230000
#102370:0000000000130000
#1023b0:0000000000000023
#102321:000000000000000000000000000000000000000000140054
#102331:000000000000000000000000000000000000000000000000000000000000000000000000000000000000005400540054
#102341:000000000000000000000054
#103341:545454545454545454545454
#103331:005400540054005400540054005400540054005400540054005400540054005400540054005400540054005400540054
#103321:005400540054005400540054005400540054005400540054
#104341:540000005400000054000000540000005400000054000000540000005400000054000000540000005400000000540000
#104331:000054000000540000005400000054000000540000005400000054000000540000005400000054000000540000005400000054000000540000005400000054000000540000005400000054000000540000005400000000540000000000540000
#104321:005400540054005400540054005400540054005400540000
#105321:5454545454545400
#105331:0054005400540054005400540054005400540054005400540054005400000000
#105341:00540054005400540054005400540000
#106321:0000000000230000
#1063b1:0000000000000013
#107371:00530000000000002300000000000000
#1073b1:00330000
#107360:00130000
#107320:0023
#107370:0000000000000013
#1083b0:0023000000000000
#108360:0000001300000000
#108320:0000000000230000
#109380:00000016
#1133a0:0054
#113370:0000000000530000
#1143c0:00220000
