This file was generated by Ched 2.7.0.0.
#TITLE ""
#ARTIST ""
#DESIGNER ""
#DIFFICULTY 0
#PLAYLEVEL
#SONGID ""
#WAVE ""
#WAVEOFFSET 0
#JACKET ""
#REQUEST "ticks_per_beat 480"
#00002: 4
#BPM01: 200
#00008: 01
#TIL00: ""
#VOLUME: ""
#HISPEED 00
#MEASUREHS 00
#03316:13
#0331b:00000013
#03112:13
#03116:0000000000000013
#03110:41
#05218:0000001300000000
#05215:0000000000000013
#05115:0000000000000013
#05112:0013
#05118:16000013
#0511b:0013
#08412:00130000000000000000000000000000
#08415:0000000000000013
#0841b:00000000000000000013000000000000
#08418:0000001300000000
#09118:0013
#09112:0013
#09116:24
#01112:2414000000000024
#0111a:1424000000000014
#08318:00000013
#0831b:0013
#08312:1613
#08315:0000000000000013
#08215:00000016
#08218:0016
#0821a:24
#07912:0000001400000014
#0791a:0014
#0791f:21
#07914:28
#0761b:00000013
#07612:00000013
#01718:0000000000130000
#01715:0013
#01712:0000000000000013
#01615:00130000
#01618:0013000000000000
#0161b:1300000000000013
#01518:0000001300001300
#01515:0000130000130000
#01512:0013
#05418:00000013
#05415:0013
#05012:00000016
#05018:0016
#05015:23
#0501b:23
#04118:000000140014
#04114:000014
#04115:13
#03012:13
#03015:00130000
#03018:0013
#0301b:00000013
#01312:0013001300000000
#01315:0000000000130013
#0131b:23230000
#01318:00002323
#01310:41
#0661f:0000000000000011
#06618:00130013
#06615:0000001300130000
#0661b:0013
#07715:1600001600001600
#03916:0000001300000000
#03912:13
#03819:0013
#03815:00130000
#03813:00000013
#0381b:13
#03814:0023
#03816:23
#0381a:00230000
#03818:00000023
#04017:0000001300000000
#0401b:13
#00515:0000000000000013
#00512:0013000000000000
#0061b:0013000000000000
#00618:0000000000000013
#00918:0000000013130000
#00915:0000000000000013
#0091b:0013130000000000
#01018:00000013
#01015:1313
#0101b:0000001300000000
#01012:00130000
#04212:13
#0421b:00000013
#08512:0000130000000023
#0851b:2300000000000023
#08518:0000002300000000
#08515:0000000000230000
#00712:0013000000000000
#01418:0000001300000000
#01415:0000001300000000
#0141b:2300000000000013
#01818:0013
#01815:0000000000130000
#0191b:0013000000000000
#01912:00130000
#0191a:0000001300000000
#01913:0013
#01919:0000000000130000
#01914:00000013
#01918:0000000000000013
#02218:00130000
#02215:0013000000000000
#02212:1300000000000013
#0221b:0000001300000000
#02115:00001313
#02118:0000000000130013
#02112:23130000
#0211b:0013001300000000
#02418:00130000
#02415:0013000000000000
#02412:1300000000000013
#02315:0000001300001300
#02318:0000130000130000
#0231b:0013
#02515:0000000000130000
#02518:0013
#0251b:0000000000000013
#02615:0013
#0261b:0000000000130000
#02617:0000000000000013
#03415:0000130000000013
#03418:1300001300000000
#04317:13
#04316:0000000000000013
#05318:2300001300000000
#05315:0000130000130000
#0531b:0000000000000013
#04718:0013
#04715:0000001300000013
#0471b:23
#04712:23
#04710:41
#04818:13
#04812:00130000
#0481b:00000013
#04912:00130000
#04918:00130000
#04913:0013
#04919:0013
#04914:00000013
#0491a:00000013
#05515:0013
#05518:0000001300000013
#05512:23
#0551b:23
#05718:00130000
#05715:2313
#0571b:00000013
#05712:0000000000000023
#05612:13
#0561b:0013
#06915:00000013
#06218:13000013
#0621b:0013
#06212:0013
#06215:0000000000000013
#06018:1300001300000000
#06015:00130000
#07115:0013001300000000
#07118:00130013
#07112:0000000000130000
#0711b:0013
#0801a:1414
#08017:00140014
#08010:41
#0871a:0000001400000014
#08712:0014
#08716:24
#08812:1414
#08815:00140014
#09218:00130000
#09215:0000001300000000
#0921b:13
#09212:13
#05912:0013
#05918:23
#09415:13000013
#09412:0013
#0941b:0013
#09418:0000000000000013
#0961b:0013
#09617:0000000000000013
#09818:0000000000000013
#09812:0000000000000013
#09815:00130000000000002300230000000000
#0981b:00130000000000002300230000000000
#10217:00140000000000002400240000000000
#10212:00140000000000002400240000000000
#10215:0000000000000014
#1021a:0000000000000014
#10417:0000000000000014
#10412:0000000000000014
#02812:13
#0291b:13
#06412:0013
#06416:0000000000000013
#10015:0013000000000000
#1001b:0013000000000000
#03212:00000013
#0361b:00000013
#03617:13
#0351b:13
#07816:00140000
#03717:13000013
#03712:00000013
#0751b:00000013
#07516:0000000000000024
#1131b:0000000000130000
#10815:0000001300000000
#10718:0000000000000013
#10715:00130000
#1071b:00130000
#10912:2600001600002600
#10918:1600002600001600
#09012:00240024
#0901a:00242400
#0461a:00000022
#04616:0022
#04618:00220000
#04614:22
#00414:0000000000000028
#08612:0024
#0861a:00000024
#08114:00240000
#08118:0024
#08112:00000024
#00812:0000000000000026
#0581b:0023
#05812:00000023
#06114:24000024
#06118:0000002400000000
#06110:41
#07416:0000000000000024
#08912:2400000000000024
#08918:00240000
#08914:0024
#0891a:00000024
#09318:24000024
#09314:0000002400000000
#09310:41
#09712:0000000000002323
#09718:0000000000002323
#10115:0000000000000024
#1011a:0000000000000024
#08756:14
#08752:0054
#0475b:13
#04752:13
#04758:0053
#00454:0000000000000018
#03356:63
#03152:53
#03156:0000000000000023
#05258:0000005300000000
#05155:0000000000000063
#08452:00230000000000000000000000000000
#0845b:00000000000000000023000000000000
#08458:0000005300000000
#09158:0053
#09152:0053
#0855b:1300000000000013
#08558:0000001300000000
#08555:0000000000130000
#08552:0000000000000013
#03956:0000002300000000
#03952:53
#04057:0000002300000000
#0405b:63
#00555:0000000000000013
#04252:53
#0425b:00000063
#04552:0013
#0455b:0013
#00658:0000000000000013
#00852:0000000000000016
#01252:00000013
#0125b:00000013
#01458:0000005300000000
#01455:0000006300000000
#0145b:0000000000000063
#0165b:0000000000000063
#01757:00130000
#01752:0000000000000053
#01856:00130000
#01855:0000000000630000
#0225b:0000006300000000
#02252:0000000000000053
#02452:0000000000000053
#0255b:0000000000000063
#02556:00130000
#02657:0000130000000053
#0265b:0000000000630000
#04357:53
#04356:0000000000000063
#05358:0000001300000000
#05355:0000000000130000
#0535b:0000000000000063
#05552:13
#0555b:13
#05555:0063
#04852:00530000
#0485b:00000063
#05055:13
#0505b:13
#05758:00130000
#05755:1313
#05752:0000000000000053
#05652:53
#0565b:0063
#05855:00130000
#06258:53
#06255:0000000000000063
#06058:0000005300000000
#06154:14000014
#06158:0000001400000000
#07456:0000000000000014
#0805a:6464
#08057:00540054
#0795a:0064
#07954:18
#08154:00140000
#08158:0014
#08152:00000014
#0825a:14
#08355:0000000000000063
#08852:5454
#08855:00640064
#08952:1400000000000014
#08958:00140000
#08954:0014
#0905a:00140000
#09052:00140000
#09255:0000006300000000
#05952:0053
#09455:63
#09458:0000000000000053
#09358:14000014
#09354:0000001400000000
#09752:0000000000000053
#09758:0000000000000053
#10155:0000000000000064
#1015a:0000000000000064
#0985b:00230000000000000000630000000000
#09855:00230000000000000000630000000000
#09858:0000000000000053
#09852:0000000000000053
#0965b:0063
#09657:0000000000000053
#10257:00240000000000000000540000000000
#10252:00240000000000000000540000000000
#10255:0000000000000064
#1025a:0000000000000064
#10655:0000000000000014
#1065a:0000000000000014
#10457:0000000000000024
#10452:0000000000000024
#02852:53
#0295b:63
#06452:0053
#06456:0000000000000063
#10055:0023000000000000
#1005b:0023000000000000
#03252:00000053
#03458:0000005300000000
#0365b:00000063
#03657:53
#0355b:63
#07856:00240000
#07755:00000066
#03757:53
#07556:0000000000000014
#10852:0000000000130000
#1085b:0013000000000000
#10855:0000006300000000
#10752:0013
#10758:0000000013000053
#10755:00630000
#1075b:00630000
#1135b:0000000000630000
#10958:00000056
#0003a0:0000000000000012
#0013a0:00322200
#001340:0000000000000012
#002340:00322200
#0023c0:0000000000000012
#0033c0:00322200
#003320:0000000000000012
#004320:00322200
#005380:00132300
#006350:00132300
#007380:00132300
#007350:0000000000000013
#008320:0023000000000000
#008380:0000001300000000
#0083b0:0000000000230000
#012330:0013003300330000
#012320:00333323
#0123a1:0013003300330000
#0123b1:00333323
#0143b1:1300000000230000
#0143a1:0033000000000000
#014391:00330000
#014381:0000003300000000
#014320:1300000000230000
#014330:0033000000000000
#014340:00330000
#014350:0000003300000000
#0143b0:0000000000000013
#015380:0023000000000000
#016320:0000001300000000
#016350:0000000000230000
#0163b0:0000000000000013
#017370:00230000
#017320:0000000000000013
#018360:00230000
#018350:0000000000130000
#018320:0000000000000023
#020350:13000023
#020381:0000001300002300
#0223b1:0000001300000000
#022381:0000000000230000
#022321:0000000000000013
#023351:0023000000000000
#0243b1:0000001300000000
#024381:0000000000230000
#024321:0000000000000013
#025361:00230000
#0253b1:0000000000000013
#026371:00230000
#0263b1:0000000000130000
#026371:0000000000000033
#0273b1:00000023
#028321:13
#028351:00000023
#0293b1:13
#029381:00000023
#031321:13
#031361:0000000000000053
#032321:00000033
#033361:33
#033321:0023
#034381:0000001300000000
#0343b1:0000000000230000
#0353b1:13
#036371:53
#0363b1:00000033
#037371:33
#0373b1:0023
#039321:13000023
#039361:0000005300000000
#0403b1:13000023
#040371:0000005300000000
#042321:13
#042361:0000332300000000
#0423b1:00000013
#043371:33
#0433b1:00000023
#043361:0000000000000013
#044321:00000023
#045321:1323
#0453b0:1323
#047380:0013
#0473b0:00000023
#048320:00130000
#048350:0023
#0483b0:00000013
#049380:23
#051350:0000000000000013
#052320:00230000
#052380:0000001300000000
#0523b0:00000023
#0533b0:0000000000000013
#054380:00230000
#055350:0013
#055320:00000023
#056320:13
#056350:00230000
#0563b0:0013
#056380:00000023
#057320:0000000000000013
#058350:00230000
#059320:0013
#059350:00000023
#060380:0000001300000000
#0603b0:00000023
#062380:13
#0623b0:00230000
#062350:0000000000000013
#064320:0033
#064360:0000000000000033
#066320:0023000000000000
#066320:0000000000000013
#067350:0033000000000000
#067330:00330000
#067340:0000003300000000
#067320:0023
#067380:0000000000000013
#068380:0023000000000000
#068350:0000001300230000
#0683b0:0000000000000013
#069380:0033000000000000
#0693a0:00330000
#069390:0000003300000000
#0693b0:0023
#0693b0:0000000000000013
#0703b0:0033000000000000
#070390:0000330000330000
#0703a0:0000003300000000
#070380:0000000033000023
#070370:00000033
#071320:0000000000000013
#072350:0033003300000000
#072330:00330000
#072320:0000000000330023
#072340:00000033
#0733a0:0014343434000000
#073390:00000034003400340000340034000000
#073380:00000000000000000034003400003400
#073370:00000000000000000000000000340034
#074380:34
#074360:00340034000034003400000000002400
#074370:0034340000000000
#074350:00000000003400340000000000000000
#075380:00130000
#0753b0:0023
#075321:00130000
#075351:0023
#076351:00130000
#076321:0023
#0763b0:00130000
#076380:0023
#077350:00000016
#078360:00540000
#079340:28
#0793a0:0014
#079370:00000024
#0803a0:1434
#080370:00340034
#0813a0:24
#083350:0000000000000013
#084320:00530000000000000000000000000000
#084350:00230000
#084380:0000001300002300
#0843b0:00000000000000000053000000000000
#087320:0014
#087350:00000024
#088320:1434
#088350:00340034
#089320:24
#091380:0013
#0913b0:00000023
#091321:0013
#091351:00000023
#092351:0000001300000000
#092321:00000023
#094351:13
#094321:00230000
#094381:0000000000000013
#0963b1:0033
#096371:0000000000000033
#0973b1:0023
#097321:0000000000000013
#098351:00530000000000000000000000000000
#098321:00230000
#097380:0000000000000013
#0983b0:00530000000000000000000000000000
#098380:00230000
#0983b0:0000000000130000
#098380:0000000000000033
#1003b0:0053000000000000
#101380:0023
#098351:0000000000130000
#098321:0000000000000033
#100351:0053000000000000
#101321:0023
#101351:0000000000000014
#102321:00540000000000000000000000000000
#102351:00240000
#1013a0:0000000000000014
#102370:00540000000000000000000000000000
#1023a0:00240000
#102370:0000000000140000
#1023a0:0000000000000034
#104370:0000000000000054
#1063a0:0000000000000024
#102321:0000000000140000
#102351:0000000000000034
#104321:0000000000000054
#106351:0000000000000024
#107351:00130000
#107321:0023
#1073b0:00130000
#107380:0023
#107380:0000000000000013
#1083b0:0023000000000000
#108350:0000001300000000
#108320:0000000000230000
#109380:00000016
#1133b0:0000000000530000
#114370:00220000
