This file was generated by Ched 2.7.0.0.
#TITLE ""
#ARTIST ""
#DESIGNER ""
#DIFFICULTY 0
#PLAYLEVEL
#SONGID ""
#WAVE ""
#WAVEOFFSET 0
#JACKET ""
#REQUEST "ticks_per_beat 480"
#00002: 4
#BPM01: 200
#00008: 01
#TIL00: "45'0:0.01, 44'0:0.9, 44'210:0.8, 44'420:0.7, 44'630:0.6, 44'840:0.5, 44'1050:0.4, 44'1260:0.3, 44'1470:0.2, 44'1680:0.1, 44'105:0.85, 44'315:0.75, 44'525:0.65, 44'735:0.55, 44'945:0.45, 44'1155:0.35, 44'1365:0.25, 44'1575:0.15, 45'1464:0.9, 45'1368:0.7, 45'1272:0.5, 45'1176:0.3, 45'1080:0.1, 45'1224:0.4, 45'1128:0.2, 45'1416:0.8, 45'1320:0.6, 45'1512:1"
#VOLUME: ""
#HISPEED 00
#MEASUREHS 00
#03117:13
#03116:0000131300000000
#03114:0000000000131300
#0311b:0013
#03112:23
#03110:41
#02518:0000000000000013
#02515:0000000000000013
#02516:00130000000000000000130000000000
#0251b:00130000000000000000130000000000
#02517:0013
#02512:0013
#03216:0000131300000000
#03212:2300000000131300
#0321b:0000001300000000
#03217:13000013
#07912:1300000000140000
#07918:0014
#0791a:0000140000140000
#07913:0000001400000014
#07914:0014
#07919:0000001400000014
#07916:0014000000000000
#0791f:21
#07915:26
#01118:1626000000000016
#01112:2616000000000026
#09812:0013000000230000
#09817:0000130000000000000000000000000023000000230000000000000000000014
#09816:00000000230000000000000000002414
#09815:0000000000000000000000000000000000000000000000000000000000140000
#09416:0013
#09414:0000001300000000
#09419:0000000000130000
#09417:0000000000001323
#09415:0013000000000000
#09418:00000013000000000000000000000000
#09412:0000230000002313
#0941b:2323
#08412:0013001300001300
#0841b:0000130000130013
#08416:0000130013000013
#08417:1300001300001300
#0831b:0013000013001313
#08312:1400130000130000
#08317:13
#08316:0000000013000013
#06514:0013130000001313
#06512:0013
#06517:0013
#07715:1600161600161600
#07712:13000023
#0771b:0000001300000000
#07615:00000000000013000000001300001600
#07612:0013230000001300
#07618:0000000000130000
#0761b:1323
#0261b:00130000000000001300000000000000
#02612:00130000000000001300000000001300
#02617:0000000000130000
#02114:00130000
#02116:0000001300000000
#02112:2313000000000000
#02119:0013000000130000001300000013000000000000000000001300000000000000
#0211b:0000001300000013000000130000001300000000130000000000000000000000
#02117:0000000000000013
#0211a:13131313131313130000000000000000
#02214:0013000000000000
#0221b:0000131300000013
#02219:0013000000000000
#02216:0000131300000013
#02217:1313
#02212:0013
#01717:00130000000000000000130000000000
#01712:00130000000000000000130000000000
#01716:0013
#0171b:0013
#01612:0013130000000000
#01616:1300000000000013
#0161b:1300000000000013
#01617:00000013000000000000000000000000
#01517:00131313
#0151b:0013001300130000
#01512:00001313
#01516:0000000000130000
#01417:0000000000000013
#01412:0000130013000013
#01415:1313001300000000
#0141b:00231300
#01418:2323002300000000
#05216:0000000000000013
#0521b:0013000013000013
#05219:00130013
#05214:00130013
#05217:0000001300000000
#05212:1300001300130000
#0511b:0000130013000013
#05116:1800000013000013
#05112:13000013
#0501a:0014
#05018:00000016
#0501b:23130000
#05012:23130000
#05016:0013
#05014:00000013
#04212:23131313
#04217:13000013
#04216:0000001300000000
#0421b:0013001300130000
#04118:000000000016
#04115:000016
#04112:1316
#0411b:23130000
#04116:0013000000000000
#04117:0000001300000000
#0301a:00130000
#03019:0013
#03018:00000013
#0301b:13
#03012:13131313
#03017:0013000000000000
#03016:0000001300000000
#03015:0000000000130000
#03014:0000000000000013
#0661f:0000000000000011
#06615:0000000000000023
#10918:1600002600001600
#10912:2600001600002600
#10915:0000160000160000
#07817:00120000
#03817:0013
#03814:00130013
#03812:0023
#03819:00230023
#03816:23
#00117:0012000000000000
#00114:00000012
#00217:0012000000000000
#0021a:00000012
#00314:0012000000000000
#00317:00000012
#0041a:0012000000000000
#00417:00000012
#00412:000000000000002c
#00512:0000130000130013
#00517:0000001300001313
#0051b:0013130000000000
#00516:0013
#00612:0013130000000000
#0061b:0000130000130013
#00616:0000001300001313
#00617:0013
#0071b:0013130000000000
#00712:0000130000131300
#00716:0013
#00717:0000001300000013
#0081b:0013130000000000
#00812:0000000000131316
#00816:0000001300000000
#00818:0000000000000026
#0091b:00231300
#00917:0013000000230013
#0101b:1300131300001300
#01015:00001300000000001300001300000000
#01018:00000013000000000000130000000000
#01012:0000131300000013
#01315:1313001300001300
#01312:0000130013130013
#01318:2323002300002300
#0131b:0000230023230023
#01310:41
#01916:0000120000000012
#0191a:0012000000000000
#01912:0000001200000000
#01817:0012
#01812:0012
#04718:0013
#04715:0013
#04712:1300001300000013
#0471b:2300131300000013
#04716:0013000000000000
#04710:41
#05412:00130000
#0541b:0013130000000000
#05415:00000000000013001300001300001300
#05418:00000000000000130000130013000013
#05416:13
#05517:0013000000000000
#05516:00130000
#0551b:1300000000000013
#05519:0000001300000000
#05512:2300000023000013
#05514:0000001300000000
#04815:0013
#04812:1300000000130000
#04817:0000130000000013
#0481b:1300001300001300
#04816:0013000000000000
#05618:0013
#05616:0000130000000013
#0561b:1300000000130000
#05612:1300001300001300
#05617:0013000000000000
#0571b:1300000000002323
#05719:0013
#05714:00130000
#05712:2300000000001313
#05716:0023
#05717:00230000
#05817:0013000000000000
#0581b:00131300
#05816:1323
#05812:00130000
#05819:00000013
#0581a:0000000000130000
#05818:0000000000000013
#05815:00000000000000000000000000000013
#05814:00000023
#06015:00000013
#06018:0000000000000013
#0601b:0013000000000000
#06017:1300001300000000
#06012:1300131300000000
#0641b:0000000000001313
#06416:0013
#06412:00000000000000000000001300000000
#06414:0013130000000000
#0751b:0013000000000000
#07512:1300000000000023
#07516:0000000000130000
#07517:0000001300000013
#07519:00230023
#07514:0023
#07416:0000000000000013
#0741b:0000000013000023
#07412:00000023
#06212:1313
#06216:0013000000001323
#0621b:0000130000001313
#06214:0000000000130000
#06217:0000001300000000
#11112:00160000
#11316:0013
#11312:0000000000130000
#11317:00000000000000000000130000000012
#1131b:0013
#1131c:00000000000000000000000000000012
#03412:1300001300000000
#0341b:0000130000130000
#03417:2300001300001300
#03416:0000000013000013
#03917:0000131300000000
#0391b:2300000000131300
#03916:13
#03912:0000001300000000
#04012:2300000000131300
#04016:0000131300000000
#04017:13
#0401b:0000001300000000
#08615:00000000000013000000001300001300
#08618:00000000000000130000130000000013
#08612:0013130024000000
#0861b:00130000
#08617:13
#0861a:00000024
#09318:0013002600130013
#09315:00000000130000001300000000000013
#0931b:13000013
#09312:2600001300002600
#09310:41
#09619:0013130000000000
#09612:0000000000001313
#0961b:00000000000000000000001300000000
#09617:0013
#0951b:0000000013001313
#09519:0013130000000000
#09517:00000000000000000000001300000000
#0241b:0013130000000000
#02417:1300000000000013
#02412:1300000000000013
#02416:00000013000000000000000000000000
#02316:00131313
#02312:0013001300130000
#0231b:00001313
#02317:0000000000130000
#06316:00000000000000000000001300000000
#06312:0000000013001313
#06314:0013130000000000
#11218:00000014
#0271b:1300001300130000
#02715:0000000000000013
#02712:19
#02718:00230023
#02812:1300001300130000
#02818:0000000000000013
#02815:19230023
#0291b:1300001300130000
#02915:0000000000000013
#02912:19
#02918:00230023
#06816:0014001400140000
#06812:00130013
#0681b:00230023
#06716:0000000000000014
#0671b:00230000
#06712:00000023
#07212:1300231300002300
#07216:0013
#07117:13
#07116:0000000000000013
#0711b:00230023
#0701b:0000000000000013
#07016:00000023
#04317:00130013
#04312:00130013
#04316:1313
#0431b:2313
#04916:00131300
#0491b:13000013
#04912:00000013
#10112:0000000000001323
#1011b:0013000000000023
#10115:0014000000140000001400000014000000140000001400000000000000000000
#10116:14141414141414141414141400000000
#10117:0000001400000014000000140000001400000014000000140000000000000000
#1001b:0000000000001313
#10012:0013000000000000
#10015:0014000000140000001400000014000000140000001400000014000000140000
#10016:14141414141414141414141414141414
#10017:0000001400000014000000140000001400000014000000140000001400000014
#09912:0000000000001313
#09915:0014000000140000001400000014000000140000001400000014000000140000
#09916:14141414141414141414141414141414
#0991b:0013000000000000
#09917:0000001400000014000000140000001400000014000000140000001400000014
#1021b:0013000000230000
#10216:00130000000000002300230000000000
#10219:0000000000000000000000000000000000000000000000000000000000140014
#10218:00000000000000000000000000000014
#10217:00230000
#1021a:0000000000000024
#10315:00000000001300000000000000000000001400000000000000000000000000000000000000000000
#10317:00000000000000000000000000140000000000000000000000000000000013000000000000000000
#1031a:1414140000000013
#10316:00000000000000000000000014000014000014000000000000000000000000000000000000000000
#10318:0000000000140000000000000000001400000000000014000000000014000000000000000000000000000000000000000000000000000000000000000000000000000000000000000000000000000000
#10314:0000000000000000000000000000000000000000000000000000000000000000140000000000140000000000001400000000000000000014000000000000000000140000000000000000001400000000
#10313:0000000000000000000000000000000000140014001400140014001400140014
#10312:0000000014141414
#10319:0014001400140014000000000000000000000000000000000000000000000000
#0611b:2300002300001300
#06117:0013000000130013
#06116:00131300
#06112:2300002300002300
#06110:41
#10418:0000000000000000000013000000000000000000000000000000000000000000140000000000140000000000001400000000000000000014000000000000000000140000000000000000001400000000
#10413:0014001400140014000000000000000000000000000000000000000013000000
#10416:00000000000000000000000014000014000014000000000000000000000013000000000000000000
#10412:1414140000000000
#10414:0000000000140000000000000000001400000000000014000000000014000000000000000000000000000000000000000000000000000000000000000000000000000000000000000000000000000000
#10415:00000000000000000000000000140000000000000000000000000000000000000000000000000000
#10417:00000000000000000000000000000000001400000000000000000000000000000000000000000000
#10419:0000000000000000000000000000000000140014001400140014001400140014
#1041a:0000000014141414
#10515:00000000001300000000000000000000001400000000000000000000000000000000000000000000
#10517:00000000000000000000000000140000000000000000000000000000000013000000000000000000
#1051a:1414140000000013
#10516:00000000000000000000000014000014000014000000000000000000000000000000000000000000
#10518:0000000000140000000000000000001400000000000014000000000014000000000000000000000000000000000000000000000000000000000000000000000000000000000000000000000000000000
#10514:0000000000000000000000000000000000000000000000000000000000000000140000000000140000000000001400000000000000000014000000000000000000140000000000000000001400000000
#10519:0014001400140014000000000000000000000000000000000000000000000000
#10513:0000000000000000000000000000000000140014001400140014001400140014
#10512:0000000014141414
#10612:1414141414000023
#10613:0014001400140014001400140014001400140014000000000000000000000000
#10614:00140014001400140014000000000000
#1061b:0000000000000013
#1061a:0024000000240000
#10618:00242400
#10616:0000002400000000
#10815:0000000000001313
#10818:00000000000000000000000000130013
#1081b:0000131300000000
#10816:0013131300000000
#10817:0000000000130000
#09716:00130000000000000000000000002300
#0971b:0000130013000023
#09719:0013000000000000
#09717:00000023
#08212:00141816
#0821a:00140000
#0821b:0013
#08219:00000013
#08012:14000014
#0801a:14
#08016:0014140000000014
#08019:0000001400000000
#08018:0014
#08013:0000000000140000
#08010:41
#08716:0014140000000000
#0871a:1400001400000014
#08712:2400001400000014
#0871c:0022
#09012:00142414
#0901a:00141424
#09018:00000000000000120000000000001200
#09016:14001400000012000000140000000012
#09218:0000000000000013
#09215:00000013
#0921b:1300001300000000
#09216:00130000
#09212:1300001300000000
#09217:0013000000000000
#09117:0013000000001300
#0911b:1313
#09116:0000130000130000
#09112:2413
#08812:14
#08816:0014140000000014
#08813:0000001400000000
#08814:0014
#08819:0000000000140000
#0881a:14000014
#08912:0000140000001414
#0891a:0000000014002424
#08916:24242400
#0851b:0000001300000013
#08512:1300002800130028
#08516:2813140000280000
#05317:1300001300001300
#05317:13
#0531b:0000000000130000
#05316:0000130000130000
#05312:2300001300000013
#0811a:00142424
#08115:0000001400000000
#08117:000000000000000000000000000000000000000000000000000000000000000000000000000000000000000000000000000000000000000000000000000000000000000000000000000000000000000000000000000000000000000000000000000000000000000000000000000000000000000000000000000000000000000000000000000000000000000000000000000000000000000000000000000000000000000000000000000000000000000000000000000000000000000000000000000000000000000000000000000000000000000000000000000000000000000000000000000000000000000000000000000000000000000000000000000000000000000000000000000000000000000000000000000000000000000000000000000000000000000000000000000000000000000000000000000000000000000000000000000000000000000000000000000000000000000000000000000000000000000000000000000000000000000000000000000000000000000000000000000000000000000000000000000000000000000000000000000000000000000000000000000000000000000000000000000000000000000000000000000000000000000000000000000000000000000000000000000000000000000000000000000000000000000000000000000000000000000000000000000000000000000000000000000000000000000000000000000000000000000000000000000000000000000000000000000000000000000000000000000000000000000000000000000000000000000000000000000000000000000000000000000000000000000000000000000000000000000000000000000000000000000000000000000000000000000000000000000000000000000000000000000000000000000000000000000000000000000000000000000000000000000000000000000000000000000000000000000000000000000000000000000000000000000000000000000000000000000000000000000000000000000000000000000000000000000000000000000000000000000000000000000000000000000000000000000000000000000000000000000000000000000000000000000000000000000000000000000000000000000000000000000000000000000000000000000000000000000000000000000000000000000000000000000000000000000000000000000000000000000000000000000000000000000000000000000000000000000000000000000000000000000000000000000000000000000000000000000000000000000000000000000000000000000000000000000000000000000000000000000000000000000000000000000000000000000000000000000000000000000000000000000000000000000000000000000000000000000000000000000000000000000000000000000000000000000000000000000000000000000000000000000000000000000000000000000000000000000000000000000000000000000000000000000000000000000000000000000000000000000000000000000000000000000000000000000000000000000000000000000000000000000000000000000000000000000000000000000000000000000000000000140000000000000000000000000000000000000000000000000000000000000000000000000000000000000000000000000000000000000000000000000000000000000000000000000000000000000000000000000000000000000000000000000000000000000000000000000000000000000000000000000000000000000000000000000000000000000000000000000000000000000000000000000000000000000000000000000000000000000000000000000000000000000000000000000000000000000000000000000000000000000000000000000000000000000000000000000000000000000000000000000000000000000000000000000000000000000000000000000000000000000000000000000000000000000000000000000000000000000000000000000000000000000000000000000000000000000000000000000000000000000000000000000000000000000000000000000000000000000000000000000000000000000000000000000000000000000000000000000000000000000000000000000000000000000000000000000000000000000000000000000000000000000000000000000000000000000000000000000000000000000000000000000000000000000000000000000000000000000000000000121200000000000000000000000000000000000000000000000000000000000000000000000000000000000000000000000000000000000000000000000000000000000000000000000000000000000000000000000000000000000000000000000000000000000000000000000000000000000000000000000000000000000000000000000000000000000000000000000000000000000000000000000000000000000000000000000000000000000000000000000000000000000000000000000000000000000000000000000000000000000000000000000000000000000000000000000000000000000000000000
#08112:00242414
#05912:23131300
#0591b:13000013
#05917:0013
#10712:0013130000001323
#10717:1300000000131313
#1071b:00131300
#10716:0000001300000000
#03717:2300000000000013
#0371b:0000000000131300
#03719:0000131300000000
#03712:13
#03716:0000001300000000
#0361b:2300000000131300
#03617:0000131300000000
#03612:0000001300000000
#03616:13000013
#03519:0000000000131300
#03517:0000131300000000
#03512:0013
#03516:13
#0351b:23
#03314:0000131300000000
#03312:0000000000131300
#0331b:13
#03317:0000001300000000
#03316:2300000000000013
#0201c:22
#06916:0000000000000023
#0691b:00000023
#06912:00230000
#04613:22
#04615:00220000
#04617:0022
#0461b:22
#04619:00000022
#08752:14
#08756:0024000000000000
#0875a:64
#00452:000000000000001c
#03157:53
#03152:33
#0315b:0023
#02558:0000000000000053
#02555:0000000000000063
#0255b:00230000000000000000000000000000
#02556:00230000000000000000000000000000
#02552:00330000
#02557:00330000
#07952:5300000000240000
#07958:0064
#07955:16
#0795a:0000000000240000
#07954:0054
#07956:0024000000000000
#06256:0023000000000013
#06252:53330000
#0625b:4300630000000063
#06257:0000002300000000
#07857:00220000
#07755:00000066
#07752:13000013
#0775b:0000001300000000
#06552:0013
#06557:0023
#0435b:13
#00557:0000002300000043
#0055b:00630000
#00656:0000002300000033
#00652:00530000
#00757:0000002300000043
#0075b:00630000
#00856:0000003300000000
#00852:0000000000000066
#00858:0000000000000016
#01152:0036000000000036
#01158:4600000000000046
#0095b:00130000
#00957:0000000000130000
#0105b:13
#01452:0000000023000053
#0145b:0023
#01455:0000005300000000
#01458:0000006300000000
#0265b:00230000000000000000000000000000
#02652:00230000000000000000000000000000
#02657:0000000000530000
#02658:00130000
#02655:00130000
#04758:0063
#04755:0053
#0475b:13
#04756:0023000000000000
#04752:53
#05156:0000000000000063
#05152:53
#0515b:0063
#05557:0023000000000000
#0555b:63
#05552:13
#05257:0000005300000000
#05252:23
#0525b:0023
#04855:0063
#04852:5300000000230000
#04857:0000530000000023
#0485b:0000002300006300
#04856:0023000000000000
#05658:0053
#05656:0000630000000023
#0565b:6300000000230000
#05652:0000002300005300
#05657:0023000000000000
#05752:3300000000003353
#0575b:4300000000000043
#05759:0043
#05754:00330000
#0585b:00430000
#05856:23
#05852:00330000
#0745b:0000000063000043
#07456:0000000000000063
#07552:2300000000000033
#07557:0000000000000053
#10958:0000004600006600
#10952:36000036
#11152:00260000
#11357:00000000000000000000530000000022
#11352:0000000000530000
#11356:0063
#1135b:0063
#1135c:00000000000000000000000000000022
#03452:5300005300000000
#0345b:0000000000630000
#03456:0023
#03457:00000023
#03857:0043
#03854:00330033
#0385b:43
#03956:63
#0395b:43
#03952:0000002300000000
#04057:53
#0405b:0000002300000000
#04257:53000053
#04256:0000006300000000
#0425b:0023000000000000
#04252:0023
#0415b:00630000
#04152:53
#04156:0023000000000000
#04157:0000002300000000
#09352:36000036
#09358:0000004600000000
#0955b:0013
#09557:00000000000000000000002300000000
#09457:0000000000000013
#09452:0000000000000053
#0975b:0000000013000063
#09756:00230000000000000000000000000000
#01656:0000000000000063
#0165b:6300000000000063
#01657:00000023000000000000000000000000
#01756:00430000
#0175b:00430000
#01752:00230000000000000000000000000000
#01757:00230000000000000000000000000000
#0185b:00430000
#01852:00330000
#0225b:0000006300000063
#02252:0023
#02256:0000006300000000
#02257:0023
#02457:0000000000000053
#02452:5300000000000053
#02456:00000023000000000000000000000000
#0215a:63636363636363630000000000000000
#0215b:0000002300000023000000230000002300000000000000000000000000000000
#02159:0023000000230000002300000023000000000000000000000000000000000000
#03052:53535353
#03057:0023000000000000
#03056:0000002300000000
#03055:0000000000230000
#03054:0000000000000023
#0325b:0000002300000000
#03257:53000053
#06356:00000000000000000000002300000000
#06352:0013
#0645b:0000000013000063
#06456:0063
#06452:00000000000000000000002300000000
#0615b:6300004300006300
#06152:3300005300003300
#06157:0023000000000023
#06156:0023
#11258:00000054
#06655:0000000000000013
#07252:2300005300000000
#07256:0023
#06956:0000000000000013
#07056:00000013
#0705b:0000000000000063
#07157:23
#07156:0000000000000063
#0495b:53001363
#04956:00536300
#04952:00130053
#05052:13
#0505b:13
#05056:0033
#05054:00000033
#09857:0000230000000000000000000000000000000000530000000000000000000024
#09856:00000000630000000000000000005454
#0985b:0000000000000013
#09855:0000000000000000000000000000000000000000000000000000000000240000
#10256:00230000000000000000630000000000
#10257:00530000
#10252:0000000000000013
#1025a:0000000000000024
#10259:0000000000000000000000000000000000000000000000000000000000540054
#10258:00000000000000000000000000000024
#10152:0000000013000053
#10155:0024000000240000002400000024000000240000002400000000000000000000
#10156:54545454545454545454545400000000
#10157:0000002400000024000000240000002400000024000000240000000000000000
#1005b:0013
#10055:0024000000240000002400000024000000240000002400000024000000240000
#10056:54545454545454545454545454545454
#10057:0000002400000024000000240000002400000024000000240000002400000024
#09952:0013
#09955:0024000000240000002400000024000000240000002400000024000000240000
#09956:54545454545454545454545454545454
#09957:0000002400000024000000240000002400000024000000240000002400000024
#1035b:0013
#10356:00000000000000000000000024000054000024000000000000000000000000000000000000000000
#10354:0000000000000000000000000000000000000000000000000000000000000000240000000000540000000000002400000000000000000024000000000000000000240000000000000000002400000000
#10358:0000000000240000000000000000002400000000000054000000000024000000000000000000000000000000000000000000000000000000000000000000000000000000000000000000000000000000
#1035a:2424240000000000
#10357:00000000000000000000000000540000000000000000000000000000000000000000000000000000
#10355:00000000000000000000000000000000005400000000000000000000000000000000000000000000
#10353:0000000000000000000000000000000000640064006400640064006400640064
#10352:0000000024242424
#10359:0054005400540054000000000000000000000000000000000000000000000000
#10452:2424240013000000
#10456:00000000000000000000000024000064000024000000000000000000000000000000000000000000
#10454:0000000000240000000000000000002400000000000064000000000024000000000000000000000000000000000000000000000000000000000000000000000000000000000000000000000000000000
#10455:00000000000000000000000000640000000000000000000000000000000000000000000000000000
#10458:0000000000000000000000000000000000000000000000000000000000000000240000000000640000000000002400000000000000000024000000000000000000240000000000000000002400000000
#10457:00000000000000000000000000000000006400000000000000000000000000000000000000000000
#10453:0064006400640064000000000000000000000000000000000000000000000000
#10459:0000000000000000000000000000000000540054005400540054005400540054
#1045a:0000000024242424
#1055b:0013
#1055a:2424240000000000
#10556:00000000000000000000000024000054000024000000000000000000000000000000000000000000
#10558:0000000000240000000000000000002400000000000054000000000024000000000000000000000000000000000000000000000000000000000000000000000000000000000000000000000000000000
#10557:00000000000000000000000000540000000000000000000000000000000000000000000000000000
#10554:0000000000000000000000000000000000000000000000000000000000000000240000000000540000000000002400000000000000000024000000000000000000240000000000000000002400000000
#10555:00000000000000000000000000000000005400000000000000000000000000000000000000000000
#10559:0054005400540054000000000000000000000000000000000000000000000000
#10553:0000000000000000000000000000000000640064006400640064006400640064
#10552:0000000024242424
#10652:2424242424340013
#10653:0064006400640064006400640064006400640064000000000000000000000000
#10654:00240024002400240024000000000000
#1065a:0000000000440000
#1065b:0000000000000063
#02752:69
#02855:59
#01252:00000032
#0125c:00000042
#0965b:00000000000000000000002300000000
#09657:0053
#09652:0000000013000053
#0765b:23
#0835b:0023000000000063
#08357:53
#08352:0000000000230000
#08356:0063
#09052:00340000
#0905a:00440000
#09056:24
#0805a:64440000
#08056:0024540000004424
#08059:0000002400000000
#08058:0064
#08053:0000000000240000
#08052:34000054
#08054:0034
#02952:69
#09156:0000000000230000
#09152:0053
#0915b:63
#09157:0023000000000000
#0925b:6300006300000000
#09252:0000005300000000
#09257:0023000000000000
#08852:54340000
#08856:0024640000003424
#08853:0000002400000000
#08854:0054
#08859:0000000000240000
#0885a:44000064
#08858:0044
#08956:44344400
#08952:0000340000003454
#0895a:4400000044000044
#0855b:0000000000000063
#08552:5300003800000038
#08556:4823440000480000
#05357:5300004300002300
#0535b:0000000000630043
#05356:0000330000330000
#05352:3300000000000053
#05456:23
#08452:0000005300000000
#08456:0023
#08457:23
#08657:23
#08252:34
#0825a:44
#0825b:0043
#08259:00000043
#0815a:00644464
#08155:0000002400000000
#08157:000000000000000000000000000000000000000000000000000000000000000000000000000000000000000000000000000000000000000000000000000000000000000000000000000000000000000000000000000000000000000000000000000000000000000000000000000000000000000000000000000000000000000000000000000000000000000000000000000000000000000000000000000000000000000000000000000000000000000000000000000000000000000000000000000000000000000000000000000000000000000000000000000000000000000000000000000000000000000000000000000000000000000000000000000000000000000000000000000000000000000000000000000000000000000000000000000000000000000000000000000000000000000000000000000000000000000000000000000000000000000000000000000000000000000000000000000000000000000000000000000000000000000000000000000000000000000000000000000000000000000000000000000000000000000000000000000000000000000000000000000000000000000000000000000000000000000000000000000000000000000000000000000000000000000000000000000000000000000000000000000000000000000000000000000000000000000000000000000000000000000000000000000000000000000000000000000000000000000000000000000000000000000000000000000000000000000000000000000000000000000000000000000000000000000000000000000000000000000000000000000000000000000000000000000000000000000000000000000000000000000000000000000000000000000000000000000000000000000000000000000000000000000000000000000000000000000000000000000000000000000000000000000000000000000000000000000000000000000000000000000000000000000000000000000000000000000000000000000000000000000000000000000000000000000000000000000000000000000000000000000000000000000000000000000000000000000000000000000000000000000000000000000000000000000000000000000000000000000000000000000000000000000000000000000000000000000000000000000000000000000000000000000000000000000000000000000000000000000000000000000000000000000000000000000000000000000000000000000000000000000000000000000000000000000000000000000000000000000000000000000000000000000000000000000000000000000000000000000000000000000000000000000000000000000000000000000000000000000000000000000000000000000000000000000000000000000000000000000000000000000000000000000000000000000000000000000000000000000000000000000000000000000000000000000000000000000000000000000000000000000000000000000000000000000000000000000000000000000000000000000000000000000000000000000000000000000000000000000000000000000000000000000000000000000000000000000000000000000000000000240000000000000000000000000000000000000000000000000000000000000000000000000000000000000000000000000000000000000000000000000000000000000000000000000000000000000000000000000000000000000000000000000000000000000000000000000000000000000000000000000000000000000000000000000000000000000000000000000000000000000000000000000000000000000000000000000000000000000000000000000000000000000000000000000000000000000000000000000000000000000000000000000000000000000000000000000000000000000000000000000000000000000000000000000000000000000000000000000000000000000000000000000000000000000000000000000000000000000000000000000000000000000000000000000000000000000000000000000000000000000000000000000000000000000000000000000000000000000000000000000000000000000000000000000000000000000000000000000000000000000000000000000000000000000000000000000000000000000000000000000000000000000000000000000000000000000000000000000000000000000000000000000000000000000000000000000000000000000000000000222200000000000000000000000000000000000000000000000000000000000000000000000000000000000000000000000000000000000000000000000000000000000000000000000000000000000000000000000000000000000000000000000000000000000000000000000000000000000000000000000000000000000000000000000000000000000000000000000000000000000000000000000000000000000000000000000000000000000000000000000000000000000000000000000000000000000000000000000000000000000000000000000000000000000000000000000000000000000000000000
#08152:00345454
#05952:0053
#0595b:63
#0605b:0023000000000000
#06057:5300005300000000
#06052:0000005300000000
#10752:0000530033000013
#10757:2300000000000053
#10756:0000002300000000
#1085b:0000001300000000
#10856:0000006300000000
#03757:0000000000000023
#0375b:00000063
#03752:53
#03756:0000002300000000
#0355b:43
#03552:0023
#03556:63
#03652:0000002300000000
#03656:63000063
#0335b:63
#03357:0000002300000000
#03352:00000053
#03356:0000000000000023
#0455b:13
#04552:13
#0003c0:0000000000000012
#0013c0:0000000000000022
#001341:00122200
#001321:0000000000000012
#002321:0000000000000022
#0023a0:00122200
#0023c0:0000000000000012
#0033c0:0000000000000022
#003371:00122200
#003321:0000000000000012
#004321:0000000000000000000000000000000000000000000000000000000000000000000000000000000000000000000000000000000000000000000000000000000000000000000000000000000000000000000000000000000000000000000000000000000000000000000000000000000000000000000000000000000000000000000000000000000000000000000000000000000000000000000000000000000000000000000000000000000000000000000000000000000000000000000000000000000000000000000000000000000000000000000000000000000000000000000000000000000000000000000000000000000000000000000000000000000000000000000000000000000000000000000000000000000000000000000000000000000000000000000000000000000000000000000000000000000000000000000000000000000000000000000000000000000000000000000000000000000000000000000000000000000000000000000000000000000000000000000000000000000000000000000000000000000000000000000000000000000000000000000000000000000000000000000000000000000000000000000000000000000000000000000000000000000000000000000000000000000000000000000000000000000000000000000000000000000000000000000000000000000000000000000000000000000000000000000000000000000000000000000000000000000000000000000000000000000000000000000000000000000000000000000000000000000000000000000000000000000000000000000000000000000000000000000000000000000000000000000000000000000000000000000000000000000000000000000000000000000000000000000000000000000000000000000000000000000000000000000000000000000000000000000000000000000000000000000000000000000000000000000000000000000000000000000000000000000000000000000000000000000000000000000000000000000000000000000000000000000000000000000000000000000000000000000000000000000000000000000000000000000000000000000000000000000000000000000000000000000000000000000000000000000000000000000000000000000000000000000000000000000000000000000000000000000000000000000000000000000000000000000000000000000000000000000000000000000000000000000000000000000000000000000000000000000000000000000000000000000000000000000000000000000000000000000000000000000000000000000000000000000000000000000000000000000000000000000000000000000000000000000000000000000000000000000000000000000000000000000000000000000000000000000000000000000000000000000000000000000000000000000000000000000000000000000000000000000000000000000000000000000000000000000000000000000000000000000000000000000000000000000000000000000000000000000000000000000000000000000000000000000000000000000000000000000000000000000000000000000000000000000000000000000000000000000000000000000000000000000000000000000000000000000000000000000000000000000000000000000000000000000000000000000000000000000000000000000000000000000000000000000000000000000000000000000000000000000000000000000000000000000000000000000000000000000000000000000000000000000000000000000000000000000000000000000000000000000000000000000000000000000000000000000000000000000000000000000000000000000000000000000000000000000000000000000000000000000000000000000000000000000000000000000000000000000000000000000000000000000000000000000000000000000000000000000000000000000000000000000000000000000000000000000000000000000000000000000000000000000000000000000000000000000000000000000000000000000000000000000000000000000000000000000000000000000000000000000000000000000000000000000000000000000000000000000000000000000000000000000000000000000000000000000000000000000000000000000000000000000000000000000000000000000000000000000000000000000000000000000000000000000000522c0000000000000000000000000000000000000000000000000000000000000000000000000000000000000000000000000000000000000000000000000000000000000000000000000000000000000000000000000000000000000000000000000000000000000000000000000000000000000000000000000000000000000000000000000000000000000000000000000000000000000000000000000000000000000000000000000000000000000000000000000000000000000000000000000000000000000000000000000000000000000000000000000000000000000000000000000000000000000000000000
#004370:00122200
#0053b1:00132300
#005371:0000005300000000
#006321:00132300
#006361:0000005300000000
#0073b1:00132300
#007371:0000005300000000
#007321:0000000000000013
#008361:0023000000000000
#0083b1:0000001300000000
#008371:0000000000230000
#008321:0000000000000016
#010321:23
#012361:0012000000000000
#012341:0000320000320000
#012351:0000003200000000
#012331:0032
#012321:00000022
#012380:0012000000000000
#0123a0:0000320000320000
#012390:0000003200000000
#0123b0:0032
#0123c0:00000022
#014350:0000001300230000
#0143b0:0053
#014381:0000001300230000
#014321:0053
#014321:0000000000000013
#015361:0033002300000000
#015321:00330000
#0163b1:1300002300000000
#016371:00000053000000000000000000000000
#016360:0000001300000000
#016320:00000000000000530000230000000000
#016371:0000000000130000
#0163b1:00000000000000000000005300003300
#017371:00530000000000000000000000000000
#0173b1:00230000
#016360:0000000000000013
#017320:00530000000000000000000000000000
#017360:00230000
#017320:0000000000000013
#0183b0:00230000
#0173b1:0000000000000013
#018321:00230000
#018371:0000000000120000
#0183c1:0000000000000022
#018370:0000000000000012
#019320:0022000000000000
#019380:0000000012220000
#019341:0000000000122200
#0193a0:0000000000001222
#020320:1200003200002200
#0203c1:12
#0203b1:0000000000000052005200000000000000000000000000000000000000000000000000000000000000000000000000000000000000000000000000000000000000000000000000000000000000000000000000000000000000000000000000000000000000000000000000000000000000000000000000000000000000000000
#020391:0000000000000000550000000000000000000000000000520052000000000000000000000000000000000000000000000000000000000000000000000000000000000000000000000000000000000000000000000000000000000000000000000000000000000000000000000000000000000000000000000000000000000000
#0203a1:0000000000000000000000000000005200520000000000000000000000000000000000000000000000000000000000000000000000000000000000000000000000000000000000000000000000000000000000000000000000000000000000000000000000000000000000000000000000000000000000000000000000000000
#020381:0000000000000000000000000000000056000000000000000000000000000052005200000000000000000000000000000000000000000000000000000000000000000000000000000000000000000000000000000000000000000000000000000000000000000000000000000000000000000000000000000000000000000000
#020371:0000000000000000000000000000000000000000000000005600000000000000000000000000005200520000000000000000000000000000000000000000000000000000000000000000000000000000000000000000000000000000000000000000000000000000000000000000000000000000000000000000000000000000
#020361:0000000000000000000000000000000000000000000000000000000000000000560000000000000000000000000000520052000000000052005200000000005200520000000000520052000000000052005200000000005200520000000000002200000000000000000000000000000000000000000000000000000000000000
#020351:00000000005600000000000000000000
#020341:00000000000056565656565600000000
#0213a1:13535353535353532300000000000000
#021391:0053000000530000005300000053000000000000000000000000000000000000
#0213b1:0000005300000053000000530000005300000000000000000000000000000000
#021330:0013
#021320:0000000000000000000000000000000000530053005300530053005300530053
#021340:00000000000000000053535353535353
#022330:23
#0223b0:0000001300230000
#022370:0053
#022361:0000001300230000
#022321:0053
#0223b1:0000000000000013
#023371:0033002300000000
#0233b1:00330000
#024321:1300002300000000
#024361:00000053000000000000000000000000
#024370:0000001300000000
#0243b0:00000000000000530000230000000000
#024361:0000000000130000
#024321:00000000000000000000005300003300
#025361:00530000000000000000000000000000
#025321:00230000
#024370:0000000000000013
#0253b0:00530000000000000000000000000000
#025370:00230000
#025380:0000000000000013
#0263b0:00530000000000000000000000000000
#026380:00230000
#025351:0000000000000013
#026321:00530000000000000000000000000000
#026351:00230000
#026371:0000000000130000
#0263b1:0000000000000023
#027321:19000023
#028351:19
#0283b1:00000023
#029321:19000023
#030321:13333333
#030371:0053000000000000
#030361:0000005300000000
#030351:0000000000530000
#030341:0000000000000053
#031321:23
#031370:13
#0313b0:0053
#032370:53000033
#0323b0:0000005300000000
#0333b0:33000023
#033370:0000005300000000
#033321:00000013
#033361:0000000000000053
#034321:33
#034361:00230000
#034321:0000001300230000
#034361:0053
#0343b0:0000000000130023
#034370:00000053
#035360:13
#035320:0053
#036360:53000033
#036320:0000005300000000
#037320:33000023
#037360:0000005300000000
#0373b1:00000013
#037371:0000000000000053
#0383b1:23
#039361:13000023
#039321:0000005300000000
#040371:13000023
#0403b1:0000005300000000
#041321:13230000
#041361:0053000000000000
#0413b0:00132300
#041370:0000005300000000
#042370:13230000
#0423b0:0053000000000000
#042360:0000001300230000
#042320:0053
#042370:00000013
#0433b0:23
#0443b0:13333333
#0453b0:23
#044321:13333333
#045321:23
#047321:13230000
#047361:0053000000000000
#047381:0013
#047321:00000023
#047350:0013
#0473b0:00000023
#048320:13230000
#048360:0053000000000000
#048371:00130000
#0483b1:0000005300000000
#048381:0023
#048350:0013
#048320:0000000000530000
#048360:00000023
#0483b1:00000013
#048371:0000000000000053
#0493b1:33
#049321:00230000
#049360:13530000
#0493b0:0023
#049361:0013
#049321:00000053
#0503b1:23
#0493b0:00000013
#050320:23
#051320:13
#051360:00230000
#0513b0:0013
#051370:00000023
#051360:0000000000000013
#052320:53
#052360:0023000000000000
#052370:0000001300230000
#0523b0:0053
#053370:13
#0533b0:00230000
#0533b0:0000000000130023
#053370:00000053
#053321:0000000000000013
#054361:53
#054321:0023000000000000
#0553b1:13230000
#055371:0053000000000000
#055321:0013
#0553b1:00000023
#055370:0013
#055360:00000023
#0563b0:13230000
#056370:0053000000000000
#056361:00130000
#056321:0000005300000000
#056351:0023
#056380:0013
#0563b0:0000000000530000
#056370:00000023
#056321:00000013
#056361:0000000000000053
#057321:23
#057321:0000000000000013
#058361:53
#058321:0023000000000000
#0593b1:13
#059371:00230000
#059321:0013
#059361:00000023
#060371:1300333300000000
#0603b1:0053000000230000
#060320:0000001300000000
#060360:0000000000230000
#0613b0:13230000
#061370:0053000000000000
#061320:0000001300230000
#061360:0053
#0613b0:00000013
#061370:0000000000000053
#0623b0:23
#062321:13230000
#062361:0053000000000000
#0623b0:00132300
#062370:0000005300000000
#0623b0:0000000000000013
#063360:00000000000000000000005300000000
#0643b0:0023
#064361:0000000013000023
#064321:00000000000000000000005300000000
#0643b0:0000000000000013
#065370:0053
#0663b0:0023000000000000
#066321:0013000000000000
#066351:00230000
#066380:00130000
#0663b0:0000002300000000
#066321:0000001300000000
#066351:0023
#066380:0013
#0663b0:0000000000230000
#066321:00000000000000000000132300000000
#066380:00000000000000000000001323000000
#066351:0000000000001323
#0663b0:0000000000000013
#067370:0023000000000000
#067321:0013230000000000
#067361:0000001323000000
#0673b0:0013
#067370:00000023
#0673b0:000000000000000000000000000000000000000000135353
#0673a0:000000000000000000000000000000000000000000000000000000000000000000000000000000000000005300530053
#0683b0:535353230000000000000000000000000000000000000000
#0683a0:005300530053000000000000000000000000000000000000000000000000000000000000000000000000000000000000
#068320:000000000000000000135353535353230000000000000000
#068330:000000000000000000000000000000000000005300530053005300530053000000000000000000000000000000000000
#068320:0000000000000013
#069360:0023000000000000
#0693b1:0013230000000000
#069371:0000001323000000
#069320:0013
#069360:00000023
#0693b0:0000000000000013
#070370:0023000000000000
#070321:00001323000000000000000000000000
#070370:00000013230000000000000000000000
#070331:00000000132300000000000000000000
#070380:00000000001323000000000000000000
#070341:00000000000013230000000000000000
#070390:00000000000000132300000000000000
#070351:00000000000000001323000000000000
#0703a0:00000000000000000013230000000000
#070361:00000000000000000000132300000000
#0703b0:00000000000000000000001323000000
#0703b0:0000000000000013
#071370:53
#0713b0:0023000000000000
#071321:0013000000000000
#071361:00230000
#071361:0000001300000000
#071321:0023
#071370:0013
#0713b0:0000000000230000
#071361:0000000000130000
#071321:00000023
#071361:0000000000000013
#072321:53
#072361:0023000000000000
#0723b0:0013002300000000
#072370:00330000
#072321:0000001300230000
#072361:0053
#072370:0000000000130023
#0723b0:00000033
#072321:0000000000000013
#073371:0022000000000000
#073390:00001222000000000000000000000000
#073351:00000012220000000000000000000000
#073390:00000000122200000000000000000000
#073351:00000000001222000000000000000000
#073390:00000000000012220000000000000000
#073351:00000000000000122200000000000000
#0733c0:00000000000000001222000000000000
#073321:00000000000000000012220000000000
#073390:00000000000000000000122200000000
#073351:00000000000000000000001222000000
#0733b0:00000000000000000000000012220000
#073331:00000000000000000000000000122200
#073390:00000000000000000000000000001222
#073351:00000000000000000000000000000012
#074351:22
#0743b0:12220000000000000000000000000000
#074331:00122200000000000000000000000000
#074380:00001222000000000000000000000000
#074361:00000012220000000000000000000000
#0743a0:00000000122200000000000000000000
#074341:00000000001222000000000000000000
#074380:00000000000012220000000000000000
#074361:00000000000000122200000000000000
#0743b0:0013
#074370:00000023
#074360:0000000000000013
#075320:53
#075360:0023000000000000
#075320:0000132300000000
#0753b0:0000000013230000
#075320:0000000000001323
#075371:0000000000000013
#0763b1:53
#076371:0023000000000000
#0763b1:0000132300000000
#076321:0000000013230000
#0763b1:0000000000001323
#077351:00000016
#078371:00520000
#079351:26
#079320:13240000
#079360:0054000000000000
#079380:00001424
#079320:0000000000540000
#079341:00001424
#0793a1:0000000000540000
#0803a1:14240000
#080361:0054000000000000
#080360:00140000
#080390:0000005400000000
#080340:0024
#080381:0014
#080331:0000000000540000
#080361:00000024
#080320:00000014
#080360:0000000000000054
#081320:34
#0813a0:00342400
#081350:0000005400000000
#0813a1:14
#081321:00240000
#081321:00001434
#081371:0000000000540052
#082321:24
#0813a0:00000014
#081370:000000000000000000000000000000000000000000000000000000000000000000000000000000000000000000000000000000000000000000000000000000000000000000000000000000000000000000000000000000000000000000000000000000000000000000000000000000000000000000000000000000000000000000000000000000000000000000000000000000000000000000000000000000000000000000000000000000000000000000000000000000000000000000000000000000000000000000000000000000000000000000000000000000000000000000000000000000000000000000000000000000000000000000000000000000000000000000000000000000000000000000000000000000000000000000000000000000000000000000000000000000000000000000000000000000000000000000000000000000000000000000000000000000000000000000000000000000000000000000000000000000000000000000000000000000000000000000000000000000000000000000000000000000000000000000000000000000000000000000000000000000000000000000000000000000000000000000000000000000000000000000000000000000000000000000000000000000000000000000000000000000000000000000000000000000000000000000000000000000000000000000000000000000000000000000000000000000000000000000000000000000000000000000000000000000000000000000000000000000000000000000000000000000000000000000000000000000000000000000000000000000000000000000000000000000000000000000000000000000000000000000000000000000000000000000000000000000000000000000000000000000000000000000000000000000000000000000000000000000000000000000000000000000000000000000000000000000000000000000000000000000000000000000000000000000000000000000000000000000000000000000000000000000000000000000000000000000000000000000000000000000000000000000000000000000000000000000000000000000000000000000000000000000000000000000000000000000000000000000000000000000000000000000000000000000000000000000000000000000000000000000000000000000000000000000000000000000000000000000000000000000000000000000000000000000000000000000000000000000000000000000000000000000000000000000000000000000000000000000000000000000000000000000000000000000000000000000000000000000000000000000000000000000000000000000000000000000000000000000000000000000000000000000000000000000000000000000000000000000000000000000000000000000000000000000000000000000000000000000000000000000000000000000000000000000000000000000000000000000000000000000000000000000000000000000000000000000000000000000000000000000000000000000000000000000000000000000000000000000000000000000000000000000000000000000000000000000000000000000000000000000000000000000000000000000000000000000000000000000000000000000000000000000000000000000000000000000000000000000000000000000000000000000000000000000000000000000000000000000000000000000000000000000000000000000000000000000000000000000000000000000000000000000000000000000000000000000000000000000000000000000000000000000000000000000000000000000000000000000000000000000000000000000000000000000000000000000000000000000000000000000000000000000000000000000000000000000000000000000000000000000000000000000000000000000000000000000000000000000000000000000000000000000000000000000000000000000000000000000000000000000000000000000000000000000000000000000000000000000000000000000000000000000000000000000000000000000000000000000000000000000000000000000000000000000000000000000000000000000000000000000000000000000000000000000000000000000000000000000000000000000000000000000000000000000000000000000000000000000000000000000000000000000000000000000000000000000000000000000000000005200000000000000000000000000000000000000000000000000000000000000000000000000000000000000000000000000000000000000000000000000000000000000000000000000000000000000000000000000000000000000000000000000000000000000000000000000000000000000000000000000000000000000000000000000000000000000000000000000000000000000000000000000000000000000000000000000000000000000000000000000000000000000000000000000000000000000000000000000000000000000000000000000000000000000000000000000000000000000000000
#0823a0:24
#083370:13230000
#0833b0:0053000000000000
#083360:00001323
#083320:0000000000530000
#0833b0:0000000000000013
#084370:53
#0843b0:0023000000000000
#084320:0000001300230000
#084360:0053
#085320:13230000
#085360:0053000000000000
#0853b0:0000000000000013
#086370:53
#0863b0:0023000000000000
#0873a0:14240000
#087360:0054000000000000
#0873c0:0012
#087320:00000022
#087361:00001424
#088321:14240000
#088361:0054000000000000
#088360:00140000
#088330:0000005400000000
#088380:0024
#088341:0014
#088391:0000000000540000
#088361:00000024
#0883a0:00000014
#088360:0000000000000054
#0893a0:24
#089320:0000000000000014
#090360:54
#090320:0024000000000000
#0913b0:13230000
#091370:0053000000000000
#091320:00001323
#091360:0000000000530000
#0923b0:1300333300000000
#092370:0053000000000000
#092320:0000000000230000
#092321:0000001300000000
#0923b1:0000000000230000
#094321:0000000000000013
#095371:00000000000000000000005300000000
#096321:0023
#096370:0000000013000023
#0963b0:00000000000000000000005300000000
#096321:0000000000000013
#097361:00530000000000000000000000000000
#097321:00000023
#0973b1:0000000000000013
#098371:00530000000000000000000000000000
#0983b1:00230000
#098360:00130000
#098320:0023
#098370:0000000000130000
#0983b0:0000000000000023
#098361:00000000000000000000000000001454
#098351:0000000000000000000000000000000000000000000000000000000000540000
#098371:0000000000000000000000000000000000000000000000000000000000000054
#099361:54545454545454545454545454545454
#099351:0054000000540000005400000054000000540000005400000054000000540000
#099371:0000005400000054000000540000005400000054000000540000005400000054
#100361:54545454545454545454545454545454
#100351:0054000000540000005400000054000000540000005400000054000000540000
#100371:0000005400000054000000540000005400000054000000540000005400000054
#101361:54545454545454545454545424000000
#101351:0054000000540000005400000054000000540000005400000000000000000000
#101371:0000005400000054000000540000005400000054000000540000000000000000
#0993b0:00130000
#099320:0023
#100320:00130000
#1003b0:0023
#1013b0:00130000
#101320:0023
#101321:0000000000000013
#102361:00530000000000000000000000000000
#102321:00230000
#102370:00130000
#1023b0:0023
#102360:0000000000130000
#102320:0000000000000023
#1023a1:0000000000000014
#102391:0000000000000000000000000000000000000000000000000000000000540054
#102381:00000000000000000000000000000054
#1033a1:5454540000000000
#103391:0054005400540054000000000000000000000000000000000000000000000000
#103381:0000000000540000000000000000005400000000000054000000000054000000000000000000000000000000000000000000000000000000000000000000000000000000000000000000000000000000
#103361:00000000000000000000000054000054000054000000000000000000000000000000000000000000
#103371:00000000000000000000000000540000000000000000000000000000000000000000000000000000
#103341:0000000000000000000000000000000000000000000000000000000000000000540000000000540000000000005400000000000000000054000000000000000000540000000000000000005400000000
#103351:00000000000000000000000000000000005400000000000000000000000000000000000000000000
#103321:0000000054545454
#103331:0000000000000000000000000000000000540054005400540054005400540054
#104321:5454540000000000
#104331:0054005400540054000000000000000000000000000000000000000000000000
#104341:0000000000540000000000000000005400000000000054000000000054000000000000000000000000000000000000000000000000000000000000000000000000000000000000000000000000000000
#104361:00000000000000000000000054000054000054000000000000000000000000000000000000000000
#104351:00000000000000000000000000540000000000000000000000000000000000000000000000000000
#104381:0000000000000000000000000000000000000000000000000000000000000000540000000000540000000000005400000000000000000054000000000000000000540000000000000000005400000000
#104371:00000000000000000000000000000000005400000000000000000000000000000000000000000000
#1043a1:0000000054545454
#104391:0000000000000000000000000000000000540054005400540054005400540054
#1053a1:5454540000000000
#105391:0054005400540054000000000000000000000000000000000000000000000000
#105381:0000000000540000000000000000005400000000000054000000000054000000000000000000000000000000000000000000000000000000000000000000000000000000000000000000000000000000
#105361:00000000000000000000000054000054000054000000000000000000000000000000000000000000
#105371:00000000000000000000000000540000000000000000000000000000000000000000000000000000
#105341:0000000000000000000000000000000000000000000000000000000000000000540000000000540000000000005400000000000000000054000000000000000000540000000000000000005400000000
#105351:00000000000000000000000000000000005400000000000000000000000000000000000000000000
#105321:0000000054545454
#105331:0000000000000000000000000000000000540054005400540054005400540054
#106321:5454545454240000
#106331:0054005400540054005400540054005400540054000000000000000000000000
#106341:00540054005400540054000000000000
#103320:00130000
#1033b0:0023
#1043b0:00130000
#104320:0023
#105320:00130000
#1053b0:0023
#1063b1:0000000000000013
#107371:53
#1073b1:0023000000000000
#107321:00132300
#107361:0000005300000000
#107371:0000000000000013
#1083b1:0023000000000000
#108361:0000001300000000
#108321:0000000000230000
#109381:00000016
#111321:00560000
#112381:00000054
#1133b1:0053
#113371:0000000000530000
#1133c1:00000000000000000000000000000052
#114371:00220000
#113360:0013
#113320:0000000000530000
#113370:00000000000000000000000000000052
#114320:00220000
