This file was generated by Ched 2.7.0.0.
#TITLE ""
#ARTIST ""
#DESIGNER ""
#DIFFICULTY 0
#PLAYLEVEL
#SONGID ""
#WAVE ""
#WAVEOFFSET 0
#JACKET ""
#REQUEST "ticks_per_beat 480"
#00002: 4
#BPM01: 200
#00008: 01
#TIL00: ""
#VOLUME: ""
#HISPEED 00
#MEASUREHS 00
#08312:16
#08318:0014
#08218:00000016
#08212:0016
#0821a:14
#00512:00140014
#0051a:0014
#01112:1400000000000024
#0111a:2400000000000014
#01312:00140014
#0131a:2424
#01310:41
#01514:0014
#01518:00000014
#01918:0014
#01914:00000014
#0211a:00140014
#02112:1414
#02318:0014
#02314:00000014
#03018:00000014
#03014:0014
#0301a:00140000
#03012:14
#0341a:00140000
#03412:1414
#03416:00000014
#0331a:00000014
#03812:00140000
#0381a:1414
#03816:00000014
#03712:00000014
#0391a:00000014
#04018:00000014
#04114:14
#0411a:0014
#04112:0014
#04218:14
#04214:00140000
#04614:1414
#04618:00140014
#0471a:0014
#04712:24
#04710:41
#04814:1414
#04818:00140014
#04912:14
#04916:00140014
#0491a:0014
#05512:0014
#0551a:24
#05618:1414
#05614:00140014
#0571a:14
#05716:00140000
#05712:0014
#05114:0014
#05118:16
#05018:0016
#05012:24000016
#05418:0014
#05414:00000014
#05814:0014
#05818:00000014
#05912:14000014
#0591a:0014
#0621a:14
#06212:00140000
#06218:0014
#07118:00140014
#07112:1414
#0661a:00140014
#06614:0014
#0661f:0000000000000011
#0721a:00140014
#07214:1414
#07312:14
#0731a:00140000
#07314:0014
#07318:00000014
#07412:14000014
#07416:00140000
#0741a:0014
#0751a:14
#07514:00140000
#07518:0014
#07512:00000014
#07618:14
#07614:00140000
#0761a:0014
#07612:00000014
#07912:0016
#0791f:21
#07918:26
#0801a:14
#08016:00140014
#08012:0014
#08010:41
#0811a:14
#08112:00140000
#08118:0014
#08114:00000014
#08718:0016
#08712:26
#08812:14
#08816:00140014
#0881a:0014
#08614:0014
#08618:00000014
#08912:14
#08916:00140000
#0891a:0014
#0901a:0014
#09012:00000014
#09118:14000014
#09114:0014
#09412:14
#0941a:00140000
#09414:0014
#0061a:14
#00614:00140014
#00618:0014
#00718:14
#00712:00140000
#0071a:0014
#10714:00140000
#10718:0014
#10912:0000001600000000
#10918:16
#11318:0000000000160000
#00418:0000000000000026
#0141a:24
#06114:24
#06110:41
#09318:24
#09310:41
#06713:00340000
#06712:0034
#06819:00340000
#0681a:0034
#07019:00340000
#07018:0034
#06913:00340000
#06914:0034
#09212:00340000
#03110:41
#00458:0000000000000016
#0455a:0014
#04752:14
#0555a:14
#05052:14
#07958:16
#0825a:14
#08752:16
#1065a:0000000000000014
#11358:0000000000560000
#0003a0:0000000000000014
#001380:0000000000000024
#002320:0000000000000014
#003340:0000000000000024
#007340:0000000000001434
#008340:0000003400000000
#008320:0000000000000034
#010340:0024
#0143a0:14
#014380:0000002400000000
#014321:14
#014341:0000002400000000
#014381:0000000000000014
#0153a1:00240000
#016321:1400000000000034
#016341:0000003400000000
#017341:00240000
#017381:0014
#0173a1:0000000000000034
#018381:00240000
#018341:0014
#018321:0000000000000034
#019341:00240000
#0203a1:14
#020381:0000003400002400
#022321:14
#022341:0000002400000000
#0223a0:14
#022380:0000002400000000
#022320:0000000000000014
#023340:00240000
#0243a0:1400000000000034
#024380:0000003400000000
#025380:00240000
#025340:0014
#025320:0000000000000034
#026340:00240000
#026380:0014
#0263a0:0000000000000034
#027380:0024
#028320:14
#028340:0024
#0293a0:14
#029380:0024
#031320:14
#032350:34
#033320:24
#0353a0:14
#036370:34
#0373a0:24
#039320:14
#039340:0024
#040340:14
#040320:0024
#0423a0:00000014
#0433a0:34
#043380:0024
#044320:14
#044340:0024
#0453a0:1424
#051380:00000014
#052380:0000343400000000
#0523a0:00000024
#053340:1400000000000034
#053320:0000003400340000
#054340:00240000
#0573a0:0000000000001434
#0583a0:00240000
#060380:1400343400002400
#061340:1400003400002400
#062340:0000000000001434
#064340:0034
#064320:0000000000000034
#066340:24
#067340:14
#067330:00340000
#067320:00003424
#068380:14
#068390:00340000
#0683a0:00003424
#069320:14
#069330:00340000
#069340:00003424
#0703a0:14
#070390:00340000
#070380:00003424
#0773a0:1400003400003400
#079380:26
#083340:00000014
#084340:0000343400000000
#084320:00000024
#085380:1400000000000034
#0853a0:0000003400340000
#086380:00240000
#089320:0000000000001434
#090340:00240000
#092340:14000024
#092320:0000343400000000
#093380:14000024
#0933a0:0000003400000000
#094380:0000000000001434
#096380:0034
#0963a0:0000000000000034
#097380:0024
#097320:00000014
#098340:0000340034000034
#101320:0024
#1013a0:0000000000000014
#102380:0000340034000034
#1063a0:0000000000000024
#107340:0000000000001434
#108340:0000003400000000
#108320:00000024
#109380:00000016
#113380:0000000000560000
#1143b0:00230000
