This file was generated by Ched 2.7.0.0.
#TITLE ""
#ARTIST ""
#DESIGNER ""
#DIFFICULTY 0
#PLAYLEVEL
#SONGID ""
#WAVE ""
#WAVEOFFSET 0
#JACKET ""
#REQUEST "ticks_per_beat 480"
#00002: 4
#BPM01: 150
#00008: 01
#TIL00: ""
#VOLUME: ""
#HISPEED 00
#MEASUREHS 00
#0011a:14
#00214:14
#00318:14
#00412:14
#00618:14
#00714:14
#05512:14
#05515:0034
#00518:14
#00814:14
#0171a:14
#01710:41
#01814:14
#01918:14
#02012:14
#0211a:14
#0221a:14
#02312:14
#02412:14
#02410:41
#03312:0016
#03318:26
#0331f:21
#03310:0041
#03418:16
#03412:0016
#03518:16
#03512:0016
#03718:0016
#03712:26
#03812:16
#03818:0016
#04112:2616
#04110:41
#04218:1616
#04312:16
#04318:0016
#04518:2616
#04612:1616
#0491a:14
#04914:0014
#04910:41
#05112:14
#05118:0014
#0251f:11
#01010:41
#05552:64
#0093a0:14
#0103a0:24
#011340:14
#012340:24
#013380:14
#014380:24
#015320:14
#016320:24
#0253a0:14
#026380:34
#027380:34
#0283a0:24
#029320:14
#030340:34
#031340:34
#032320:24
#036380:1626
#039320:1626
#040380:1626
#044320:1626
#047380:1626
#048320:1626
#050380:1424
#052340:1424
#0533a0:14
#053390:0034
#054380:3424
#055320:14
#055350:0034
#056340:34343424
