This file was generated by Ched 2.7.0.0.
#TITLE ""
#ARTIST ""
#DESIGNER ""
#DIFFICULTY 0
#PLAYLEVEL
#SONGID ""
#WAVE ""
#WAVEOFFSET 0
#JACKET ""
#REQUEST "ticks_per_beat 480"
#00002: 4
#BPM01: 150
#00008: 01
#TIL00: ""
#VOLUME: ""
#HISPEED 00
#MEASUREHS 00
#0131b:13000013
#01314:00000014000000000000000000000000
#01312:0000001400000000
#01316:14
#01319:00000013000000000000000000000000
#01317:0000001300000000
#01315:0000000000000013
#0161b:0013000000001300
#01615:0000001300001300
#01618:00131300
#01612:0013
#0241b:0013000000000000
#0241a:00130000
#02419:0000001300000000
#02416:00130000000000000000000000000000
#02412:00000023
#02418:00000023
#02410:41
#0291b:13131300
#02918:00000000000013000000001300000000
#02915:0013000000130013
#02912:23232323
#03012:13131300
#03018:0013000000130013
#03015:00000000000013000000001300000000
#0301b:23232323
#03312:24000013000000000000000000000000
#03317:00130000
#0331a:24
#0331f:21
#03310:0041
#0341b:00000013000000000000000000000000
#03416:00130000
#03417:13
#0361b:1313
#03618:00000013000013000000130000000000
#03615:0000130000130000
#03612:0013000013000013
#03712:0000001300000013
#03715:14000014000000001400001400000000
#0371a:24242424
#0451a:0000000000140000
#04516:0000000000001424
#04512:0000002600000014
#04518:00000026000000000000000000000000
#04712:0000140000000013
#04716:14141400
#04714:0014001400140000
#04718:0014001400140000
#0471a:2414
#04815:0013000000000000
#04812:00000000002300000000000000000000
#0481b:0000002300000000
#04817:23
#04819:00000023000000000000000000000000
#05312:13130000
#05315:0013001313001300
#05318:2300230000130013
#0531b:00002323
#05418:1300130000130013
#0541b:00001313
#05415:0013001323002300
#05412:23230000
#05515:00130000000000000013000000000000
#05514:00000013000000000000001300000000
#05513:00000000001300000000000000130000
#05512:00000000000000130000000000000013
#0551b:2323
#0551a:0023000000230000
#05519:00230023
#05518:0000002300000023
#00912:13
#00916:0000001300000000
#0091b:0000001313000013
#00917:13
#00418:00000000000000130000130013000000
#00412:0000001300000000
#01218:0000000000000013
#01215:00000013
#01217:13
#01712:23000013
#01715:00132300
#01718:0000000000000013
#0171b:0000001300000000
#01710:41
#02312:0000000000000013
#02315:0000001300000000
#02318:0000000013000013
#03216:00000014
#03212:13
#03214:00130000
#03219:0000000000130000000000000000000000000000000000000000000000000000
#0321b:3333333333003333333333333333333300000000000000000000000000000000
#03512:00000013000000000000000000000000
#03517:00130000
#03516:13
#0381b:0000001300000013
#03817:14000014000000001400001400000000
#03812:24242424
#04014:0000001400000000
#0401b:1313
#04016:1414
#04019:0000001300000000
#04017:00000033000000000000000000000000
#04012:00000034000000000000000000000000
#05615:00001300000000130000130013000000
#05618:0000001300000000
#04115:00130013
#0411b:0000001300000013
#04118:26000013000000000000130000000000
#04112:0013
#04110:41
#01119:0000001300000013
#01114:0000001300000013
#01112:00130000
#0111b:00000013
#02514:00130000
#02515:00000013
#02518:00000000000000000000001300001300
#0251b:13131300
#02516:0013
#0251f:11
#02512:23
#02619:00130000
#02615:00000000000000000000001300001300
#02612:13131300
#02618:00000013
#02617:0013
#0261b:23
#02716:00000000130000000000001300000000
#0271b:13130013
#02717:0013
#02715:0000000000000013
#02712:2313
#02812:13130013
#02817:00000000130000000000001300000000
#02816:0013
#02818:0000000000000013
#0281b:2313
#0491b:00130000
#04918:00000000000000130000001300000000
#04915:0000001300001300
#0491a:24
#04912:24
#04910:41
#05112:13130000
#05118:0000001300001300
#05115:00000000000000130000001300000000
#0521b:13
#05218:0000001300002300
#05212:00000000000000130000130023000000
#05012:13131300
#05015:0000001300001300
#05018:00000000000000130000001300000000
#0501b:0000000000000013
#0101b:13
#01017:0000001300000000
#01012:0000001313000013
#01016:13
#01010:41
#01418:00000014000000000000000000000000
#0141a:0000001400000000
#01412:1300000000002323
#01416:1400001300000000
#01414:00000013000000000000000000000000
#0141b:0000000000000023
#01518:0000001300000000
#01515:0000000000000013
#04312:00130013
#04318:2600001300000013
#0431b:00000013000000000000130000000000
#04315:0013
#04616:0014002400140024
#00515:00000000130000130000001300000000
#00518:0000001300000000
#00512:23
#0071b:00000000130000000000001300000000
#00715:0000001300000000
#00718:13000000000000130000000000001300
#0081b:0000001300002300
#00815:00000000000000130000130023000000
#0061b:0000001300000000
#00615:00000000000000130000001300001300
#00618:00000013
#00118:00000000130000130000001300000000
#00115:0000001300000000
#0011b:23
#00312:00000000130000000000001300000000
#00318:0000001300000000
#00315:13000000000000130000000000001300
#00212:0000001300000000
#00218:00000000000000130000001300001300
#00215:00000013
#03117:00000000000000000000000033331333
#03119:00000000000000003313330000000000
#0311b:00333333133333000000000000000000
#03116:0000001300000000
#03114:00000000000000000000001300000000
#03112:23
#03118:00000000000000000000003300000000
#0311a:00000000000000330000000000000000
#02117:13
#02119:00000013000000000000000000000000
#0211b:0000001300000000
#02112:23
#02114:00000023000000000000000000000000
#02115:00000023
#02118:0000000000000023
#02116:0000002300000000
#02216:13000023
#02214:00000013000000000000000000000000
#02212:0000001300000000
#02218:0000000000000023
#0221b:23
#02219:00000023000000000000000000000000
#02217:0000002300000000
#02015:0000000000000013
#02015:0000000000000023
#0201b:23131300
#02016:00000033000013001300000000000000
#02012:13000000000000000000003300000000
#02018:00000023
#01918:0000000000000013
#01917:00000033000013001300000000000000
#0191b:13000000000000000000003300000000
#01912:23132300
#01915:00000013
#0181b:23000013
#01818:00132300
#01815:0000000000000013
#01812:0000001300000000
#04218:00130013
#04212:2600001300000013
#04215:00000013000000000000130000000000
#0421b:0013
#03918:0000002400000000
#03916:24000033000000002400000000000000
#03912:2323
#03914:0000002300000000
#0391a:00000034000000000000000000000000
#04412:0000002400000000
#04414:0024
#04416:2300000000240000
#04418:00000024
#0441a:0000000000000024
#0441b:23
#02452:00000013
#02458:00000013
#02456:00230000000000000000000000000000
#03457:13
#03652:00005333
#03655:0000000000230000
#0365b:00006343
#03658:0000000000230000
#04752:00240014
#04754:0064006400640000
#04756:24242414
#04758:0064006400640000
#0475a:2424
#00952:53
#00956:0000006300000000
#00452:00000013
#00458:00000013
#01752:00000013
#01755:00130000
#02352:0000000000000063
#0235b:00000000000000000000001300000000
#02358:0063
#03352:14
#0335a:14
#03556:13
#0375a:00140014
#03852:00140014
#03956:54005413
#0395a:00000014
#03952:5353
#0405b:6363
#04056:6464
#04057:00000013
#04052:00000014
#0495a:14
#04952:14
#01352:0000005400000000
#01652:0033
#0165b:00000043
#01152:00230000
#01154:0000005300000000
#0115b:00000023
#01159:0000000000000063
#01257:23
#0085b:00000013
#00855:00000013
#0105b:63
#01057:0000005300000000
#0145a:0000006400000000
#01452:0000000000000023
#0145b:0000000000000023
#0415b:0000001300000013
#04158:4600000000130000
#04358:4600001300000013
#0435b:0000000000130000
#0445b:53
#04456:53
#04656:0024005400240000
#04556:0000000000000054
#04552:0000001600000000
#0485b:0000005300000000
#04852:00000000005300000000000000000000
#00552:13
#0015b:13
#03157:0000000000000023
#03159:00000000000000000053000000000000
#0315b:00230000
#03152:53
#03156:0000002300000000
#03154:00000000000000000000005300000000
#03256:0013
#0325b:0013
#03252:23
#03254:00530000
#03259:0000000000530000000000000000000000000000000000000000000000000000
#0215b:0000005300000000
#02156:0000005300000000
#02252:0000006300000000
#02258:0000000000000053
#02256:00000063
#02257:0000006300000000
#05258:00000013
#05252:00000013
#05655:00000013
#02056:0023
#02052:63
#0205b:00130000
#01957:0023
#0195b:53
#01952:00130000
#01955:00000013
#0185b:00000013
#01858:00130000
#01555:0000000000000053
#04252:3600001300000013
#04255:0000000000130000
#001320:13230000
#001350:00000000000000001300002300000000
#001320:0000000000000013
#002320:00230000
#0013b1:0000000000000013
#002371:00230000
#002351:00000000000000001300002300000000
#0033b1:13230000
#003381:00000000000000001300002300000000
#0033b1:0000000000000013
#0043b1:0023000000000000
#004350:0013230000000000
#004381:0000132300000000
#004321:00001323
#0053b1:13230000
#005381:00000000000000001300002300000000
#0053b1:0000000000000013
#0063b1:00230000
#005320:0000000000000013
#006360:00230000
#006380:00000000000000001300002300000000
#007320:13230000
#007350:00000000000000001300002300000000
#007320:0000000000000013
#008320:0023000000000000
#008381:0013230000000000
#008350:0000132300000000
#0083b0:00001323
#009320:13000023
#009360:0000003300000000
#0103b0:13000023
#010370:0000003300000000
#011370:13230000
#011321:13330000
#011341:0000005300000000
#011361:00003323
#0113b0:00001333
#011390:0000000000000053
#012370:33
#0123b0:0023
#012321:1323
#013321:0000001400000000
#013361:00000024
#0143a1:0000001400000000
#014361:00000024
#0143b1:0000000000000013
#015381:00230000
#014320:0000000000000013
#015350:00230000
#015350:00000000000000001300002300000000
#015381:00000000000000000000001300002300
#015350:0000000000000013
#016320:0023000000000000
#0173b0:13000033230000000000000000000000
#017380:00000000000000001300003323000000
#018320:13000033230000000000000000000000
#018350:00000000000000001300003323000000
#0193b0:13
#019370:00000033230000000000000000000000
#019370:0013
#0193b0:00000000000000000000003323000000
#020320:13
#020360:00000033230000000000000000000000
#020360:0013
#020320:00000000000000000000003323000000
#0213b0:0000001300000000
#021370:0000000000230000
#021361:0000001300000000
#021321:0000000000230000
#022321:0000001300000000
#022361:0000000000230000
#022370:0000001300000000
#0223b0:0000000000230000
#022360:00000013
#023320:00230000
#022381:0000000000000013
#0233b1:00230000
#023381:0013
#0233b1:00000000000000000000002300000000
#023321:0000000000000013
#024361:00530000000000000000000000000000
#024321:00003323
#024380:00001323
#031320:13
#031360:0000005300000000
#031340:00000000000000000000005300000000
#032320:53
#032340:00530000
#032360:0023
#0313b1:13333333333333000000000000000000
#0313a1:00000000000000330000000000000000
#031391:00000000000000003333330000000000
#031381:00000000000000000000003300000000
#031371:00000000000000000000000033333333
#0323b1:3333333333003333333333333333333323000000000000000000000000000000
#032391:0000000000330000000000000000000000000000000000000000000000000000
#033321:0000001300003323
#033361:0000000033330000
#0333b0:0000000013230000
#033370:0000000000001323
#034320:13
#034360:00000023000000000000000000000000
#0343b0:0000001300003323
#034370:0000000033330000
#034321:0000000013230000
#034361:0000000000001323
#0353b1:13
#035371:00000023000000000000000000000000
#035321:0000001300003323
#035361:0000000033330000
#0353b0:0000000013230000
#035370:0000000000001323
#0363b0:00001323
#036380:0000000000530000
#036321:00001323
#036351:0000000000530000
#039321:13
#039361:00000033230000000000000000000000
#039360:14
#0393a0:00000034240000000000000000000000
#039320:0013
#039360:00000023
#039361:0014
#0393a1:00000024
#0403b1:13
#040371:00000033230000000000000000000000
#040360:14
#040320:00000034240000000000000000000000
#0403b0:0013
#040370:00000023
#040361:0014
#040321:00000024
#041321:13000023000000000000000000000000
#0443b1:13
#044371:00230000
#044360:13
#044320:00230000
#045320:16000026000000000000000000000000
#045381:00000016000026000000000000000000
#045361:0000000000000014
#0463a1:0024000000000000
#046360:0014000000000000
#046320:0000002400000000
#046361:0000001400000000
#0463a1:0000000000240000
#046360:0000000000140000
#046320:0000000000000024
#047360:1434
#047340:0054005400540000
#047320:00340024
#0473a1:1434
#047381:0054005400540000
#047361:00340024
#048321:00000000001300000000000026000000
#0483b0:0000001300000000
#048380:00000026
#049320:00000000000000001300002300000000
#0493b0:0000000000000013
#050370:33230000
#051380:13
#0513b0:00230000
#0513b0:00000000000000001300002300000000
#051350:0000000000000013
#052350:0023000000000000
#0523b1:0013230000000000
#052350:0000132300000000
#052380:00001323
#0563b0:13230000
#056321:0000132300000000
#056381:00001323
