This file was generated by Ched 2.7.0.0.
#TITLE ""
#ARTIST ""
#DESIGNER ""
#DIFFICULTY 0
#PLAYLEVEL
#SONGID ""
#WAVE ""
#WAVEOFFSET 0
#JACKET ""
#REQUEST "ticks_per_beat 480"
#00002: 4
#BPM01: 150
#00008: 01
#TIL00: ""
#VOLUME: ""
#HISPEED 00
#MEASUREHS 00
#00115:00000000130000130000000000001300
#00118:0000001313000000
#00112:23
#0011b:23
#04715:0000000000000013
#00218:0000001313001300
#00215:00000000000000130000001300001300
#0161b:00000013
#01615:00130000
#01618:0000001300000000
#01612:0013
#00318:00000000000000130000000000001300
#00315:0000001313000000
#00312:13
#0031b:13
#00416:00140014
#00518:00000000130000130000000000001300
#00515:0000001313000000
#00512:23
#0051b:23
#00615:0000001313001300
#00618:00000000000000130000001300001300
#00715:00000000130000130000000000001300
#00718:0000001313000000
#0071b:13
#00712:13
#00816:00140014
#01017:0000000000000013
#0101b:13
#01010:41
#0091b:13
#00917:0013
#01218:00000013
#01215:0000000000000013
#01212:13
#01112:13
#01116:0013
#0131a:14
#01316:00000014000000000000000000000000
#01312:0000001400000000
#01318:00000013
#01315:0000000000000013
#0141a:14
#01416:00000014000000000000000000000000
#01412:0000001400000000
#01418:00000023
#01415:0000000000000023
#01518:0000001300000013
#01515:0013
#01712:13230000
#01718:00130000
#0171b:00001323
#01715:00000013
#01710:41
#01812:13230000
#01818:00130000
#0181b:00001323
#01815:00000013
#01912:13230000
#01917:00130000
#01919:0013
#01916:00000013
#0191b:00000023
#02014:13
#02017:00130000
#0201b:0013
#02018:0000000000000013
#02012:00230000
#02015:00000023
#02112:14
#02116:00000014000000000000000000000000
#0211a:0000001400000000
#02115:00000013
#02118:0000000000000013
#02212:14
#02216:00000014000000000000000000000000
#0221a:0000001400000000
#02215:00000023
#02218:0000000000000023
#02315:0000001300000013
#02318:0013
#02418:00130000
#02415:0000001300000000
#0241b:0013
#02412:00000023
#02410:41
#02918:0013001300000000
#02912:2300130013000013
#0291b:0000000000131300
#02915:00000000000000000000001300000000
#0331a:00000014000000000000000000000000
#03315:0000001400000000
#0331b:0000000000000013
#03312:24
#0331f:21
#03310:0041
#0341a:00000014000000000000000000000000
#03412:0000001400000000
#03419:0000000000000013
#03415:24
#0351a:00000014000000000000000000001400
#03515:0000001400000014
#03512:24
#03615:1400000000000013
#0361a:14
#0361b:00000013
#03617:00000034000034000000000000000000
#03612:00000034000034000000000000000000
#04012:0000003300001300
#0401b:13
#04016:13
#04017:0000003300000000
#04112:00000014000000000000000000001300
#04117:0000001400000000
#04118:26
#04110:41
#04212:00000014000000000000000000001300
#0421a:0000001400000000
#04217:24
#04312:00000014000000000000000000000000
#04317:0000001400000000
#04315:00000013
#04318:0000000000000013
#0431a:24
#04415:13001313
#0441b:0000001300000000
#04418:0000000000130013
#04515:0000000000130000
#04518:00000013
#04512:2400000000000013
#04516:00000024000000000000000000000000
#0451a:0000002400000000
#0451b:0000000000000023
#04618:0000001300000000
#04612:0000000000000013
#0461b:0000000000000023
#04615:0000002300000000
#04816:00000024000000000000000014000000
#0481a:24
#04812:0000002400000034
#04918:00000000000000130000000000000000
#04915:0000001300000000
#0491b:00130000
#04912:0014
#04916:00000000000000000000001400000000
#0491a:0000000000000014
#04910:41
#05015:0000001300000000
#05018:00000000000000130000000000000000
#05012:0014
#05016:00000000000000000000001400000000
#0501a:0000000000000014
#05017:00140000000000000000000000000000
#05112:1414
#05118:00000000000000130000001400000000
#05115:0000001300000000
#0511b:00130000
#05114:0000000000000014
#05216:00140014
#05315:00000000000000130000000000000000
#05318:0000001300000000
#05312:2400130000000014
#0531a:2414
#05316:00000000000000000000001400000000
#05418:0000001300000000
#05415:00140000000000130000000000000000
#0541a:0014
#05416:00000000000000000000001400000000
#05412:0000000000000014
#0551a:1414
#05515:00000000000000130000000000000000
#05518:0000001300000014
#05512:00130000
#05514:00000000000000000000001400000000
#05612:16
#05615:00160000
#03015:0013001300000000
#0301b:23131300
#03012:0000000000131300
#03018:00000000000000000000001300000000
#0321a:14000014
#03212:34
#03718:2300001300000000
#03715:0000000023000013
#03712:00240000
#0371a:00000024
#03818:2300001300000000
#03815:0000000023000013
#03812:00240000
#0381a:00000024
#0251a:14141414
#02512:2414
#0251f:11
#02612:14141414
#0261a:2414
#02718:14141414
#02712:2414
#0391a:24
#03912:0024
#03916:0000003400000000
#03116:24
#03112:00000034000034000000340000003400
#02818:24242400
#03352:1400000000140000
#03355:0000005400000000
#0165b:00000043
#01652:0033
#00158:0053
#00152:13
#0015b:13
#00155:0000000000000063
#00355:0063
#00352:13
#0035b:13
#0055b:13
#00552:13
#00555:0063
#00558:0000000000000053
#00758:0053
#0075b:13
#00752:13
#0095b:53
#00957:0053
#0105b:53
#01152:63
#01156:0063
#01252:63
#01352:0000001400000000
#01452:0000001400000000
#01455:0000000000000053
#01555:0053
#01558:0000000000000063
#0215a:0000001400000000
#0225a:0000001400000000
#02258:0000000000000053
#02358:0063
#02355:0000000000000053
#0245b:0043
#02452:00000033
#03452:0000005400000000
#03455:0000000000140000
#03555:0000005400000000
#03552:0000000000140000
#03655:54
#0365a:54
#03652:0014
#03657:0014
#04157:0000006400000000
#04158:16
#0415a:0000000000140000
#0425a:0000006400000000
#04257:0000000000140000
#04357:0000006400000000
#0395a:64
#03956:0014
#03952:0014
#0405b:63
#04056:53
#04057:0013
#04052:0013
#04455:63
#0455a:0000001400000000
#04552:0000000000000053
#0455b:0000000000000053
#04655:0013005300000000
#04658:0013005300000000
#0465b:0000000000130063
#04652:0000000000130063
#04852:0000006400000000
#04856:00000064
#05152:14
#0535a:14
#05352:1400000000000064
#0555a:14
#05658:00000016
#0495a:0000000000000054
#04952:14
#05057:00240000000000000000000000000000
#05455:00240000000000000000000000000000
#02858:00000014
#02854:00000014
#0325a:64
#03156:64
#0375a:00000014
#03752:00140000
#03852:00140000
#0385a:00000014
#001380:0013
#0013b0:00000000000000000000002300000000
#001350:0000000000000013
#002320:00530000230000000000000000000000
#003350:0013
#003320:00000000000000000000002300000000
#004320:1323
#0043b1:0013
#0053b1:23
#005351:0013
#005321:00000000000000000000002300000000
#005381:0000000000000013
#0063b1:00530000230000000000000000000000
#007381:0013
#0073b1:00000000000000000000002300000000
#0083b1:1323
#008320:0013
#009320:23
#0093b1:1300000000000033
#009371:0000003333000000
#0103b1:33
#010371:0000003323000000
#011321:1300000000000033
#011361:0000003333000000
#012321:33
#012361:0023
#014351:0000000000000013
#015321:00230000
#015351:0013
#015321:00000000000000000000002300000000
#015381:0000000000000013
#0163b1:0023000000000000
#022381:0000000000000013
#0233b1:00230000
#023381:0013
#0233b1:00000000000000000000002300000000
#023351:0000000000000013
#024321:0023000000000000
#028341:14000034000034000000340024000000
#028380:0000000014342400
#0303a0:0000000000000014
#0323a0:34
#032360:0024
#031361:14
#031321:00000034000034000000340000003400
#032321:3424
#033351:0000001400000000
#033321:0000000000240000
#034321:0000001400000000
#034351:0000000000240000
#035351:0000001400000000
#035321:0000000000240000
#036351:14
#036321:00000034000034002400000000000000
#0363a0:14
#036370:00000034000034002400000000000000
#0393a0:14
#039360:0000003424000000
#0403b0:13
#040370:0000003323000000
#040361:13
#040321:0000003323000000
#041371:0000001400000000
#0413a1:0000000000240000
#0423a1:0000001400000000
#042371:0000000000240000
#043371:0000001400000000
#0433a1:0000000000240000
#044351:13
#044321:00230000
#045321:0000000000000013
#046351:0023000000000000
#0453b0:0000000000000013
#046380:0023000000000000
#046380:0000001300000000
#0463b0:0000000000230000
#046351:0000001300000000
#046321:0000000000230000
#0463b1:0000000000000013
#047381:0023
#046320:0000000000000013
#047350:0023
#048320:0000001400000034
#048360:00000034
#049320:24
#0493a0:0000000000000014
#050370:00540000000000000000000000000000
#0503a0:00240000
#0523a0:1424
#052321:0014
#053321:24
#053321:0000000000000014
#054351:00540000000000000000000000000000
#054321:00240000
#056381:00001626
