This file was generated by Ched 2.7.0.0.
#TITLE ""
#ARTIST ""
#DESIGNER ""
#DIFFICULTY 0
#PLAYLEVEL
#SONGID ""
#WAVE ""
#WAVEOFFSET 0
#JACKET ""
#REQUEST "ticks_per_beat 480"
#00002: 4
#BPM01: 150
#00008: 01
#TIL00: ""
#VOLUME: ""
#HISPEED 00
#MEASUREHS 00
#0011b:23130000
#00117:00000000000013130000000013000000
#00112:00000000000000000000001300000000
#0241b:0000130000130000
#02419:0000001300000000
#02417:0013000013000013
#02412:0000000000181300
#02416:00000028
#02410:41
#03312:26000013000016000000000000000000
#0331b:0000000013130000
#03316:0000000000001313
#03315:00160000
#03318:2616000000000000
#0331f:21
#03310:0041
#0361b:1300001313000000
#03618:00000013001300000000000000000000
#03615:0013130000000013
#03612:1300001300130000
#03616:0000000014131400
#03712:0000001300000013
#03715:29001313290000002900131329000000
#0371b:0000001300000013
#0451b:0000000000130013
#04515:00000013
#04518:00000000000026000000001300130000
#04512:0000002c000000000000130000002300
#04812:0014002400000000
#04816:24000024140000000000000000000000
#0481a:00000000002400000000000000000000
#00316:00130000
#00317:00000000000013130000001300000000
#00312:00000013
#0021b:13000000000013131300000000001300
#00217:00000000130000000000001300000000
#00212:00000013
#01716:13000013130000001300001313000000
#0171b:0000001300000013
#01712:2323
#01710:41
#0401b:1300001313000000
#04016:1300000013000014
#04012:0013130000130000
#04017:00000013000000000000000000000000
#05514:00000000000000140014000000000000
#05516:00000000001400000000001400000000
#05518:00000014000000000000000000140000
#0551a:00140000000000000000000000000014
#05512:2c2a28262426282a
#04118:00000013000012000000000000000000
#04115:00130000
#0411b:0013000000000000
#04112:2313001300000000
#04117:0000000000130000
#04116:28
#04110:41
#0251a:0013
#02515:00000015
#02513:00150000
#02514:0015
#0251b:0000000000000013
#02519:00130000
#02517:0000001300000000
#02517:0000001300000000
#02516:0013000000000000
#02518:23000000000000000000001300000000
#0251f:11
#02618:23000000000000000000001300000000
#0261b:0000000000000013
#02619:00130000
#02615:00000015
#02612:15
#02613:00150000
#02614:0015
#02616:0013000000000000
#02617:0000001300000000
#0261a:0013
#0161c:0012000000001200
#0161a:00120000
#01616:00001414
#01617:00000012000000000000000000000000
#01618:0000001200000000
#02716:0000001300001500
#02715:23000000000000000000131300000000
#02719:15
#02718:00150000
#02717:0015
#02712:0013000013000013
#02714:00130000
#02816:0000000000001513
#02819:15
#02818:00150000
#02817:0015
#02813:0000001300000000
#02814:00000013000000000000000000000000
#02812:00000013
#02815:23
#0381b:0000001300000013
#03818:00001313000000000000131300000000
#03812:2900291329002913
#04413:00000000000000130000000000000000
#04414:00000000000000000013000000000000
#04415:00000000000000000000001300000000
#04416:00000000000024000000000000130000
#04417:23000000000000002400000000000013
#04418:0000000000240000
#04419:00000024
#0441a:0000000000000024
#0441b:23
#01516:00120000000000000000001200000000
#01518:00120000000012000000000000001200
#01512:0000000000000012
#01912:00000013130000001300000000000000
#01916:2400001424000014
#0191b:13000000000000000000001313000000
#03212:0000000000130000000000000000000000000000000000001c00000000000000
#03215:3232120000000000000000130000000000000000000000000000000000000000
#03219:2300000000000000001200000000000000000000000000000000000000000000
#03216:0000003232323232000000000000000000000000000000000000000000000000
#0321a:0000000000000000000032320000000000000000000000000000000000000000
#03218:00320000
#0321c:0000000000000000000000003232323200000000000000000000000000000000
#0391a:0024240000140000
#03916:24000024000000001400000000000000
#03912:2400002424000000
#03117:00000000230000000000230000000012
#0311b:2300000000000023
#03119:0023000000002300
#03115:0000002323000000
#0341b:00000013000000000000000000000000
#03412:1616000013130000
#03418:0000001600000000
#03417:0000000000001313
#03415:00160000
#03512:00000013000016000000000000000000
#03517:0000000013130000
#03516:0000000000001313
#03515:00160000
#03518:1616000000000000
#04215:00000013000000000000000000000000
#04218:00130000
#04216:0000001200130000
#04212:2813000000000000
#0421b:2313001300000000
#04318:00000013000012000000000000000000
#0431b:0013000000000000
#04312:2313001300000000
#04315:00130000
#04317:0000000000130000
#04316:28
#04615:00140000
#0461b:000000130000000033000000000000000000000000000000
#04617:1414
#04616:0000000000130023
#04612:000033000000000000230000000000000000000000000000
#04714:13
#04717:000000000000000000000000000000000000000000000000000000000000000000000000000000000000000000000000000000000000000000000000000000000000000000000000000000000000000000000000000000000000000000000000000000000000000000000000000000000000000000000000000000000000000000000000000000000000000000000000000000000000000000000000000000000000000000000000000000000000000000000000000000000000000000000000000000000000000000000000000000000000000000000000000000000000000000000000000000000000000000000013130000000000000000000000000000000000000000000000000000000000000000000000000000000000000000000000000000000000000000000000000000000000000000000000000000000000000000000000000000000000000000000000000000000000000000000000000000000000000000000000000000000000000000000000000000000000000000000000000000000000000000000000000000000000000000000000000000000000000000000000000000000000000000000000000000000000000000000000000000000000000000000000000000000000000000000000000000000000000000000000000000000000000000000000000000000000000000000000000000000000000000000000000000000000000000000000000000000000000000000000000000000000000000000000000000000000000000000000000000000000000000000000000000000000000000000000000000000000000000000000000000000000000000000000000000000000000000000000000000000000000000000000000000000000000000000000000000000000000000000000000000000000000000000000000000000000000000000000000000000000000000000000000000000000000000000000000000000000000000000000000000000000000000000000000000000000000000000000000000000000000000000000000000000000000000000000000000000000000000000000000000000000000000000000000000000000000000000000000000000000000000000000000000000000000000000000000000000000000000000000000000000000000000000000000000000000000000000000000000000000000000000000000000000000000000000000000000000000000000000000000000000000000000000000000000000000000000000000000000000000000000000000000000000000000000000000000000000000000000000000000000000000000000000000000000000000000000000000000000000000000000000000000000000000000000000000000000000000000000000000000000000000000000000000000000000000000000000000000000000000000000000000000000000000000000000000000000000000000000000000000000000000000000000000000000000000000000000000000000000000000000000000000000000000000000000000000000000000000000000000000000000000000000000000000000000000000000000000000000000000000000000000000000000000000000000000000000000000000000000000000000000000000000000000000000000000000000000000000000000000000000000000000000000000000000000000000000000000000000000000000000000000000000000000000000000000000000000000000000000000000000000000000000000000000000000000000000000000000000000000000000000000000000000000000000000000000000000000000000000000000000000000000000000000000000000000000000000000000000000000000000000000000000000000000000000000000000000000000000000000000000000000000000000000000000000000000000000000000000000000000000000000000000000000000000000000000000000000000000000000000000000000000000000000000000000000000000000000000000000000000000000000000000000000000000000000000000000000000000000000000000000000000000000000000000000000000000000000000000000000000000000000000000000000000000000000000000000000000000000000000000000000000000000000000000000000000000000000000000000000000000000000000000000000000000000000000000000000000000000000000000000000000000000000000000000000000000000000000000000000000000000000000000000000000000000000000000000000000000000000000000000000000000000000000000000000000000000000000000000000000000000000000000000000000000000000000000000000000000000000000000000000000000000000000000000000000000000000000000000000000000000000000000000000000000000000000000000000000000000000000000000000000000000000000000000000000000000000000000000000000000000000000000000000000000000000000000000000000000000000000000000000000000000000000000000000000000000000000000000000
#0471a:00130000
#04712:0000000013000013
#04715:0000000000130000
#0471b:1300000000000013
#04713:00130000
#04716:000000000000000000000000000000000000000000000000000000000000000000000000000000000000000000000000000000000000000000000000000000000000000000000000000000000000000000000000000000000000000000000000000000000000000000000000000000000000000000000000000000000000000000000000000000000000000000000000000000000000000000000000000000000000000000000000000000000000000000000000000000000000000000000000000000000000000000000000000000000000000000000000000000000000000000000000000000000000000000000000000000000000000000000000000000000000000000000000000000000000000000000000000000000000000000000000000000000000000000000000000000000000000000000000000000000000000000000000000000000000000000000000000000000000000000000000000000000000000000000000000000000000000000000000000000000000000000000000000000000000000000000000000000000000000000000000000000000000000000000000000000000000000000000000000000000000000000000000000000000000000000000000000000000000000000000000000000000000000000000000000000000000000000000000000000000000000000000000000000000000000000000000000000000000000000000000000000000000000000000000000000000000000000000000000000000000000000000000000000000000000000000000000000000000000000000000000000000000000000000000000000000000000000000000000000000000000000000000000000000000000000000000000000000000000000000000000000000000000000000000000000000000000000000000000000000000000000000000000000000000000000000000000000000000000000000000000000000000000000000013130000000000000000000000000000000000000000000000000000000000000000000000000000000000000000000000000000000000000000000000000000000000000000000000000000000000000000000000000000000000000000000000000000000000000000000000000000000000000000000000000000000000000000000000000000000000000000000000000000000000000000000000000000000000000000000000000000000000000000000000000000000000000000000000000000000000000000000000000000000000000000000000000000000000000000000000000000000000000000000000000000000000000000000000000000000000000000000000000000000000000000000000000000000000000000000000000000000000000000000000000000000000000000000000000000000000000000000000000000000000000000000000000000000000000000000000000000000000000000000000000000000000000000000000000000000000000000000000000000000000000000000000000000000000000000000000000000000000000000000000000000000000000000000000000000000000000000000000000013000000000000000000000000000000000000000000000000000000000000000000000000000000000000000000000000000000000000000000000000000000000000000000000000000000000000000000000000000000000000000000000000000000000000000000000000000000000000000000000000000000000000000000000000000000000000000000000000000000000000000000000000000000000000000000000000000000000000000000000000000000000000000000000000000000000000000000000000000000000000000000000000000000000000000000000000000000000000000000000000000000000000000000000000000000000000000000000000000000000000000000000000000000000000000000000000000000000000000000000000000000000000000000000000000000000000000000000000000000000000000000000000000000000000000000000000000000000000000000000000000000000000000000000000000000000000000000000000000000000000000000000000000000000000000000000000000000000000000000000000000000000000000000000000000000000000000000000000000000000000000000000000000000000000000000000000000000000000000000000000000000000000000000000000000000000000000000000000000000000000000000000000000000000000000000000000000000000000000000000000000000000000000000000000000000000000000000000000000000000000000000000000000000000000000000000000000000000000000000000000000000000000000000000000000000000000000000000000000000000000000000000000000000000000000000000000000000000000000000000000000000000000000000000000000000000000000000000000000000000000000000000000000000000000000000000000000000000000000000000000000000000000000000000000000000000000000000000000000000000000000000
#04719:0013
#0091c:12
#00912:0000001212000000
#00917:0000000000000012
#0101a:1200001200000000
#01012:0000000000000012
#01014:0000001200000000
#0101c:0000000000000012
#01010:41
#01112:12
#0111c:1200001212000000
#0111a:0000000000000012
#01214:12
#0121a:1200000000000012
#01212:00000000001200000000000012000000
#0121c:00000000001200000000000000000000
#01218:00000012
#0131c:12000012
#0131b:00000012000000000000000000000000
#01316:12000012
#01314:0000000000000012
#0131a:0000001200000000
#01412:1200000000002222
#01413:00000012000000000000000000000000
#01414:0000001200000000
#01418:12
#0141c:0000000000002222
#01817:13000013130000001300001313000000
#01812:0000001300000013
#0181b:2323
#02017:00000000000000000000001300000000
#0201b:1300000013000013
#02012:00000013130000001300000023000000
#02016:2400001400000023
#0041b:0013000000000000
#00416:00000000000013130000000000000000
#00412:0000000000130000
#0081b:0000000000132300
#00812:0013000000000000
#00817:00000000000013130000000023000000
#02116:13000013000000000000000013000000
#02112:23000023000023000000000000001300
#0211b:0000001300000000001300000000000000000000000000002300000000000000
#02117:0000000000000023
#05312:2c0012122c0000002c0012122c000000
#05316:00000000000012120000000000001212
#05417:00000000000013130000000000001313
#0541b:00001313000000000000131300000000
#05412:2c2c2c2c
#05617:00000000000012120000000000000000
#05612:2c32323232003200000000000000000000000000000000001200000000000000
#0561b:0012000000000000
#05619:00120000
#05212:0000000000132300
#05216:00001300000000131300000000000000
#0521b:0000001300000000
#00512:23130000
#00516:00000000000013130000000013000000
#0051b:00000000000000000000001300000000
#00717:00130000
#00716:00000000000013130000001300000000
#0071b:00000013
#00612:13000000000013131300000000001300
#00616:00000000130000000000001300000000
#0061b:00000013
#02915:0013001300001600
#02918:00002300000023000000231300002300
#02914:0015
#02913:00140000
#0291b:13131300
#02217:13000013000000000000000000000000
#02212:0000001300000000001300000000000000000000000000002300000023000000
#0221b:23000023000023000000000023001300
#02312:0000000000000013
#0231a:0000001200000000
#02314:0000001200000000
#02318:00130000000000000000000000000000
#02315:00130000000000000000000000000000
#0501b:00000000000000000000131300000000
#05017:00001313000000000000000000001300
#05019:00000000000013130000000000000000
#05012:0000000000001313
#04917:00001313000000000000131300000000
#0491b:00000000000013130000000000001313
#04912:26180018
#04918:26
#04910:41
#05116:00001313180000000000131318000000
#05112:26000000000013130000000000000000
#05118:26
#03018:0013001300000000
#03015:00002300000023000000231316002300
#03017:0015
#03019:00140000
#0301b:13
#03012:13131300
#0365b:00006343
#03656:0000000000234400
#02457:0023000000000023
#02456:00000048
#02452:0000000000386300
#04056:0063
#0405b:63006343
#04052:0000530000230000
#04057:00000043
#03952:54005434
#0395a:0000540000240000
#03956:00005434
#0165c:00000042
#01657:00000022000000000000000000000000
#01652:0032
#01656:00003444
#02553:00350000
#02554:0035
#02555:00000035
#02552:35
#02655:00000035
#02652:35
#02653:00350000
#02654:0035
#02756:00000045
#02759:45
#02758:00450000
#02757:0045
#02856:0000000000004523
#02859:45
#02858:00450000
#02857:0045
#02852:00000053
#03358:46
#03352:36
#0415c:0000000000120000
#04158:0000001200000012
#04152:0000002300000000
#04157:0000000000530000
#04156:48
#03259:5300000000000000005200000000000000000000000000000000000000000000
#03255:0000220000000000000000530000000000000000000000000000000000000000
#03252:0000000000230000000000000000000000000000000000000000000000000000
#0325c:0012
#03257:0014
#03157:00000000000000000000000000000052
#03452:36
#03558:46
#03755:00490049
#03852:00390039
#04256:0000001200630012
#04252:3800000000120000
#0425b:0000002300000000
#04356:48
#0435c:0000000000120000
#04358:0000001200000012
#04352:0000002300000000
#04357:0000000000530000
#04552:0000003600000053
#04558:0000004600000000
#04655:00240000
#0465b:0063004300000000
#04657:2424
#04652:0033005300330000
#04656:0000000000630053
#04754:23
#04757:000000000000000000000000000000000000000000000000000000000000000000000000000000000000000000000000000000000000000000000000000000000000000000000000000000000000000000000000000000000000000000000000000000000000000000000000000000000000000000000000000000000000000000000000000000000000000000000000000000000000000000000000000000000000000000000000000000000000000000000000000000000000000000000000000000000000000000000000000000000000000000000000000000000000000000000000000000000000000000000053530000000000000000000000000000000000000000000000000000000000000000000000000000000000000000000000000000000000000000000000000000000000000000000000000000000000000000000000000000000000000000000000000000000000000000000000000000000000000000000000000000000000000000000000000000000000000000000000000000000000000000000000000000000000000000000000000000000000000000000000000000000000000000000000000000000000000000000000000000000000000000000000000000000000000000000000000000000000000000000000000000000000000000000000000000000000000000000000000000000000000000000000000000000000000000000000000000000000000000000000000000000000000000000000000000000000000000000000000000000000000000000000000000000000000000000000000000000000000000000000000000000000000000000000000000000000000000000000000000000000000000000000000000000000000000000000000000000000000000000000000000000000000000000000000000000000000000000000000000000000000000000000000000000000000000000000000000000000000000000000000000000000000000000000000000000000000000000000000000000000000000000000000000000000000000000000000000000000000000000000000000000000000000000000000000000000000000000000000000000000000000000000000000000000000000000000000000000000000000000000000000000000000000000000000000000000000000000000000000000000000000000000000000000000000000000000000000000000000000000000000000000000000000000000000000000000000000000000000000000000000000000000000000000000000000000000000000000000000000000000000000000000000000000000000000000000000000000000000000000000000000000000000000000000000000000000000000000000000000000000000000000000000000000000000000000000000000000000000000000000000000000000000000000000000000000000000000000000000000000000000000000000000000000000000000000000000000000000000000000000000000000000000000000000000000000000000000000000000000000000000000000000000000000000000000000000000000000000000000000000000000000000000000000000000000000000000000000000000000000000000000000000000000000000000000000000000000000000000000000000000000000000000000000000000000000000000000000000000000000000000000000000000000000000000000000000000000000000000000000000000000000000000000000000000000000000000000000000000000000000000000000000000000000000000000000000000000000000000000000000000000000000000000000000000000000000000000000000000000000000000000000000000000000000000000000000000000000000000000000000000000000000000000000000000000000000000000000000000000000000000000000000000000000000000000000000000000000000000000000000000000000000000000000000000000000000000000000000000000000000000000000000000000000000000000000000000000000000000000000000000000000000000000000000000000000000000000000000000000000000000000000000000000000000000000000000000000000000000000000000000000000000000000000000000000000000000000000000000000000000000000000000000000000000000000000000000000000000000000000000000000000000000000000000000000000000000000000000000000000000000000000000000000000000000000000000000000000000000000000000000000000000000000000000000000000000000000000000000000000000000000000000000000000000000000000000000000000000000000000000000000000000000000000000000000000000000000000000000000000000000000000000000000000000000000000000000000000000000000000000000000000000000000000000000000000000000000000000000000000000000000000000000000000000000000000000000000000000000000000000000000000000000000000000000000000000000000000000000000000000
#0475a:00230000
#04752:00002313
#04755:0000000000530000
#04759:0023
#04753:00230000
#04756:000000000000000000000000000000000000000000000000000000000000000000000000000000000000000000000000000000000000000000000000000000000000000000000000000000000000000000000000000000000000000000000000000000000000000000000000000000000000000000000000000000000000000000000000000000000000000000000000000000000000000000000000000000000000000000000000000000000000000000000000000000000000000000000000000000000000000000000000000000000000000000000000000000000000000000000000000000000000000000000000000000000000000000000000000000000000000000000000000000000000000000000000000000000000000000000000000000000000000000000000000000000000000000000000000000000000000000000000000000000000000000000000000000000000000000000000000000000000000000000000000000000000000000000000000000000000000000000000000000000000000000000000000000000000000000000000000000000000000000000000000000000000000000000000000000000000000000000000000000000000000000000000000000000000000000000000000000000000000000000000000000000000000000000000000000000000000000000000000000000000000000000000000000000000000000000000000000000000000000000000000000000000000000000000000000000000000000000000000000000000000000000000000000000000000000000000000000000000000000000000000000000000000000000000000000000000000000000000000000000000000000000000000000000000000000000000000000000000000000000000000000000000000000000000000000000000000000000000000000000000000000000000000000000000000000000000000000000000000000000053530000000000000000000000000000000000000000000000000000000000000000000000000000000000000000000000000000000000000000000000000000000000000000000000000000000000000000000000000000000000000000000000000000000000000000000000000000000000000000000000000000000000000000000000000000000000000000000000000000000000000000000000000000000000000000000000000000000000000000000000000000000000000000000000000000000000000000000000000000000000000000000000000000000000000000000000000000000000000000000000000000000000000000000000000000000000000000000000000000000000000000000000000000000000000000000000000000000000000000000000000000000000000000000000000000000000000000000000000000000000000000000000000000000000000000000000000000000000000000000000000000000000000000000000000000000000000000000000000000000000000000000000000000000000000000000000000000000000000000000000000000000000000000000000000000000000000000000000000053000000000000000000000000000000000000000000000000000000000000000000000000000000000000000000000000000000000000000000000000000000000000000000000000000000000000000000000000000000000000000000000000000000000000000000000000000000000000000000000000000000000000000000000000000000000000000000000000000000000000000000000000000000000000000000000000000000000000000000000000000000000000000000000000000000000000000000000000000000000000000000000000000000000000000000000000000000000000000000000000000000000000000000000000000000000000000000000000000000000000000000000000000000000000000000000000000000000000000000000000000000000000000000000000000000000000000000000000000000000000000000000000000000000000000000000000000000000000000000000000000000000000000000000000000000000000000000000000000000000000000000000000000000000000000000000000000000000000000000000000000000000000000000000000000000000000000000000000000000000000000000000000000000000000000000000000000000000000000000000000000000000000000000000000000000000000000000000000000000000000000000000000000000000000000000000000000000000000000000000000000000000000000000000000000000000000000000000000000000000000000000000000000000000000000000000000000000000000000000000000000000000000000000000000000000000000000000000000000000000000000000000000000000000000000000000000000000000000000000000000000000000000000000000000000000000000000000000000000000000000000000000000000000000000000000000000000000000000000000000000000000000000000000000000000000000000000000000000000000000000000000
#0475b:23
#04758:00000013
#0015b:13430000
#00157:00000043
#00356:00330000
#00352:00000033
#0095c:52
#00952:0052
#0105a:52
#01152:62
#0115c:0062
#01254:62
#0125a:52
#01252:00000000002200000000000000000000
#0125c:00000000002200000000000000000000
#01454:0000006200000000
#01452:0000000000000052
#0145c:0000000000000062
#01458:62
#0135a:0000006200000000
#01356:52
#01552:0000000000000062
#01556:00220000000000000000000000000000
#01558:00220000000000000000000000000000
#01756:5353
#0175b:00130013
#01857:6363
#01852:00130013
#0445b:63
#04457:63
#0085b:00000013
#00857:00000013
#00857:00000013
#00456:00000013
#0195b:53000013
#01952:00136300
#01956:00130000
#01957:00000013
#02156:53000053000000000000000000000000
#02152:1300005300000000
#0215b:0000002300000000002300000000000000000000000000000000000000000000
#05252:00000013
#05256:00000013
#00552:13330000
#00556:00000033
#00757:00430000
#0075b:00000043
#02955:00000036
#02954:0035
#02953:00340000
#02952:33
#02257:63000063000000000000000000000000
#02252:0000002300000000002300000000000000000000000000000000000053000000
#0225b:1300006300000063
#02352:00000000000000000000001200006300
#02358:00230000000000000000000000000000
#02355:00230000000000000000000000000000
#0235c:00000000000000000000001200000000
#04852:0000006400000000
#0485a:00000000006400000000000000000000
#05158:46
#05152:36
#05156:00480048
#04958:46
#04952:36380038
#02052:00130000
#0205b:53
#02056:00130000
#05652:5c000032
#03055:00000046
#03057:0045
#03059:00440000
#0305b:43
#001320:13
#001370:00530000230000000000000000000000
#0013b0:0013
#001370:00000000000000000000002300000000
#001320:0000000000000013
#002370:33530000000000003353000000000000
#002320:00000000335300000000002300000000
#002360:0000000000000013
#003360:23
#0033b1:13230000
#003321:00000000000000001300002300000000
#003371:0000000000000013
#0043b1:23
#004360:13230000
#0043b1:0000132300000000
#004391:000000000000000000000000000000000000000000000000000000000000000000000000000000000000000000000000000000000000000000000000000000000000000000000000000000000000000000000000000000000000000000000000000000000000000000000000000000000000000000000000000000000000000000000000000000000000000000000000000000000000000000000000000000000000000000000000000000000000000000000000000000000000000000000000000000000000000000000000000000000000000000000000000000000000000000000000000000000000000000000000000000000000000000000000000000000000000000000000000000000000000000000000000000000000000000000000000000000000000000000000000000000000000000000000000000000000000000000000000000000000000000000000000000000000000000000000000000000000000000000000000000000000000000000000000000000000000000000000000000000000000000000000000000000000000000000000000000000000000000000000000000000000000000000000000000000000000000000000000000000000000000000000000000000000000000000000000000000000000000000000130000000000000000000000000000000000000000000000000000000000000000000000000000000000000000000000000000000000000000000000000000000000000000000000000000000000000000000000000000000000000000000000000000000000005300000000000000000000000000000000000000000000000000000000000000000000000000000000000000000000000000000000000000000000000000000000000000000000000000000000000000000000000000000000000000000000000000000000000000000000000000000000000000000000000000000000000000000000000000000000000000000000000000000000000000000000000000000000000000000000000000000000000000000000000000000000000000000000000000000000000000000000000000000000000000000000000000000000000000000000000000000000000000000000000000000000000000000000000000000000000000000000000000000000000000000000000000000000000000000000000000000000000000000000000000000000000000000000000000000000000000000000000000000000000000000000000000000000000000000000000000000000000000000000000000000000000000000000000000000000
#004361:000000000000000000000000000000000000000000000000000000000000000000000000000000000000000000000000000000000000000000000000000000000000000000000000000000000000000000000000000000000000000000000000000000000000000000000000000000000000000000000000000000000000000000000000000000000000000000000000000000000000000000000000000000000000000000000000000000000000000000000000000000000000000000000000000000000000000000000000000000000000000000000000000000000000000000000000000000000000000000000000000000000000000000000000000000000000000000000000000000000000000000000000000000000000000000000000000000000000000000000000000000000000000000000000000000000000000000000000000000000000000000000000000000000000000000000000000000000000000000000000000000000000000000000000000000000000000000000000000000000000000000000000000000000000000000000000000000000000000000000000000000000000000000000000000000000000000000000000000000000000000000000000000000000000000000000000000000000000000000000000000000000000000000000000000000000000000000000000000000000000000000000000000000000000000000000000000000000000000000000000000000000000000000000000000000000000000000000000000000000000000000000000000000000000000056000000000000000000000000000000003600000000000000000000000000000000000000565300000000000000000000000000000000000000000000000000000000000000000000000000000000000000000000000000000000000000000000000000000000000000000000000000000000000000000000000000000000000000000000000000230000000000000000000000000000000000000000000000000000000000000000000000000000000000000000000000000000000000000000000000000000000000000000000000000000000000000000000000000000000000000000000000000000000000000000000000000000000000000000000000000000000000000000000000000000000000000000000000000000000000000000000000000000000000000000000000000000000000000000000000000000000000000000000000000000000000000000000000000000000000000000000000000000000000000000000000000000000000000000000000
#004320:00000013
#005320:23
#0053b1:13
#005361:00530000230000000000000000000000
#005321:0013
#005361:00000000000000000000002300000000
#0053b1:0000000000000013
#006361:33530000000000003353000000000000
#0063b1:00000000335300000000002300000000
#006371:0000000000000013
#007371:23
#007320:13230000
#0073b0:00000000000000001300002300000000
#007360:0000000000000013
#008320:23
#008371:13230000
#008320:0000132300000000
#008340:000000000000000000000000000000000000000000000000000000000000000000000000000000000000000000000000000000000000000000000000000000000000000000000000000000000000000000000000000000000000000000000000000000000000000000000000000000000000000000000000000000000000000000000000000000000000000000000000000000000000000000000000000000000000000000000000000000000000000000000000000000000000000000000000000000000000000000000000000000000000000000000000000000000000000000000000000000000000000000000000000000000000000000000000000000000000000000000000000000000000000000000000000000000000000000000000000000000000000000000000000000000000000000000000000000000000000000000000000000000000000000000000000000000000000000000000000000000000000000000000000000000000000000000000000000000000000000000000000000000000000000000000000000000000000000000000000000000000000000000000000000000000000000000000000000000000000000000000000000000000000000000000000000000000000000000000000000000000000000000000130000000000000000000000000000000000000000000000000000000000000000000000000000000000000000000000000000000000000000000000000000000000000000000000000000000000000000000000000000000000000000000000000000000000005356000000000000000000000000000000003600000000000000000000000000000000000000560000000000000000000000000000000000000000000000000000000000000000000000000000000000000000000000000000000000000000000000000000000000000000000000000000000000000000000000000000000000000000000000000000000000000000000000000000000000000000000000000000000000000000000000000000000000000000000000000000000000000000000000000000000000000000000000000000000000000000000000000000000000000000000000000000000000000000000000000000000000000000000000000000000000000000000000000000000000000000000000000000000000000000000000000000000000000000000000000000000000000000000000000000000000000000000000000000000000000000000000000000000000000000000000000000000000000000000000000000000000000000000000000000
#008370:000000000000000000000000000000000000000000000000000000000000000000000000000000000000000000000000000000000000000000000000000000000000000000000000000000000000000000000000000000000000000000000000000000000000000000000000000000000000000000000000000000000000000000000000000000000000000000000000000000000000000000000000000000000000000000000000000000000000000000000000000000000000000000000000000000000000000000000000000000000000000000000000000000000000000000000000000000000000000000000000000000000000000000000000000000000000000000000000000000000000000000000000000000000000000000000000000000000000000000000000000000000000000000000053000000000000000000000000000000000000000000000000000000000000000000000000000000000000000000000000230000000000000000000000000000000000000000000000000000000000000000000000000000000000000000000000000000000000000000000000000000000000000000000000000000000000000000000000000000000000000000000000000000000000000000000000000000000000000000000000
#0093c0:12
#009370:00520022
#009321:0012
#0093a1:00000052
#0103a1:52
#010321:00220000
#010370:12220000
#0103a0:0012
#010340:00000022
#010341:0012
#0103a1:00000022
#011321:12
#011371:00520022
#0113c0:0012
#011340:00000052
#012340:52
#0123c0:00000000005200000000000000000000
#012380:0022
#0123a1:12
#012321:00000000005200000000000000000000
#012361:0022
#013361:12
#013381:0000000000220000
#0133a0:0000001200000000
#013320:0000000000220000
#014380:12
#014360:0000000000220000
#014341:0000001200000000
#0143c1:0000000000220000
#0143c1:0000000000000012
#015381:00520000000000000000000000000000
#0153c1:00220000
#014320:0000000000000012
#015360:00520000000000000000000000000000
#015320:00220000
#015360:0000001222000000
#015381:0012
#0153c1:00000000000000000000002200000000
#015321:0000000000000012
#016371:00000052000000000000000000000000
#016321:0022
#017361:13
#0173b1:00230000
#017361:0013
#0173b1:00000023
#018371:13
#018321:00230000
#018371:0013
#018321:00000023
#0193b1:13
#019361:0053230000000000
#019321:0013
#019371:0000000000532300
#0203b1:13
#020361:0053230000000000
#021361:13000033000033000000230000000000
#0213b1:0000005300000000005300000000000000000000000000000000000000000000
#021320:0000001300000000
#0213b0:0000000000230000
#022370:13000033000033000000230000000000
#022320:0000005300000000005300000000000000000000000000000000000000000000
#0223b1:0000001300000000
#022321:0000000000230000
#022321:0000000000000013
#023381:00530000000000000000000000000000
#023321:00230000
#0223b0:0000000000000013
#023350:00530000000000000000000000000000
#0233b0:00230000
#023360:0012
#023320:00000000000000000052002200000000
#023381:0012
#0233c1:00000000000000000052002200000000
#023321:0000000000000013
#024371:0053000000000000
#024321:0023
#0233b0:0000000000000013
#0243b0:0023000000000000
#024321:00000013
#024371:0000000000000053
#025321:25
#028361:0000000000130053
#028341:00000000000000000000003300000000
#028321:00000033
#029321:23
#0313b1:13230000000000000000000000000000
#031370:00122200000000000000000000000000
#031391:00001323000000000000000000000000
#031350:00000012220000000000000000000000
#031371:00000000132300000000000000000000
#031330:00000000001222000000000000000000
#031351:00000000000013230000000000000000
#031320:00000000000000122200000000000000
#031351:00000000000000001323000000000000
#031330:00000000000000000012220000000000
#031371:00000000000000000000132300000000
#031350:00000000000000000000001222000000
#031391:00000000000000000000000013230000
#031370:00000000000000000000000000122200
#0313b1:00000000000000000000000000001323
#031370:00000000000000000000000000000012
#032350:3232320000000000000000000000000000000000000000000000000000000000
#032360:0000003232323232000000000000000000000000000000000000000000000000
#032380:00320000
#032390:0000000000000000003200000000000000000000000000000000000000000000
#0323a0:0000000000000000000032320000000000000000000000000000000000000000
#0323c0:0000000000000000000000003232323222000000000000000000000000000000
#032391:13
#032321:0000000000530000000000000000000000000000000000000000000000000000
#032351:0000000000000000000000530000000000000000000000000000000000000000
#032371:0024
#033371:0000000013230000
#033321:0000000000001323
#034381:1323000000000000
#034361:0000000013230000
#0343b1:0000000000001323
#035351:1323000000000000
#0353b1:0000000013230000
#035321:0000000000001323
#0363b1:00001323
#036361:0000000000530000
#039321:14
#039361:0024000000000000
#0393a1:0000140000340000
#039361:0000003434000000
#039321:00000024
#039320:0014
#039360:0000000000542400
#0403b0:13
#040370:0023000000000000
#040320:0000130000330000
#040360:0000003333000000
#0403b0:00000023
#0403b1:0013
#040371:0000000000532300
#041321:0000001300000023
#041371:0000000000330000
#0413c0:0000000012220000
#041380:0000000000001222
#0423b0:0000001300000023
#042360:0000000000330000
#042321:0000000012220000
#042361:0000000000001222
#043321:0000001300000023
#043371:0000000000330000
#0433c0:0000000012220000
#043380:0000000000001222
#0443b0:13
#044360:00230000
#044371:13
#044321:00230000
#045321:1c000000000000000000000000000000000000000000000000000000000000000000000000000000000000000000000000000000000000000000000000000000000000000000000000000000000000000000000000000000000000000000000000000000000000000000000000000000000000000000000000000000000000000000000000000000000000000000000000000000000000000000000000000000000000000000000000000000000000000000000000000000000000000000000000000000000000000000000000000000000000000000000000000000000000000000000000000000000000000000000000000000000000000000000000000000000000000000000000000000000000000000000000000000000000000000000000000000000000000000000000000000000000000000000000000000000000000000000000000000000000000000000000000000000000000000000000000000000000000000005c000000000000000000000000000000000000000000000000000000000000000000000000000000000000000000000000000000000000000000000000000000000000000000000000000000000000000000000000000000000000000000000000000000000000000000000000000000000000000000000000000000000000000000000000000000000000000000000000000000000000000000000000000000000000000000000000000000000000000000000000000000000000000000000000000000000000000000000000000000000000000000000000000000000000000000000000000000000000000000000000000000000000000000000000000000000000000000000000000000000000000000000000000000000000000000000000000000000000000000000000000000000000000000000000000000000000000000000000000000000000000000000000000000000000000000000000000000000000000000000000000000000000000000000000000000000000000000000000000000000000000000000000000000000000000000000000000000000000000000000000000000000000000000000000000000000000000000000000000000000000000000000000000000000000000000000000000000000000000000000000000000000000000000000000000000000000000000000000000000000000000000000000000000000000000000000000000000000000000000000000000000000000000000000000000000000000000000000000000000000000000000000000000000000000000000000000000000000000000000000000
#045381:0000002600000000
#045320:0000000000000000000000000000000000000000000000000000000000000000000000000000000000000000000000000000000000000000000000000000000000000000000000000000000000000000000000000000000000000000000000000000000000000000000000000000000000000000000000000000000000000000000000000000000000000000000000000000000000000000000000000000000000000000000000000000000000000000000000000000000000000000000000000000000000000000000000000000000000000000000000000000000000000000000000000000000000000000000000000000000000000000000000000000000000000000000000000000000000000000000000000000000000000000000000000000000000000000000000000000000000000000000000000000000000000000000000000000000000000000000000000000000000000000000000000000000000000000000000001c000000000000000000000000000000000000000000000000000000000000000000000000000000000000000000000000000000000000000000000000000000000000000000000000000000000000000000000000000000000000000000000000000000000000000000000000000000000000000000000000000000000000000000000000000000000000000000000000000000000000000000000000000000000000000000000000000000000000000000000000000000000000000000000000000000000000000000000000000000000000000000000000000000000000000000000000000000000000000000000000000000000000000000000000000000000000000000000000000000000000000000000000000000000000000000000000000000000000000000000000000000000000000000000000000000000000000000000000000000000000000000000000000000000000000000000000000000000000000000005c260000000000000000000000000000000000000000000000000000000000000000000000000000000000000000000000000000000000000000000000000000000000000000000000000000000000000000000000000000000000000000000000000000000000000000000000000000000000000000000000000000000000000000000000000000000000000000000000000000000000000000000000000000000000000000000000000000000000000000000000000000000000000000000000000000000000000000000000000000000000000000000000000000000000000000000000000000000000000000000000000000000000000000000000000000000000000000000000000000000000000000000000000000000000000000000000000000000000000000000000000000000000000000000000000000000000000000000000000000000000000000000000000000000000000000000000000000000000000000000000000000000000000000000000000000000000000000000000000000000000000000000000000000000000000000000000000000000000000000000000000000000000000000000000000000000000000000000000000000000000000000000000000000000000000000000000000000000000000000000000000000000000000000000000000000000000000000000000000000000000000000000000000000000000000000000000000000000000000000000000000000000000000000000000000000000000000000000000000000000000000000000000000000000000000000000000000000000000000000000000000000000000000000000000000000000000000000000000000000000000000000000000000000000000000000000000000000000000000000000000000000000000000000000000000000000000000000000000000000000000000000000000000000000000000000000000000000000000000000000000000000000000000000000000000000000000000000000000000000000000000000000000000000000000000000000000000000000000000000000000000000000000000000000000000000000000000000000000000000000000000000000000000000000000000000000000000000000000000000000000000000000000000000000000000000000000000000000000000000000000000000000000000000000000000000000000000000000000000000000000000000000000000000000000000000000000000000000000000000000000000000000000000000000000000000000000000000000000000000000000000000000000000000000000000000000000000000000000000000000000000000000000000000000000000000000000000000000000000000000000000000000000000000000000000000000000000000000000000000000000000000000000000000000000000000000000000000000000000000000000000000000000000000000000000000000000000000000000000000000000000000000000000000000000000000000000000000000000000000000000000000000000000000000000000000000000000000000000000000000000000000000000000000000000000000000000000000000000000000000000
#045320:0000000000000013
#046370:54
#046320:000033230000000000000000000000000000000000000000
#0463b1:000000130000000033230000000000000000000000000000
#046351:00540000
#046320:0000001300230000
#046370:0054
#046361:0000000000130000
#0473b1:33
#047371:000000000000000000000000000000000000000000000000000000000000000000000000000000000000000000000000000000000000000000000000000000000000000000000000000000000000000000000000000000000000000000000000000000000000000000000000000000000000000000000000000000000000000000000000000000000000000000000000000000000000000000000000000000000000000000000000000000000000000000000000000000000000000000000000000000000000000000000000000000000000000000000000000000000000000000000000000000000000000000000053000000000000000000000000000000000000000000000000000000000000000000000000000000000000000000000000000000000000000000000000000000000000000000000000000000000000000000000000000000000000000000000000000000000000000000000000000000000000000000000000000000000000000000000000000000000000000000000000000000000000000000000000000000000000000000000000000000000000000000000000000000000000000000000000000000000000000000000000000000000000000000000000000000000000000000000000000000000000000000000000000000000000000000000000000000000000000000000000000000000000000000000000000000000000000000000000000000000000000000000000000000000000000000000000000000000000000000000000000000000000000000000000000000000000000000000000000000000000000000000000000000000000000000000000000000000000000000000000000000000000000000000000000000000000000000000000000000000000000000000000000000000000000000000000000000000000000000000000000000000000000000000000000000000000000000000000000000000000000000000000000000000000000000000000000000000000000000000000000000000000000000000000000000000000000000000000000000000000000000000000000000000000000000000000000000000000000000000000000000000000000000000000000000000000000000000000000000000000000000000000000000000000000000000000000000000000000000000000000000000000000000000000000000000000000000000000000000000000000000000000000000000000000000000000000000000000000000000000000000000000000000000000000000000000000000000000000000000000000000000000000000000000000000000000000000000000000000000000000000000000000000000000000000000000000000000000000000000000000000000000000000000000000000000000000000000000000000000000000000000000000000000000000000000000000000000000000000000000000000000000000000000000000000000000000000000000000000000000000000000000000000000000000000000000000000000000000000000000000000000000000000000000000000000000000000000000000000000000000000000000000000000000000000000000000000000000000000000000000000000000000000000000000000000000000000000000000000000000000000000000000000000000000000000000000000000000000000000000000000000000000000000000000000000000000000000000000000000000000000000000000000000000000000000000000000000000000000000000000000000000000000000000000000000000000000000000000000000000000000000000000000000000000000000000000000000000000000000000000000000000000000000000000000000000000000000000000000000000000000000000000000000000000000000000000000000000000000000000000000000000000000000000000000000000000000000000000000000000000000000000000000000000000000000000000000000000000000000000000000000000000000000000000000000000000000000000000000000000000000000000000000000000000000000000000000000000000000000000000000000000000000000000000000000000000000000000000000000000000000000000000000000000000000000000000000000000000000000000000000000000000000000000000000000000000000000000000000000000000000000000000000000000000000000000000000000000000000000000000000000000000000000000000000000000000000000000000000000000000000000000000000000000000000000000000000000000000000000000000000000000000000000000000000000000000000000000000000000000000000000000000000000000000000000000000000000000000000000000000000000000000000000000000000000000000000000000000000000000000000000000000000000000000000000000000000000000000000000000000000000000000000000000000000000000000000000000000000000000000000000000000000000000000000000000000000000000000000000000000000000000
#047331:00330000
#047361:000000000000000000000000000000000000000000000000000000000000000000000000000000000000000000000000000000000000000000000000000000000000000000000000000000000000000000000000000000000000000000000000000000000000000000000000000000000000000000000000000000000000000000000000000000000000000000000000000000000000000000000000000000000000000000000000000000000000000000000000000000000000000000000000000000000000000000000000000000000000000000000000000000000000000000000000000000000000000000000000000000000000000000000000000000000000000000000000000000000000000000000000000000000000000000000000000000000000000000000000000000000000000000000000000000000000000000000000000000000000000000000000000000000000000000000000000000000000000000000000000000000000000000000000000000000000000000000000000000000000000000000000000000000000000000000000000000000000000000000000000000000000000000000000000000000000000000000000000000000000000000000000000000000000000000000000000000000000000000000000000000000000000000000000000000000000000000000000000000000000000000000000000000000000000000000000000000000000000000000000000000000000000000000000000000000000000000000000000000000000000000000000000000000000000000000000000000000000000000000000000000000000000000000000000000000000000000000000000000000000000000000000000000000000000000000000000000000000000000000000000000000000000000000000000000000000000000000000000000000000000000000000000000000000000000000000000000000000000000000053000000000000000000000000000000000000000000000000000000000000000000000000000000000000000000000000000000000000000000000000000000000000000000000000000000000000000000000000000000000000000000000000000000000000000000000000000000000000000000000000000000000000000000000000000000000000000000000000000000000000000000000000000000000000000000000000000000000000000000000000000000000000000000000000000000000000000000000000000000000000000000000000000000000000000000000000000000000000000000000000000000000000000000000000000000000000000000000000000000000000000000000000000000000000000000000000000000000000000000000000000000000000000000000000000000000000000000000000000000000000000000000000000000000000000000000000000000000000000000000000000000000000000000000000000000000000000000000000000000000000000000000000000000000000000000000000000000000000000000000000000000000000000000000000000000000000000000000000000053000000000000000000000000000000000000000000000000000000000000000000000000000000000000000000000000000000000000000000000000000000000000000000000000000000000000000000000000000000000000000000000000000000000000000000000000000000000000000000000000000000000000000000000000000000000000000000000000000000000000000000000000000000000000000000000000000000000000000000000000000000000000000000000000000000000000000000000000000000000000000000000000000000000000000000000000000000000000000000000000000000000000000000000000000000000000000000000000000000000000000000000000000000000000000000000000000000000000000000000000000000000000000000000000000000000000000000000000000000000000000000000000000000000000000000000000000000000000000000000000000000000000000000000000000000000000000000000000000000000000000000000000000000000000000000000000000000000000000000000000000000000000000000000000000000000000000000000000000000000000000000000000000000000000000000000000000000000000000000000000000000000000000000000000000000000000000000000000000000000000000000000000000000000000000000000000000000000000000000000000000000000000000000000000000000000000000000000000000000000000000000000000000000000000000000000000000000000000000000000000000000000000000000000000000000000000000000000000000000000000000000000000000000000000000000000000000000000000000000000000000000000000000000000000000000000000000000000000000000000000000000000000000000000000000000000000000000000000000000000000000000000000000000000000000000000000000000000000000000000000000000
#047391:0033
#047321:00000023
#046360:0000000000000013
#047340:33
#047370:0053000000000000
#0473a0:00330000
#047360:0000005300000000
#047320:0033
#047350:0000000000530000
#047380:00000023
#0483b0:13
#048370:0023000000000000
#0483a0:00000000001400000000000000000000
#048320:00000026
#048321:0000001400000000
#048381:00000026
#049371:0013
#049321:00000000000000000053230000000000
#050321:1323000000000000
#050341:0000132300000000
#050361:0000000013230000
#051361:0013
#0513b1:00000000000000000053230000000000
#051321:0000000000000013
#052361:23
#0523b0:13230000
#052361:0000132300000000
#052391:000000000000000000000000000000000000000000000000000000000000000000000000000000000000000000000000000000000000000000000000000000000000000000000000000000000000000000000000000000000000000000000000000000000000000000000000000000000000000000000000000000000000000000000000000000000000000000000000000000000000000000000000000000000000000000000000000000000000000000000000000000000000000000000000000000000000000000000000000000000000000000000000000000000000000000000000000000000000000000000000000000000000000000000000000000000000000000000000000000000000000000000000000000000000000000000000000000000000000000000000000000000000000000000000000000000000000000000000000000000000000000000000000000000000000000000000000000000000000000000000000000000000000000000000000000000000000000000000000000000000000000000000000000000000000000000000000000000000000000000000000000000000000000000000000000000000000000000000000000000000000000000000000000000000000000000000000000000000000000000000130000000000000000000000000000000000000000000000000000000000000000000000000000000000000000000000000000000000000000000000000000000000000000000000000000000000000000000000000000000000000000000000000000000000005300000000000000000000000000000000000000000000000000000000000000000000000000000000000000000000000000000000000000000000000000000000000000000000000000000000000000000000000000000000000000000000000000000000000000000000000000000000000000000000000000000000000000000000000000000000000000000000000000000000000000000000000000000000000000000000000000000000000000000000000000000000000000000000000000000000000000000000000000000000000000000000000000000000000000000000000000000000000000000000000000000000000000000000000000000000000000000000000000000000000000000000000000000000000000000000000000000000000000000000000000000000000000000000000000000000000000000000000000000000000000000000000000000000000000000000000000000000000000000000000000000000000000000000000000000000
#052361:000000000000000000000000000000000000000000000000000000000000000000000000000000000000000000000000000000000000000000000000000000000000000000000000000000000000000000000000000000000000000000000000000000000000000000000000000000000000000000000000000000000000000000000000000000000000000000000000000000000000000000000000000000000000000000000000000000000000000000000000000000000000000000000000000000000000000000000000000000000000000000000000000000000000000000000000000000000000000000000000000000000000000000000000000000000000000000000000000000000000000000000000000000000000000000000000000000000000000000000000000000000000000000000000000000000000000000000000000000000000000000000000000000000000000000000000000000000000000000000000000000000000000000000000000000000000000000000000000000000000000000000000000000000000000000000000000000000000000000000000000000000000000000000000000000000000000000000000000000000000000000000000000000000000000000000000000000000000000000000000000000000000000000000000000000000000000000000000000000000000000000000000000000000000000000000000000000000000000000000000000000000000000000000000000000000000000000000000000000000000000000000000000000000000000056000000000000000000000000000000003600000000000000000000000000000000000000565300000000000000000000000000000000000000000000000000000000000000000000000000000000000000000000000000000000000000000000000000000000000000000000000000000000000000000000000000000000000000000000000000230000000000000000000000000000000000000000000000000000000000000000000000000000000000000000000000000000000000000000000000000000000000000000000000000000000000000000000000000000000000000000000000000000000000000000000000000000000000000000000000000000000000000000000000000000000000000000000000000000000000000000000000000000000000000000000000000000000000000000000000000000000000000000000000000000000000000000000000000000000000000000000000000000000000000000000000000000000000000000000000
#056321:1c32323232003200320000002200000000000000000000000000000000000000
#056321:0000000012220000
#056360:0000000000122200
