This file was generated by Ched 2.7.0.0.
#TITLE ""
#ARTIST ""
#DESIGNER ""
#DIFFICULTY 0
#PLAYLEVEL
#SONGID ""
#WAVE ""
#WAVEOFFSET 0
#JACKET ""
#REQUEST "ticks_per_beat 480"
#00002: 4
#BPM01: 150
#00008: 01
#TIL00: ""
#VOLUME: ""
#HISPEED 00
#MEASUREHS 00
#0011a:14
#00114:0014
#00218:14
#00212:0014
#0031a:14
#00312:0014
#0041a:14
#00414:00140000
#00418:0014
#00412:00000014
#0051a:1414
#00612:1414
#00718:1414
#00812:14
#00818:00140000
#00814:0014
#0081a:00000014
#01312:1414
#01318:00140000
#0141a:1414
#01414:00140000
#0161a:14
#01614:00140000
#01618:0014
#01612:00000014
#0211a:1414
#02114:00140000
#02212:1414
#02218:00140000
#01512:14
#01514:00140000
#0231a:14
#02318:00140000
#02412:14
#02418:00140000
#02414:0014
#0241a:00000014
#02410:41
#02512:14
#02518:0014
#0251f:11
#02614:14
#0261a:0014
#02712:14
#02714:0014
#02818:14
#0281a:0014
#02914:14141400
#03018:14141400
#03216:14
#03312:00140000
#03318:26
#0331f:21
#03310:0041
#0351a:14
#03514:00140000
#03518:0014
#03512:00000014
#03412:14
#0341a:00140000
#03618:14
#03614:00140000
#03712:14
#03718:00140000
#03714:0014
#0371a:00000014
#03812:14
#03818:00140000
#03814:0014
#0381a:00000014
#0411a:00140000
#04112:14
#04110:41
#04312:14
#04318:00140000
#04314:0014
#0431a:00000014
#0421a:14
#04212:00140000
#0451a:14
#04514:00140000
#04518:0014
#04512:00000014
#0461a:14140000
#04612:00001414
#04718:14
#04914:14
#04910:41
#05018:0014
#05112:14
#0511a:0014
#05214:14
#05214:14
#0521a:00140000
#05212:0014
#05218:00000014
#05312:14140000
#05318:00001414
#05414:14140000
#0541a:00001414
#05512:14
#03112:24
#03113:00340000
#03114:0034
#03115:00000034
#0401a:24
#04814:0024
#01710:41
#01010:41
#01554:00240000
#01552:64
#0235a:54
#02358:00240000
#02552:14
#02954:0014
#03058:0014
#03358:16
#03152:54
#03256:54
#03952:0014
#0405a:0014
#04152:14
#0485a:14
#04758:64
#04954:64
#05655:00000016
#05552:64
#009320:1424
#0103a0:1424
#011340:1424
#012380:1424
#015320:1424
#015340:00540000
#0173a0:14
#017380:0024
#018320:14
#018340:0024
#019380:14
#0193a0:0024
#020340:14
#020320:0024
#0233a0:1424
#023380:00540000
#031320:14
#031330:00340000
#031340:0034
#031350:00000034
#032360:34
#032320:0024
#033380:00001424
#034340:00001424
#0363a0:00001424
#039320:1424
#0403a0:1424
#041340:00001424
#042380:00001424
#044320:1424
#047380:14
#0483a0:24
#048340:0014
#049340:34
#050320:24
#055320:14
#056350:36363626
