This file was generated by Ched 2.7.0.0.
#TITLE ""
#ARTIST ""
#DESIGNER ""
#DIFFICULTY 0
#PLAYLEVEL
#SONGID ""
#WAVE ""
#WAVEOFFSET 0
#JACKET ""
#REQUEST "ticks_per_beat 480"
#00002: 4
#BPM01: 186
#00008: 01
#TIL00: ""
#VOLUME: ""
#HISPEED 00
#MEASUREHS 00
#0021a:14
#00312:14
#0041a:14
#00512:14
#00618:14
#00714:14
#00818:14
#00914:14
#0101a:14
#01114:14
#01110:41
#01218:14
#01312:14
#0141a:14
#01514:14
#01618:14
#02212:14
#02312:14
#0241a:14
#0251a:14
#02614:14
#02618:0014
#02714:14
#02812:0016
#02818:26
#02810:41
#02918:16
#02912:0016
#03018:1616
#03112:1616
#03218:16
#03212:0016
#03318:16
#03312:0016
#03418:1616
#03512:1616
#04018:1616
#04112:1616
#04218:16
#04212:0016
#04318:16
#04312:0016
#0521a:14
#0521f:11
#0531a:14
#05412:14
#05512:14
#06218:0016
#06212:26
#0621f:21
#06312:16
#06318:0016
#06412:1616
#06410:41
#06518:1616
#06612:16
#06618:0016
#06712:16
#06718:0016
#07412:16
#07418:0016
#07512:16
#07518:0016
#07612:1616
#07718:1616
#07818:0016
#07812:26
#07912:16
#07918:0016
#08512:14
#0861a:14
#08712:14
#08818:14
#08914:14
#09018:14
#09114:14
#0921a:14
#09210:41
#09314:14
#09512:14
#09418:14
#0961a:14
#09714:14
#09818:14
#02018:24
#04418:26
#0601a:24
#08419:24
#08413:24
#08410:41
#05814:0034
#08012:0036
#08112:36363636
#03610:41
#017320:14
#018320:24
#020380:1434
#021380:3424
#036380:1636
#037380:3626
#038320:1636
#039320:3626
#044380:16
#045380:26
#046320:14
#047320:24
#048380:14
#049380:24
#050340:14
#051340:24
#056380:1434
#057380:3424
#058340:1434
#059320:3424
#0603a0:14
#0613a0:0024
#068320:1626
#069380:1626
#070320:1636
#071320:3626
#072380:1636
#073380:3626
#080320:1636
#081320:36363636
#082320:28
#099380:1434
#100380:0034
#1033a0:24
