This file was generated by Ched 2.7.0.0.
#TITLE ""
#ARTIST ""
#DESIGNER ""
#DIFFICULTY 0
#PLAYLEVEL
#SONGID ""
#WAVE ""
#WAVEOFFSET 0
#JACKET ""
#REQUEST "ticks_per_beat 480"
#00002: 4
#BPM01: 186
#00008: 01
#TIL00: ""
#VOLUME: ""
#HISPEED 00
#MEASUREHS 00
#00017:00120000
#00014:00000018
#00016:14
#00112:001c0000000000000000000000000000
#00114:00180000
#00118:0000000000000013
#0051c:00120000
#00512:00000012
#00516:00130000
#00517:0000000000130000
#00519:0000000000000013
#00317:130000000013000000000000000000000000000000130000
#0031b:0000000000130000
#00319:00000013
#0021b:13130013
#00219:0000000000000013
#00417:13
#00419:0000131300000000
#0041b:0000000000131300
#00612:00130013
#00614:0013000000130013
#00616:0013
#00716:1313000000000000
#00715:0000000000000013
#00812:13000013
#00816:0000001300000000
#00815:0000000000000013
#00912:13000024
#0091a:0024
#00916:0000000000240000
#01012:24131313
#01017:0000131300130000
#0101b:0000000000000013
#0101a:14
#01112:1313000000001300
#0111b:13131313
#01115:0000000000130000
#01118:0000000000000013
#01110:41
#01212:13131313
#01217:0000131300000000
#0121b:2300000000131300
#01312:1300000000130000
#0131b:13131313
#01316:0000131300000000
#01315:0000000000000013
#01418:1313
#01415:00130000
#0141b:00130013
#01412:2313
#01414:0000000000130000
#01416:00000013
#01419:0000000000000013
#01512:1300001300001300
#01517:13
#0151b:00000013000000000000000013000000
#01516:00000013000000000000000000000000
#01515:0000000000000013
#01518:0000000000130000
#01612:13001313
#01618:0013001300000000
#01615:00130000
#0161b:2300000000130013
#01715:13130000
#01718:0013001300000000
#01712:0013
#01716:00000013
#0171b:00001313
#02017:0000131300000000
#02016:0000000000131313
#02012:33
#0201b:0033
#01916:0000000000000013
#01914:0012000000000000
#01917:0000001200000000
#0191a:0000000000120000
#0191b:0000000000000013
#02117:00130000
#02114:0013
#02116:00000013
#0211b:00000013
#02119:0013
#02112:33
#02217:00000013
#02219:0000000000000013
#02212:13131313
#01816:00130012
#0181a:0012
#01818:0000000000000012
#01812:13
#02315:0000000000000013
#02314:0013000000000000
#02316:0000131300000000
#02312:13
#0231b:13131313
#02412:1313
#02418:0013000000130000
#02415:00130013
#0241b:1300001300000013
#02512:1300000000131300
#0251b:0013000000131300
#02518:0000000000000013
#02515:00000000230000000000000000000013
#0261b:1300130013000013
#02612:0000130013000013
#02618:0000001300001300
#02615:0013000000130000
#02718:1414240000001400
#02714:00140014000000000000000000000000
#02716:0000000000000014
#02812:24131313
#0281b:00131313
#02818:0000001300000013
#02815:0000000000130000
#02810:41
#02915:0013001300000000
#02918:0013001300000000
#0291b:1300000013000013
#02912:1313
#02916:0000000000000013
#03118:1323000000000000
#0311b:00000013
#03116:00000013
#03112:1323000000000013
#03117:0000000000000013
#03012:0000002300000013
#03015:00130013
#0301b:0013
#03018:0023000000230000
#0331b:0000131300000000
#03317:0000000013000013
#03312:1300000000130000
#03316:00000013
#03315:0000131300000000
#03318:13
#03218:0000000000230013
#03212:00000023
#03215:0023
#0321b:0000002300000000
#0341b:1300130013000013
#03412:0013000013001300
#03418:0000001300001300
#03415:0000130000130000
#0361b:1313
#03619:00130000
#03618:00000013
#03614:0000001313000000
#03612:0000000000000013
#03616:23
#03610:41
#0371b:1300000000130000
#03717:00130000
#03712:1300000000230000
#03715:0000000000000013
#03716:0013
#03718:0000000000000023
#03512:2323000000001300
#0351b:2323000000000000
#03517:00000023
#0381b:1313
#03815:0000130000130013
#03818:0013001300001300
#03812:2313
#03916:0000002400000013
#03914:00000013
#03917:0000000000130000
#03912:0000000000130000
#0391a:24
#03918:00000024000000000000000000000000
#04017:0000001300130000
#04019:00130000
#04014:00000013
#04016:0013000000000013
#0401b:0013000000000013
#04012:0000000000130000
#04116:0000000000000013
#04112:0013000000130000
#04117:0000000000130000
#0411b:0000001300000013
#04212:00131313
#04217:0000000000131300
#04219:0000000000000013
#0421b:23
#04216:23
#0431b:1300001300000000
#04312:00000013000000000000130000000000
#04317:0000000000130000
#04316:0000000000000013
#04314:2400002400000000
#04318:00000024000000000000000000000000
#04412:0000000000130000
#0441b:0000000000130000
#04417:0013230000000000
#04512:00130000
#04617:0000131300000013
#04612:0000131300000000
#04616:0000000000130000
#04615:23
#0471b:0013230000002300
#04716:0013130000000000
#04712:0000000013000013
#04717:0013
#0481a:14
#04814:00000014000000000000000000000000
#04816:2400001400000000
#0481b:0013
#04815:0000000000130000
#04812:0000002400000013
#04818:00000024000000000000000013000000
#0491b:1300001300130013
#04918:0013130000001300
#04912:00130013
#04915:13
#05012:1413
#05018:00000014000000000000130000000000
#05016:2400001400000000
#0501b:0000000000000013
#05015:00000013
#05014:00000024000000000000000000000000
#0501a:0000002400000000
#05112:1300001300002300
#05115:0013130000130000
#05118:13
#0511b:00230023
#05319:0013000000000000
#05317:0000001300000000
#05316:0013000000001300
#05312:0013
#0531b:0000000000131300
#05318:0000000000000013
#05212:1300001300001300
#05216:00000013000000000013000000000000
#0521b:1300000000001313
#05217:0000001300000000
#0521f:11
#0541b:1300001300001300
#05417:00000013000000000013000000000000
#05415:0000001300001313
#05517:0013000000001300
#0551b:0013
#05512:0013000000131300
#05515:0000001300000000
#05612:0013
#05614:00000013
#05616:00130000
#05617:00000013
#0561b:13
#05619:00130000
#0571b:13
#05712:0013
#05718:00130000
#05716:00000013
#05715:00130000
#05719:00000013
#0581b:1300001300001300
#05818:0013000000130000
#05815:00131300
#05812:0000001300001300
#05816:0000000000000014
#0591a:14141400
#05916:0014000000000000
#05912:14141400
#05915:00000013
#05918:0000000000000013
#06019:00150015001500150015001500150015
#06018:0016001600160016
#0601a:24141414
#06012:24151615141516151415161514151615
#0611a:14
#06119:00150015000000000000000000000000
#06118:0016000012000013
#06116:0000001200120000
#06115:0000000000000013
#06112:14151615000000000000000023000000
#0611b:00000023
#0621b:0000001300000000
#06217:00000000000000000013000000000000
#06216:0000001300000000
#06214:0013
#06212:0000000000130000
#06215:00000013
#0621f:21
#06316:13
#0631b:13
#06317:0000001200000013
#06312:000000001c000013
#06515:1323000000000000
#06512:00000013
#06517:00000013
#0651b:1323000000130013
#06516:0000000000130013
#0641b:0000002300000013
#06417:00130013
#06416:0013
#06415:0023000000230000
#06410:41
#06712:0000131300000013
#06716:0013
#06717:00000000130013000000000000330000
#0671b:1300000000130000
#06816:0013000013000000
#06812:00130013
#06819:0000001300000013
#06814:0000000000130000
#06817:00130013
#0681b:0013000013000000
#06615:0000001300130000
#06612:23001313
#0661b:0000002300000013
#06916:00000013
#06912:2323000000000000
#0691b:2323000000002300
#07212:13131300
#07218:0000130000130013
#07215:0013001300001300
#0721b:23001313
#0731b:0000000000130013
#07318:00000014000000000000000013000000
#07315:0000000000130000
#07316:1400002400000000
#0731a:0000001400000000
#07312:24000013
#07314:00000024000000000000000000000000
#07416:0000000000141414
#0741a:0000000000140014
#07412:0013001300001400
#07415:00130000
#07418:0013000000000000
#0741b:00130000
#07617:00130000
#0761b:23001313
#07614:0000000000130000
#07612:00130013
#07619:0000000000000013
#07616:23
#07716:14000014000014000000130000001400
#07712:2400002400000013
#0771a:00000024000000000000240000000000
#07514:0000001400000000
#0751a:0000001400000000
#07518:0000000000140000
#07512:0000000000140013
#07517:0000000000000013
#0811b:1300001300000000
#08112:00000013000000000000130000000000
#08116:24000024000024000000140000001400
#07816:0000140000130000
#0781a:00143400000000000000000000000000
#07814:0013000000000013
#07812:0000001300000000
#07815:00000013
#07813:00130000
#07912:0014000000140013
#0791a:0000001400000000
#0791b:0000000000000013
#07917:0014000000140000
#07915:0000001400000000
#08012:1300000000131300
#0801b:1300000000000013
#08016:00000014
#08216:0014240000000015
#08212:00140000
#08318:00000016
#08512:0000001414000000
#08516:0000140000000014
#0851a:2400003414001400
#08518:0000000000140000
#08514:00000014
#08414:0000001400000000
#08412:26241414
#08415:0000000000140000
#08416:0000000000000014
#08417:00140000
#08418:2614
#08419:00000014
#08410:41
#08612:14
#08618:0000001400000000
#0861a:00241414
#08617:0000000000140000
#08616:0000000000000014
#08614:0014
#08613:00000014
#0871a:0000001414000000
#08716:0000140000000014
#08712:2400003414001400
#08714:0000000000140000
#08718:00000014
#0881a:1424
#08814:0000001400000000
#08816:0000000000000014
#08817:0000000000140000
#08812:00240024
#08916:00000014000000000000000000001400
#0891a:24002414
#08918:0000000000140000
#08914:00000014
#08912:0000002400000000
#09018:0000001400000000
#0901a:00241414
#09017:0000000000140000
#09012:14
#09014:0014
#09013:00000014
#09115:00140000
#09112:2400003414000000
#09116:00000014
#09118:0024
#09212:00141414
#0921a:24240000
#09218:0024
#09216:00000024
#09210:41
#09312:14141414
#0931a:0000001400001400
#09316:2414
#0941a:00141414
#09412:24240000
#09414:0024
#09416:00000024
#0951a:14141414
#09512:0000001400001400
#09516:2414
#09612:00140014
#09616:00241424
#0961a:2424
#09716:1400001414001400
#09712:00140014
#0971a:2414
#09816:2400001400140014
#09812:00240024
#0981a:00242400
#09916:00000000140000002400001400000000
#0991a:2400003414000000
#09912:00000000000014000000001400000000
#10018:000000000000000000123232320000000000000000000000
#10012:002200
#07015:00000013000000000000000000000000
#07018:0013000000000000
#07012:0000000014001414
#07016:0000001400001400
#0701a:00241400
#07118:0000000000000014
#0711a:0000140000240000
#07116:00141400
#07112:1400000000140000
#07114:0000000000000024
#00054:00000068
#00057:00220000
#00056:64
#00154:00680000
#00152:002c0000000000000000000000000000
#00157:0012
#0035b:0000004300000000
#00357:000000000023000000000000000000000000000000000000
#00552:00000022
#0055c:00220000
#00756:0063000000000000
#00752:0000001300000000
#00852:63
#00856:0000005300000000
#01152:0053000000000000
#01156:0000001300000000
#01557:5300001300000000
#0155b:00000053000000000000000000000000
#01552:0000001300000000
#01752:0053
#01756:00000053
#0175b:00000053
#01956:0000000000000053
#0195b:0000000000000013
#02057:0000005300000000
#0205b:0000000000000013
#02056:0000000000000053
#02052:0000001300000000
#02356:0000005300000000
#02852:34
#0285a:44
#02758:00000064
#02756:0000000000000024
#02955:0023006300000000
#02958:0023006300000000
#02952:5323
#0295b:5323
#02956:0000000000000053
#03155:0000001300000000
#0315b:0000001300006300
#03156:00000063
#03152:0053000000000023
#03157:0000000000000023
#03158:0053000000000000
#0335b:0000006300000000
#03357:0000000023000053
#03352:0000000000530000
#03356:00000023
#0345b:23
#03552:0053000000005300
#0355b:0053000000000000
#03555:0000001300000000
#03558:0000001300000000
#03557:00000053
#0365b:6363
#03659:00230000
#03658:00000023
#03656:13
#03654:0013
#0375b:53
#03757:00230000
#03752:13
#03852:13
#0385b:0013
#0395b:0000000000000013
#03957:0000000000530000
#03956:0000004400000013
#0395a:44
#03958:00000044000000000000000000000000
#04052:0000001300000000
#04056:0063000000000063
#04057:0000001300530000
#0405b:0000000000000063
#04157:0043000000430000
#04152:0053000000000000
#04156:0000003300000000
#03255:0013
#0325b:0000001300000000
#04357:0000000000630000
#04356:0000000000000053
#04354:1400001400000000
#04358:00000014000000000000000000000000
#04452:0000000000230000
#0445b:0000000000230000
#04457:00530000
#04555:13
#04558:13
#04657:0000005300000000
#04656:0000000000630000
#04756:00530000
#04752:0023
#0495b:0000001300000000
#05152:0000001300001300
#0515b:00000013
#05359:0013000000000000
#05357:0000001300000000
#05356:0053000000005300
#05352:0053
#0535b:00000053
#05358:0000000000000023
#05252:6300006300005300
#05256:00000023000000000023000000000000
#0525b:0000000000000013
#0545b:5300005300006300
#05457:00000023000000000023000000000000
#05455:0000000000000013
#05557:0063000000006300
#0555b:0063
#05552:0013000000006300
#05555:0000001300000000
#05656:13
#05654:00000023
#05652:0053
#0565b:6343
#05659:00230000
#05756:00000023
#05758:00230000
#0575b:5343
#05752:3353
#05852:33000033
#0585b:0000004300000000
#06059:00650065005500650055006500550065
#06058:0026002600260026
#0605a:24242424
#06052:24552655246526552465265524652655
#0615a:24
#06159:00550065000000000000000000000000
#06158:0026000000000023
#06152:24652655000000000000000053000000
#0615b:00000053
#06155:0000000000000023
#06252:34
#0625a:44
#06257:00000000000000000023000000000000
#0625b:0000005300004300
#06255:00000043
#06356:63
#0635b:63
#06357:0000005200000063
#06352:002c
#0105a:44
#06552:0000001300005300
#06557:00000053
#0655b:0063000000000023
#06556:0000000000000023
#06555:0063000000000000
#06558:0000001300000000
#06752:0000005300000013
#06756:1323
#0675b:1300000000630000
#06757:0000000000000013
#06652:33000053
#06657:33
#0425b:63
#04256:33
#0595a:4444
#05952:00340000
#0695b:0000004300002300
#06952:0000003300000000
#06956:00000023
#07355:0000000000630043
#07352:34000023
#07354:00000034000000000000000000000000
#07356:0000003400000000
#0735b:0000000000000043
#07456:0000000000640024
#07458:0053003300000000
#0745b:00230000
#07452:0000003300002400
#0745a:0000000000000024
#07752:1400001400000000
#0775a:00000014000000000000240000000000
#07756:0000000000000054
#07656:53
#07652:00230000
#07552:0034000000340000
#07558:0034000000340000
#0755a:0000004400000000
#07554:0000004400000000
#08156:14000014000014000000640000005400
#0785a:00240000000000000000000000000000
#07856:00640000
#07852:0000001300000000
#07854:0000000000000013
#0795a:0000004400000000
#07952:0034000000340000
#07957:0044000000440000
#07955:0000003400000000
#08052:53
#0805b:53
#08256:0000440000000025
#08252:00540000
#08452:16546464
#08458:16
#08454:0000002400000000
#08455:0000000000240000
#08456:0000000000000024
#08552:34
#0855a:54006464
#08556:0000240000000024
#08558:0000000000240000
#08652:54
#0865a:44645454
#08658:0000002400000000
#08657:0000000000240000
#08656:0000000000000024
#08756:0000240000000024
#08752:64005454
#08754:0000000000240000
#0875a:44
#0885a:6464
#08852:34540054
#08854:0000002400000000
#08856:0000000000000024
#08857:0000000000240000
#08956:00000024000000000000000000002400
#0895a:54006464
#08958:0000000000240000
#08952:3400006400000000
#0905a:44645454
#09058:0000002400000000
#09057:0000000000240000
#09052:54
#09156:44000024
#09155:00240000
#09152:5454
#09158:0044
#0925a:44
#09252:34
#09356:6464
#0935a:0000006400006400
#09452:14
#09456:14
#09552:0000005400005400
#09556:5454
#0965a:14
#09656:14
#09756:0000005400005400
#0975a:5454
#09856:1400002400240024
#0985a:1454
#09852:00640064
#09952:34000000000000000000002400000000
#0995a:6464
#09956:00000000240000006400002400000000
#10058:0000006200000000
#10052:005200
#0715a:44
#07152:6400000000140000
#07156:00240000
#0705a:00446400
#07052:0034
#07056:00000024
#01852:53
#01856:00230000
#0095b:13
#000360:14
#000370:00520000
#000340:00000058
#001320:005c0000000000000000000000000000
#001340:00580000
#001370:0022
#002320:13333333
#003320:33333333
#004320:33333333
#005320:23
#0023b1:0000001300230000
#003371:000000130053000000000000000000000000000000000000
#0033b1:0000002300000000
#0053c1:12320000
#005381:0022
#005320:00001232
#006360:22
#0063b1:13333333
#0073b1:33333333
#0083b1:33333333
#0093b1:23
#007360:0013000000000000
#007320:000000000000005300230000000000000000000000000000
#008320:13
#008360:000053230000000000000000
#008360:0000001300000000
#008320:000000000000000000000000005300230000000000000000
#011321:0013000000000000
#011361:000000000000005300230000000000000000000000000000
#015371:1300002300000000
#0153b1:00000033000000000000000000000000
#017321:0013
#017361:00000033
#018321:3323
#018361:00530000
#0173b0:00000013
#018370:23
#019361:0000000000000013
#020321:3300532300000000
#020370:0000001300000000
#0203b0:0000000033005323
#020361:0000000000000013
#021321:33230000
#0223b1:13332300
#022381:0033003300000000
#023361:0000001300000000
#023321:0000000000230000
#025381:0000133323000000
#025350:0000133323000000
#027380:0000000000000000140000003454000034540000345400003400000000000000
#027360:000000000000000000000000000000000000000000000000000000000000000000000000005400000000000000000000005400000000000000000000005400000000000000000000000000000000000000000000540000000000000000000000
#0273a0:000000000000000000000000000000000000005400000000005400000000005400000000000000000000000000000000
#0283a0:24
#029320:13230000
#029350:0053000000000000
#0293b1:13230000
#029381:0053000000000000
#029351:0000001300230000
#029321:0053
#029380:0000001300230000
#0293b0:0053
#029360:0000000000000013
#030320:0023000000000000
#030381:0013000000000000
#0303b1:0000002300000000
#030320:0000001300000000
#030350:0000000000230000
#030381:0000000000130000
#0303b1:0000000000000023
#031321:0013000000000000
#031351:0000532300000000
#031380:0013000000000000
#0313b0:0000532300000000
#0313b0:00000013
#031370:0000000000000053
#0323b0:33230000
#031361:00000013
#031321:0000000000000053
#032361:33230000
#032381:0000000000132300
#032320:0000000000001323
#0333b0:0000001300230000
#033370:0053
#033321:0000000000130023
#033361:00000053
#033370:0000000000000013
#0343b0:53
#034370:0023000000000000
#035320:0013000000000000
#035350:0000002300000000
#0353b1:0013000000000000
#035381:0000002300000000
#035321:00000013
#036361:23
#035370:00000013
#0363b0:3333
#036390:00530000
#036380:00000053
#0373b0:3323
#037370:00530000
#039320:1400002400000000
#039370:0000000000130000
#0393b0:0000000000000023
#040360:0013000000000000
#040320:0000002300000000
#040370:0000000000130000
#0403b0:0000000000000033
#041370:0023000000000000
#040361:0000000000000013
#041321:0033000000000000
#041361:0000002300000000
#0423b1:13
#042371:0023
#043371:0000000000130000
#0433b1:0000000000000023
#043360:0000000000000013
#044320:0000000000530000
#045350:23
#044371:00130000
#0443b1:0000000000530000
#045381:23
#045381:00132300
#045350:00001323
#0453b1:00000013
#0463b1:23
#046371:0000001300000000
#0463b1:0000000000230000
#046360:0000000000130000
#046320:0000000000000023
#047360:00130023
#047320:0053
#049350:0000001300230000
#051380:0000001300230000
#052320:1300003300003300
#052360:00000053000000000053000000000000
#053360:0033000000005300
#053320:0033
#054320:23
#0533b1:00000013
#053381:0000000000000053
#0543b1:3300003300003300
#054371:00000053000000000053000000000000
#055371:0033000000003300
#0553b1:0033
#0563b1:3323
#056391:00530000
#055320:00000013
#056360:23
#056320:0013
#056340:00000053
#057320:23
#0573b1:1323
#057381:00530000
#057320:0013
#057360:00000053
#058320:23
#0603a0:14543454
#060390:00550055005500550055005500550055
#060380:0056005600560056
#0613a0:34240000
#061390:00550055000000000000000000000000
#061380:0056000000000000
#060321:14555655345556555455565534555655
#061321:54555655240000000000000000000000
#061321:00000013
#061351:0000000000000053
#062321:24
#0613b0:00000013
#061380:0000000000000053
#0623a0:24
#0623b0:0000001300002300
#062370:00000000000000000053000000000000
#063360:13
#063320:00230000
#0633b1:13
#063371:00230000
#063371:0000001200220000
#063321:005c
#063371:0000000000000013
#0643b1:0023000000000000
#064350:0013000000000000
#064320:0000002300000000
#0643b1:0000001300000000
#064381:0000000000230000
#064350:0000000000130000
#064320:0000000000000023
#0653b0:0013000000000000
#065380:0000532300000000
#065351:0013000000000000
#065321:0000532300000000
#065321:00000013
#065361:0000000000000053
#066321:23
#065370:00000013
#0653b0:0000000000000053
#066370:23
#0663b0:0000001300330000
#066380:00003323
#066321:00000013
#067361:23
#067321:0000001300230000
#067361:0053
#0673b0:0000000000130000
#067370:00000000000000000000000000332300
#0693b0:0013002300000000
#069380:00530000
#069321:0013002300000000
#069351:00530000
#0693b1:00000013
#070371:23
#069360:00000013
#070320:23
#0703a0:0014
#070360:00000054
#0713a0:24
#071321:1424
#071361:00540000
#073351:0000000000130023
#073321:00000053
#074381:0013002300000000
#0743b1:00530000
#074361:0000000000140034
#074321:00000054
#075321:0024000000000000
#0743a0:0000000000000014
#075380:0024000000000000
#076360:1323
#076320:00530000
#0773a0:0000000000140000
#077360:0000000000000034
#0783a0:00543400000000000000000000000000
#078360:00340000
#0783b0:0000000000000023
#080320:13
#080350:0023
#0803b1:13
#080381:0023
#081361:0000000000140000
#0813a1:0000000000000024
#081360:0000000000000014
#082320:0034340000000000
#082360:0000000000000055
#083320:00000026
#084320:00143434
#084340:0000005400000000
#084350:0000000000540000
#084360:0000000000000054
#085320:24
#0853a1:1400003434003400
#085361:0000540000000054
#085381:0000000000540000
#0863a1:24
#086320:14
#086360:00240000
#0863a1:00143434
#086381:0000005400000000
#086371:0000000000540000
#086361:0000000000000054
#0873a1:24
#087320:1400003434003400
#087360:0000540000000054
#087340:0000000000540000
#088320:24
#0883a1:14
#088361:00240000
#088320:00142400
#088340:0000005400000000
#0883a1:00001424
#088371:0000000000540000
#088320:00000014
#088360:0000000000000054
#089320:24
#0893a1:1400002400000000
#089361:00000054000000000000000000000000
#089320:0000001400000000
#089360:0024
#0893a1:00001434
#089381:0000000000540000
#089361:0000000000000054
#0903a1:24
#090320:14
#090360:00240000
#0903a1:00143434
#090381:0000005400000000
#090371:0000000000540000
#090361:00000000000000000000000000000054
#091361:24
#091320:1400003434000000
#091350:00540000
#091360:00000054
#092320:24
#093360:1434
#0933a0:0000003400003400
#094360:24
#095360:1434
#095320:0000003400003400
#096360:24
#0973a0:1434
#097360:0000003400003400
#0983a0:24
#098320:00142400
#098360:0000005400000000
#0983a1:00001424
#098361:0000000000540000
#098320:00000014
#098360:0000000000000054
#099320:24
#0993a1:1400003434000024
#099361:00000000540000000000005400000000
#099360:0000000014000024
#099320:00000000000000000000005400000000
#100320:001200
#103360:22
#100381:000000000000000000123232320000000000000000000000
#1033c1:22
