This file was generated by Ched 2.7.0.0.
#TITLE ""
#ARTIST ""
#DESIGNER ""
#DIFFICULTY 0
#PLAYLEVEL
#SONGID ""
#WAVE ""
#WAVEOFFSET 0
#JACKET ""
#REQUEST "ticks_per_beat 480"
#00002: 4
#BPM01: 186
#00008: 01
#TIL00: ""
#VOLUME: ""
#HISPEED 00
#MEASUREHS 00
#00112:0000000000000013
#00318:0013000000001300
#00315:1300000000130013
#00218:1300000000001313
#0021b:0000001300000000
#00215:00130000
#00212:0000000000130000
#00418:1300001300000000
#00412:00130000
#0041b:0000000000130000
#00415:00000013
#00612:00001313
#00618:0000000000130013
#0061b:13130000
#00615:0013000000000000
#00715:1300000000000013
#00718:0013000000000000
#0081b:13000013
#00812:0000001300000013
#00918:1300130000000013
#00915:0013001300000000
#01012:23131313
#01018:0000001300130013
#0101b:13
#01115:1300000000130013
#0111b:0013000000000000
#01118:00000013
#01110:41
#01218:0000001300000000
#01212:00130000
#0121b:2300000000130000
#01215:00000013
#01418:13130000
#01412:23130000
#01415:00001313
#0141b:0000000000130013
#01915:0000000000000013
#01918:00123200000032000000000000000000
#02115:0013
#02112:00000013
#02118:00130013
#0211b:0013
#02612:13130013
#02618:00130000
#02615:0013
#0261b:1313
#03118:1323000000001300
#03112:0023000000001300
#0301b:00131300
#03015:0000001300000000
#03012:0000000000130013
#03018:00000013
#03718:1300000000130000
#03715:0000130000000013
#03712:1300000000230000
#0371b:0000130000000023
#03815:00130013
#03818:0013001300130013
#03812:2313
#04116:0000000000000013
#0411b:0000000000000013
#04112:0014000000140000
#0411a:0000001400000000
#0421b:2300000000130000
#04215:00000013
#04218:0000000000000013
#04216:23
#0431b:0000000000130000
#04312:2600002600000000
#04318:00000026000000000000000000000000
#0471b:0013000000000000
#04715:00130000
#04712:0013
#0471a:0000000000000014
#04812:0000000013130000
#04818:0000000000001313
#04817:00000014000000000000000000000000
#0481a:24
#0491b:0000001300000000
#04912:1300000000000014
#04918:0013000000000000
#04915:00130000
#05315:0013000000000000
#05318:0000001300000000
#05312:0000000000130000
#0521b:0000000000000013
#0521f:11
#05818:0013001300000000
#05815:13130000
#05812:00001313
#0581b:0000000000130013
#05915:00130013
#05918:1300000013000013
#05912:1313
#0591b:00130000
#06115:0000001300130000
#06118:0013
#06112:00000024
#0611a:00000024
#07912:0000001400000014
#07918:0000001400000014
#0791a:0014000000140000
#07914:0014000000140000
#08012:1400000000140000
#08018:14
#08016:00000014
#0801a:0000000000000014
#10018:000000000000000000123232320000000000000000000000
#01312:13
#0131b:13
#01315:00130013
#01318:0000001300130000
#01515:13
#01512:00000013000000000000000000000000
#0151b:0000000000000013
#01618:0013001300000013
#01615:00130013
#01612:2313
#0161b:0000000000130000
#01715:13
#01712:00131300
#0171b:0013001300000000
#01716:00000013
#0181c:0012
#01818:0000000000003232
#02315:0000130000000013
#0231b:0013000000000000
#02318:0000001300000000
#02312:13
#02418:13130000
#02415:0013001300000000
#0241b:00001313
#02412:0000000000130013
#02218:0000000000000013
#02212:0013
#02718:1313260000000000
#02715:00130013000000000000000000000000
#02812:2400001300000000
#02815:0013
#02818:0000000000130000
#0281b:00000013
#0281a:24
#02810:41
#02912:1300000000000013
#02918:1300000000000013
#0291b:0000001300000000
#02915:0000001300000000
#0361b:0013
#03615:0013
#03612:13
#03618:13
#03610:41
#0351b:23000013
#03512:0023000000000000
#03515:00000023
#04418:0014240000000000
#04414:00140000
#0441a:0000000000140000
#04412:0000000000140000
#04515:00131300
#0451b:00000013
#04612:1300000000000013
#04615:00130000
#04618:2300000000000013
#0501b:0000000013130000
#05015:00000014000000000000000013001300
#05012:24
#05112:0000001300002300
#0511b:13000023
#05115:0013000000000000
#05118:00130000
#05518:0013000000000000
#05515:0000001300000000
#0551b:0000000000130000
#05412:0000000000000013
#05612:13
#06515:1323000000130000
#0651b:0023000000001300
#06412:00131300
#06418:0000001300000000
#0641b:0000000000130013
#06415:00000013
#06410:41
#07116:1300000000130000
#07117:0000130000000013
#0711b:1300000000230000
#07112:0000130000000023
#07218:00140014
#07214:0014001400140014
#0721a:2414
#07517:0000000000000013
#07512:0000001600000013
#07518:0016000000160000
#07612:2300000000130000
#07618:00000013
#07615:0000000000000013
#07617:23
#0621b:0000001300000000
#06218:0013
#06215:0000000000130000
#06212:00000013
#0621f:21
#0631b:1300000000000013
#06312:13
#06315:0000001300000013
#06318:0000001300000000
#06818:0000001300000013
#06815:0013
#0681b:0000000000130000
#06812:00130013
#07012:0013
#07017:0013
#0701b:13
#07016:13
#06912:23000013
#0691b:0023000000000000
#06917:00000023
#06612:0000001300000013
#06618:0013
#06615:0000000000130000
#0661b:00000013
#06718:1300130013000013
#06712:0000130013000013
#06715:0000001300000000
#0671b:0000001300000000
#0771a:0000000000000014
#07712:00000026000000000000160000000000
#07718:2600002600000000
#08212:0014140000000000
#08217:0014140000000000
#0831b:13
#08316:13
#08417:0014
#08412:26
#08418:26
#0841a:00240000
#08410:41
#08515:0000001400000000
#08512:2414
#0861a:14
#08615:0014
#08612:00240000
#08717:0000001400000000
#0871a:2414
#08812:14
#0881a:0014
#08817:00240000
#08915:0000001400000000
#08912:2414
#0901a:14
#09012:0014
#09015:00240000
#09117:00140000
#0911a:2400003414000000
#09116:00000014
#09917:00140000
#09915:2400003414000000
#0991a:2400003414000000
#09912:00140000
#02015:0000000000333313
#02012:0000331300000000
#0321b:0000001300000013
#03215:0013
#03218:0000000000130000
#03212:00000013
#03315:1300000000130013
#0331b:0000000000130013
#03312:0000131300000000
#03318:0000131300000000
#03415:0000001300000013
#0341b:00130013
#03412:0000000000130000
#03418:0013
#02515:0000002300000000
#03916:00000024000000000000000000000000
#0391a:0000002400000000
#03912:24
#06019:25
#06012:25
#07316:00000024000000000000000000000000
#07312:0000002400000000
#0731a:24
#08112:2600002600000000
#08118:00000026000000000000000000000000
#09212:00240000
#09216:0024
#0921a:00000024
#09210:41
#09312:24
#0931a:0024
#09412:24000024
#0941a:00240000
#09416:0024
#0951a:24
#09512:0024
#09612:24
#0961a:24240000
#09615:00240000
#09614:0024
#09619:0024
#09613:00000024
#09618:00000024
#09712:24
#09717:24
#09715:0024
#0971a:0024
#09812:24240000
#0981a:24
#09817:00240000
#09813:0024
#09818:0024
#09814:00000024
#09819:00000024
#07817:00000034
#0781a:00340000
#07812:00000034
#07815:00340000
#0035b:0000004300000000
#00358:0023000000000000
#01955:0000000000000053
#01958:00220000000000000000000000000000
#03155:0000001300000000
#0315b:0000001300000000
#03552:0053000000000000
#03556:0000001300000000
#0355b:00000063
#03555:00000063
#04755:00530000
#04752:0023
#0495b:0000001300000000
#05355:0013000000000000
#05358:0000001300000000
#0525b:0000000000000013
#04352:1600001600000000
#04358:00000016000000000000000000000000
#04256:63
#0425b:63
#08052:54
#08058:54
#08452:16
#08458:16
#0845a:00540000
#08457:0054
#10058:0000006200000000
#00758:0053000000000000
#0075b:0000001300000000
#0085b:53
#00852:0000006300000000
#0115b:0063000000000000
#01158:0000001300000000
#01555:5300001300000000
#01552:00000053000000000000000000000000
#01752:0053
#01756:00000063
#0185c:0052
#02358:0000006300000000
#02252:0053
#02852:14
#0285a:14
#02952:6300000000000063
#02958:5300000000000063
#0295b:0000005300000000
#02955:0000006300000000
#03652:63
#03658:63
#03655:0063
#0365b:0063
#03758:63
#03752:63
#03755:00230000
#0375b:00230000
#04152:0034000000340000
#0415a:0000004400000000
#04458:00540000
#04454:00540000
#0445a:0000000000240000
#04452:0000000000240000
#0485a:64
#04857:00000064000000000000000000000000
#05152:0000001300001300
#0515b:00000013
#05055:00000054000000000000000000000000
#05052:54
#05558:0013000000000000
#05555:0000001300000000
#05452:0000000000000013
#06052:55
#06059:55
#0625a:14
#06252:14
#0635b:5300000000000053
#06352:63
#06355:0000006300000053
#06358:0000005300000000
#0715b:53
#07156:53
#07157:00230000
#07152:00230000
#07052:0053
#07057:0053
#0705b:53
#07056:53
#06952:00000053
#0695b:0063000000000000
#06957:0000001300005300
#07558:0046000000460000
#07552:0000003600000000
#07758:1600001600000000
#07752:00000016000000000000000000000000
#07657:53
#07652:53
#06558:0000001300000000
#06552:0000001300000000
#07357:0000000000000013
#07352:0000000000000013
#07456:0000001300000000
#0745b:0000001300000000
#07457:0000000000000013
#07452:0000000000000013
#0795a:0014000000140000
#07952:0000001400000000
#07954:0014000000140000
#07958:0000001400000000
#08152:1600001600000000
#08158:00000016000000000000000000000000
#08252:00640000
#08257:00640000
#08356:23
#0835b:23
#08552:5454
#08555:0000005400000000
#08655:0064
#08652:00640000
#08757:0000006400000000
#0875a:6464
#0885a:0064
#08857:00640000
#08955:0000005400000000
#08952:5454
#09052:0054
#09055:00540000
#0915a:5454
#09157:00240000
#09156:00000024
#0925a:14
#09352:54
#0935a:0064
#0955a:64
#09552:0054
#09752:54
#09757:54
#09755:0054
#0975a:0054
#09955:5454
#0995a:5454
#09952:00240000
#09957:00240000
#02052:0000005300000000
#02055:0000000000000053
#0335b:0000000000000063
#03355:0000000000000063
#06752:0000000023000053
#06758:0000000023000053
#06755:0000006300000000
#0675b:0000006300000000
#07852:0000000000000014
#07857:0000000000000014
#07855:0000001400000000
#0785a:0000001400000000
#003380:0013000000000000
#0033b0:0000002300000000
#0053b0:13
#005380:0023
#005321:0013
#006351:23
#007381:0013000000000000
#0073b1:0000002300000000
#0083b1:13
#008381:00230000
#008321:0000001300000000
#008351:0000000000230000
#0113b1:0013000000000000
#011381:0000002300000000
#015351:1300002300000000
#015321:00000033000000000000000000000000
#017321:0013
#017361:00000033
#018321:23
#0183c1:0012
#018381:0000000000003232
#019381:00523200000032000000000000000000
#0193c1:0000000000220000
#019351:0000000000000013
#020321:0000333300000000
#020351:0000000000333333
#021321:00230000
#022321:13333300
#022351:0033003300002300
#023381:0000001300000000
#0233b1:0000000000230000
#025381:1333333300333323
#025350:0000001300333323
#027380:000000000000000000000000160000000000365656560000365656560000365656560000260000000000000000000000
#027390:000000000000000000000000000000000000000000000000000000000000000000000000005400540054000000000000005400540054000000000000005400540054000000000000000000000000000000000000000000000000000000000000
#029320:13
#029350:00230000
#029381:13
#0293b1:00230000
#0293b1:0000001300000000
#029381:0000000000230000
#029350:0000001300000000
#029320:0000000000230000
#029380:0000000000000013
#0303b0:0023000000000000
#029321:0000000000000013
#030351:0023000000000000
#031321:0013000000000000
#031351:0000002300000000
#031380:0013000000000000
#0313b0:0000002300000000
#0323b0:13
#032380:00230000
#032351:13
#032321:00230000
#0333b1:0000000000000013
#034381:0023000000000000
#033350:0000000000000013
#034320:0023000000000000
#035320:0013000000000000
#035360:0000002300000000
#0353b0:00000013
#036380:3300000000000033
#0363b0:0000003333000000
#037380:3323
#0373b0:00530000
#035351:00000013
#036321:3300000000000033
#036351:0000003333000000
#037321:3323
#037351:00530000
#039321:0000000000130000
#039341:00000033
#039361:0000000000000023
#039370:0000000000130000
#039390:00000033
#0393b0:0000000000000023
#0403b0:0013000000000000
#040390:00330000
#040370:0000002300000000
#040361:0013000000000000
#040341:00330000
#040321:0000002300000000
#040321:0000000000130000
#040341:00000033
#040361:0000000000000023
#040370:0000000000130000
#040390:00000033
#0403b0:0000000000000023
#042360:13
#042320:0023
#0423b1:13
#042371:0023
#043341:0000000000000014
#044341:00340000
#044321:0000000000540000
#045341:24
#044380:00140000
#0443a0:0000000000540000
#045380:24
#046380:0000001300000000
#0463b0:0000000000230000
#047350:00130023
#047320:0053
#0483a0:1400002400000000
#048370:00000034000000000000000000000000
#050320:1400002400000000
#050350:00000034000000000000000000000000
#052320:13000023
#052360:0000003300000000
#053320:00000013
#054350:23
#0543b1:13000023
#054371:0000003300000000
#0553b1:00000013
#056381:23
#056321:00001323
#056370:00001323
#057340:13230000
#057391:13230000
#057361:00001323
#0573b0:00001323
#060390:15
#0613b0:00230000
#060321:15
#061321:00230000
#061321:00000014
#062321:24
#0613a0:00000014
#0623a0:24
#0633b0:13
#063380:00230000
#063321:13
#063351:00230000
#063351:0000001300000000
#063321:0000000000230000
#063380:0000001300000000
#0633b0:0000000000230000
#063350:0000000000000013
#064320:0023000000000000
#0633b1:0000000000000013
#064381:0023000000000000
#0653b1:0013000000000000
#065381:0000002300000000
#065350:0013000000000000
#065320:0000002300000000
#066320:13
#066350:00230000
#066381:13
#0663b1:00230000
#067351:0000001300230000
#067321:0053
#0673b0:0000001300230000
#067380:0053
#067320:0000000000000013
#068350:0023000000000000
#067381:0000000000000013
#0683b1:0023000000000000
#0693b1:0013000000000000
#069371:0000002300000000
#069321:00000013
#070361:3300000000000033
#070321:0000003333000000
#071361:3323
#071321:00530000
#069370:00000013
#0703b0:3300000000000033
#070370:0000003333000000
#0713b0:3323
#071370:00530000
#0733b0:0000000000130000
#073390:00000033
#073370:0000000000000023
#073361:0000000000130000
#073341:00000033
#073321:0000000000000023
#074321:0013000000000000
#074341:00330000
#074361:0000002300000000
#074370:0013000000000000
#074390:00330000
#0743b0:0000002300000000
#0743b0:0000000000130000
#074390:00000033
#074370:0000000000000023
#074361:0000000000130000
#074341:00000033
#074321:0000000000000023
#076371:13
#0763b1:0023
#076320:13
#076360:0023
#078370:0014000000000000
#0783a0:0000342400000000
#078321:0014000000000000
#078351:0000342400000000
#0783a1:0000000000140000
#078371:0000000000003424
#078350:0000000000140000
#078320:0000000000003424
#080320:14
#080340:0024
#080381:14
#0803a1:0024
#0813a1:0000000000140024
#081350:0000000000140024
#082320:00140000
#083360:53
#083320:00000024
#082371:00140000
#0833b1:53
#083371:00000024
#0843a1:00140024
#084371:0034
#085321:1434
#085351:0000003400002400
#086321:00140024
#086351:0034
#0873a1:1434
#087371:0000003400002400
#088371:00140024
#0883a1:0034
#089321:1434
#089351:0000003400002400
#090351:00140024
#090321:0034
#0913a1:1400003434000000
#091371:00540000
#091361:00000054
#0923a1:24
#093321:14
#093351:0000002400000000
#0933a1:0014
#093371:00000024
#0953a1:14
#095371:0000002400000000
#095321:0014
#095351:00000024
#097321:14
#097351:0000002400000000
#097370:14
#0973a0:0000002400000000
#097350:0014
#097320:00000024
#0973a1:0014
#097371:00000024
#099351:1400003434000000
#099321:0000540000000024
#0993a0:1400003434000000
#099370:0000540000000024
#100380:000000000000000000123232320000000000000000000000
#1033c0:22
