This file was generated by Ched 2.7.0.0.
#TITLE ""
#ARTIST ""
#DESIGNER ""
#DIFFICULTY 0
#PLAYLEVEL
#SONGID ""
#WAVE ""
#WAVEOFFSET 0
#JACKET ""
#REQUEST "ticks_per_beat 480"
#00002: 4
#BPM01: 186
#00008: 01
#TIL00: ""
#VOLUME: ""
#HISPEED 00
#MEASUREHS 00
#0021a:14
#00214:0014
#0031a:14
#00314:0014
#00418:14
#00412:0014
#00518:14
#00512:0014
#0061a:14
#00614:0014
#0071a:14
#00714:0014
#00818:14
#00812:0014
#01014:14
#01018:0014
#01114:14
#01118:0014
#01110:41
#01212:14
#0121a:0014
#01312:14
#0131a:0014
#01414:1414
#01518:1414
#01612:1414
#02518:1414
#02512:00140014
#02812:00140000
#02818:0014
#02814:00000014
#0281a:24
#02810:41
#0401a:14001414
#04014:00140000
#0521a:14
#05214:0014
#0521f:11
#0531a:14
#05314:0014
#05518:14
#05512:0014
#06218:0014
#06214:00000014
#0621a:24
#06212:24
#0621f:21
#07814:00140000
#0781a:0014
#07812:00000014
#07818:24
#0091a:14
#0171a:14
#0221a:14
#02214:00140000
#02218:0014
#02212:00000014
#0231a:14
#02314:00140000
#02318:0014
#02312:00000014
#0241a:1414
#02414:00140014
#0261a:14
#02614:00140000
#02618:0014
#02612:00000014
#02718:16
#02712:00260000
#0291a:14
#02912:00140000
#02918:0014
#02914:00000014
#0301a:14140000
#03014:00001414
#0321a:00140000
#03214:0014
#03218:00000014
#03212:24
#03312:14
#0331a:00140000
#03314:0014
#03318:00000014
#03412:14140000
#03418:00001414
#04112:14001414
#04118:00140000
#04218:14140000
#04214:00001414
#04416:0016
#04418:16
#04612:1414
#04718:1414
#04814:1414
#05014:14
#05018:0014
#05418:14
#05412:0014
#0591a:00140014
#05912:0014
#06318:14
#06314:00140000
#0631a:0014
#06312:00000014
#06418:14140000
#06414:00001414
#06410:41
#06614:0014
#06618:00000014
#06612:24
#0661a:24
#06714:14
#06718:00140000
#06712:0014
#0671a:00000014
#06814:14140000
#06818:00001414
#0691a:00000014
#07118:0014
#07314:0014
#0741a:14
#07412:00140000
#07418:0014
#07414:00000014
#0751a:14
#07512:00140000
#07518:0014
#07514:00000014
#0761a:14140000
#07614:00001414
#07918:14
#07914:00140000
#0791a:0014
#07912:00000014
#09212:00140000
#09216:0014
#0921a:00000014
#09218:26
#09210:41
#0941a:14
#09412:00140000
#09418:0014
#09414:00000014
#0961a:00140000
#09616:0014
#09612:14000014
#09812:14
#0981a:00140000
#09814:0014
#09818:00000014
#08518:14
#08714:14
#0891a:14
#04318:26
#08412:24
#08418:00003434
#08410:41
#02012:24
#02018:24
#02013:0024
#02019:0024
#0211a:24
#02114:24
#06012:26
#08218:00260000
#05814:00343400
#05813:00000034
#0801a:00343434
#0811a:3434343434343400
#08614:00003434
#0881a:00003434
#09012:00003434
#03610:41
#0185a:14
#0285a:14
#0315a:0000001400000000
#03252:14
#03552:0000001400000000
#04456:0026
#04458:56
#0495a:0000001400000000
#05152:0000001400000000
#0655a:0000001400000000
#06252:14
#0625a:14
#06952:0000001400000000
#07152:14
#0735a:14
#07858:14
#08258:00160000
#09258:16
#09354:0014
#09558:0014
#09758:0014
#09954:0014
#0865a:14
#08558:64
#08754:54
#08852:14
#0895a:54
#09058:14
#09152:0014
#0173a0:0014
#0183a0:24
#021340:1424
#0213a1:1424
#0313a1:1400002400000000
#035321:1400002400000000
#0363a1:14
#036381:0034
#0373a1:34
#037381:0024
#038321:14
#038341:0034
#039321:34
#039341:0024
#043381:16000036000036000000360000000000
#044381:36
#044361:0056
#045381:26
#0493a1:1400002400000000
#051321:1400002400000000
#056381:14
#0563a1:0034
#0573a1:34
#057381:0024
#058341:14343400
#058331:00000034
#059321:24
#060321:16
#061321:0024
#0653a1:1400002400000000
#069321:1400002400000000
#070341:14
#070331:0034
#071321:24
#072381:14
#072391:0034
#0733a1:24
#077381:14000034000034000000340000000000
#078381:24
#0803a1:14343434
#0813a1:3434343434343400
#081381:0000000000000036
#082381:00260000
#0843a1:00140000
#084381:00003434
#085381:34
#0853a1:0034
#0863a1:24
#086321:00140000
#086341:00003434
#087341:34
#087321:0034
#088321:24
#088381:00140000
#0883a1:00003434
#0893a1:34
#089381:0034
#090381:24
#090341:00140000
#090321:00003434
#091321:3424
#093341:1424
#095381:1424
#097381:1424
#099341:1424
#100381:0014
#1033b1:23
