This file was generated by Ched 2.7.0.0.
#TITLE ""
#ARTIST ""
#DESIGNER ""
#DIFFICULTY 0
#PLAYLEVEL
#SONGID ""
#WAVE ""
#WAVEOFFSET 0
#JACKET ""
#REQUEST "ticks_per_beat 480"
#00002: 4
#BPM01: 84
#00008: 01
#TIL00: ""
#VOLUME: ""
#HISPEED 00
#MEASUREHS 00
#0001a:14
#0011a:14
#00214:14
#00314:14
#00914:14
#01018:14
#01112:14
#0161a:14
#01610:41
#01812:14
#01912:14
#01314:14
#01418:14
#0121a:14
#02812:0016
#02818:26
#0281f:21
#02810:0041
#0401a:14
#0411a:14
#04212:14
#04312:14
#01512:14
#0171a:14
#03012:16
#03018:0016
#03212:0016
#03218:26
#03318:1616
#03412:16
#03418:0016
#03410:41
#03512:1616
#03714:14
#03818:14
#03912:14
#03910:41
#0231f:11
#0081a:24
#00810:41
#0361a:24
#02210:41
#004380:14
#005380:24
#006320:14
#007320:24
#020380:14
#021380:24
#022340:14
#023340:24
#0243a0:14
#025380:24
#026320:14
#026340:0000000000000034
#027340:0024
#029380:1626
#031320:1626
#044380:1434
#045380:3424
#046340:1434
#047340:3434342400000000
