This file was generated by Ched 2.7.0.0.
#TITLE ""
#ARTIST ""
#DESIGNER ""
#DIFFICULTY 0
#PLAYLEVEL
#SONGID ""
#WAVE ""
#WAVEOFFSET 0
#JACKET ""
#REQUEST "ticks_per_beat 480"
#00002: 4
#BPM01: 84
#00008: 01
#TIL00: ""
#VOLUME: ""
#HISPEED 00
#MEASUREHS 00
#00812:0013001300130013
#0081b:23131313
#00818:0000001300130013
#00815:00130013
#00810:41
#01119:0013000000000000
#01112:00000013
#0111b:0000230000001313
#01116:0000000000000013
#01114:0013000000000000
#01118:00000000002300000000130000000000
#01115:0000002300000000
#01019:00000013
#01014:00000013
#01012:0013001300000000
#01018:00001300000000130000000000000000
#01015:13230000
#0101b:00230000
#02919:0013000000000000
#0291b:0000130000130000
#02912:1313
#02916:00000013000000000000000000000000
#02918:0000000000001313
#02915:0000003333000000330000000000000000000000130000000000130000000000
#02914:00000000003300000000000000000000
#0071c:0000001200000000
#00712:00000014
#0071a:12
#00718:0012000000000000
#00716:00120000
#00714:0000002200000000
#00912:0013130000130000
#00918:0013001300130000
#0091b:1300130000001313
#00915:00001313
#0151b:00000013
#01512:0000230000001313
#01517:0000000000000013
#01514:0013000000000000
#01519:0013000000000000
#01515:00000000002300000000130000000000
#01518:0000002300000000
#02812:13000000230000130000130000000000
#02816:0000000000001313
#02815:0013002300000000
#02818:00000000002300000000000000000000
#0281b:0023
#0281f:21
#02810:0041
#03112:1300000000001313
#03117:00000000000000000000000000130000
#03115:0000232300130000
#03118:23000000002300000000000000000000
#0311b:0023000000000000
#03315:0000131300001300
#03312:0013000000000000
#0331b:00000013000000000000130000000000
#03318:00000000001300000000001300000000
#03317:0000000000000023
#0321b:0000232300130000
#03215:13
#03218:0013000000000000
#03216:00000000002323000000000000000000
#03217:0023
#03412:0013000000000000
#03415:00000013000000000000130000230000
#03418:0000130000002323
#03416:0000002300000000
#03410:41
#03516:00000000000000000000140000140000
#0351b:13000013
#03515:23000000002300000000000000000000
#03512:0023000000000000
#03518:0000232300000000
#0401a:0012000000000000
#04016:00120012
#04018:1212
#04012:1312
#0401c:00120012
#04014:0000000000120000
#04714:12
#0471a:1200002200000000
#04716:0012000000000000
#04718:00120000
#04614:0012000000000000
#04618:00121200
#04612:00121200
#0461a:0000000000120000
#04616:12000012
#0461c:00000012
#0121b:0013001300130013
#01212:23131313
#01215:0000001300130013
#01218:00130013
#0131b:0013130000130000
#01315:0013001300130000
#01312:1300130000001313
#01318:00001313
#0141b:0013001300000000
#01415:00001300000000130000000000000000
#01418:13230000
#01414:00000013
#01419:00000013
#01412:00230000
#0171b:00001313000000000000000000130000
#01716:00000013
#01715:13
#01719:00000000001300000000000000000000
#01717:00000000000000130000000000000000
#01712:00000000000000130000000000000000
#02217:13000013
#02214:00130000
#02219:0000000000130000
#02212:0013000000000000
#0221b:0013
#02210:41
#01617:0000131300000000
#01612:00000000001300000000000013000000
#01616:2313
#01614:0000000000130000
#0161b:23000013
#01615:0000000000000013
#01618:00000000000000000000000000000013
#01610:41
#01818:0013000000000013
#01815:00000013000000000000000000000013
#01816:0000001300000000
#01817:0013
#01819:0000000000130000
#0181b:00000013
#01812:00000013
#01912:00001313000000000000000000130000
#01917:0000000000131300
#01918:13
#01914:00000000001300000000000000000000
#01916:00000000000000130000000000000000
#0191b:00000000000000130000000000000000
#02015:2313000000000000
#02012:00130013
#0201b:0000001300130013
#02016:0000001300130013
#02017:0013
#02112:00001313000000000000130000000000
#02116:00000000001313000000000013000000
#0211b:13000000000013000000000000130000
#02117:00000013000000000000000000000000
#02316:1300001300000000
#02314:0013000000000000
#02312:00130000
#0231b:1300001300002300
#02319:0013000000000000
#02317:00130000
#0231f:11
#02318:0000000000230023
#02415:0013000000000000
#02412:00131300
#0241b:2300001300000000
#02417:0013
#02416:0000001300000000
#02418:00130000
#0261b:13131313
#02612:1300001300001300
#02618:0013000000000000
#02616:0013
#02617:0000001300000022
#02615:00130000
#03015:0000131300002323
#03018:00000000001300000000130000230000
#03012:0013000000000000
#0301b:00000013000000000000000000000000
#03016:23
#03017:0023
#02718:0000000000130013
#02715:00000000000000000000000000130000
#0271b:00000000000000000000000013000013
#02717:0000222200000000
#0361b:0013000000131300
#03612:0000130000130000
#03616:24001323
#03617:00230000
#03818:0000001300000000
#03816:0013000000002300
#03815:00000000000000130000000000000000
#0381b:13230023
#03812:00230000
#03712:0013000000130013
#0371b:0013230000131300
#03716:00131323
#03717:1300001300000000
#03912:00000013
#0391b:0000230000001313
#03919:0013000000000000
#03914:0013000000000000
#03916:0000230000000013
#03917:0000002300000000
#03910:41
#00414:0012001200000000
#00416:00121200
#0041a:0000000000120012
#00418:12000012
#0041c:00120000
#00412:00000012
#00616:12
#00614:0012000000000000
#00612:00120012
#00618:00120012
#0061c:0012
#0061a:0000000000120000
#0031c:12
#0031a:0012000000000000
#00318:00121200
#00316:0000001200120000
#00314:00000012
#00312:0000000000000012
#0001a:0012000000000000
#00016:00120012
#00018:12
#00012:0012
#0001c:00120012
#00014:0000000000120000
#00214:0012000000000000
#00212:00120012
#00216:12
#0021c:0012
#00218:00120012
#0021a:0000000000120000
#0011c:0000000000000012
#0011a:00000012
#00118:0000001200120000
#00112:12
#00116:00121200
#00114:0012000000000000
#04218:00120012
#0421a:0000000000120000
#04212:00120012
#0421c:1212
#04216:1212
#04214:0012000000000000
#0411a:0000000012000012
#04118:1200001200001200
#04116:0000120000120000
#04114:0012000012000000
#04112:12
#04414:0012001200000000
#04416:00121200
#0441a:0000000000120012
#04418:12000012
#0441c:00120000
#04412:00000012
#04314:0000000012000012
#04316:1200001200001200
#04318:0000120000120000
#0431a:0012000012000000
#0431c:12
#02516:0000000000130000
#02517:00000013
#02515:0000000000000013
#0251b:0000000000130000
#01052:0000005300000000
#01058:00000000000000630000000000000000
#0085b:13
#00852:0000005300000053
#00855:00230023
#0075c:0000006200000000
#00752:00000054
#00952:00630000
#00958:0000006300000000
#00955:00000053
#0095b:0000000000000063
#03457:13
#03452:13
#03456:0013
#0345b:0013
#03455:0000000000530000
#03458:0000000000000063
#03656:14
#03652:00530000
#0365b:00000063
#03152:23
#03155:0000005300000000
#03158:00000000005300000000000000000000
#0325b:13
#03252:0013
#01252:13
#0125b:0000006300000063
#01258:00230023
#01352:0000000000000053
#01358:00000063
#0135b:00530000
#01355:0000005300000000
#01657:0000002300000000
#0165b:13
#01755:53
#01757:00000000000000530000000000000000
#01752:00000000000000530000000000000000
#01958:63
#01956:00000000000000630000000000000000
#0195b:00000000000000630000000000000000
#02356:0000005300000000
#0235b:0000001300000000
#0245b:1300005300000000
#02457:0023
#02456:0000005300000000
#02452:0023
#02157:00000053000000000000000000000000
#0215b:2300005300000000
#02156:0000005300000000
#02052:00530053
#0205b:0000000000230000
#02057:0053
#02056:0000002300000023
#02055:13
#01856:0000002300000000
#02252:00000013
#02257:00000013
#02652:1300006300000000
#02656:0023
#02657:0000006300000000
#0265b:0023
#02956:00000023000000000000000000000000
#02952:63
#02958:0000000000000053
#02955:0000000000630000
#0305b:13
#03058:0000000000630000
#03052:0013
#03055:0000006300000053
#03057:0013
#03056:13
#02852:00000000000000230000000000000000
#02855:0000006313000000
#02858:13
#02758:0000000000000053
#0275b:00000000000000000000000000000023
#0355b:23
#03858:0000005300000000
#03855:00000000000000630000000000000000
#03756:00630000
#0375b:00000053
#03752:0000000000000053
#03757:0000006300000000
#04052:13
#0145b:0000006300000000
#01455:00000000000000530000000000000000
#00456:0062
#0045c:00220000
#00458:62
#00452:00000022
#03355:0000001300000000
#04456:0062
#0445c:00220000
#04458:62
#04452:00000022
#02556:0000000000630000
#02557:00000053
#004380:1222
#0043c0:00520000
#004361:0012
#004321:00000052
#005361:22
#0053c0:1222000000000000
#005361:0012220000000000
#0053a0:0000122200000000
#005341:0000001222000000
#005380:0000000012220000
#005321:0000000000122200
#0053c0:00000012
#0063c0:22
#0073c0:0000001200000000
#007380:00000022
#007321:00000014
#008361:24
#008351:00132300
#008321:0000003300000000
#008351:00000013
#008321:0000000000000033
#009351:23
#009321:00130000
#009351:0000002300000000
#009380:0000001300000000
#0093b0:0023
#009350:00000013
#009320:0000000000000023
#0093b1:0000000000000013
#010381:23
#010321:0000001300000000
#010361:0000000000230000
#010380:00000000000000130000000000000000
#0103b0:0000000000230000
#010320:0000000000000013
#011320:23
#010371:0000000000000013
#011371:23
#011351:0000001300230000
#012381:00132300
#0123b1:0000003300000000
#012381:00000013
#0123b1:0000000000000033
#013381:23
#0133b1:00130000
#013381:0000002300000000
#013350:0000001300000000
#013320:0023
#013380:00000013
#0133b0:0000000000000023
#013321:0000000000000013
#014351:23
#0143b1:0000001300000000
#014371:0000000000230000
#014350:00000000000000130000000000000000
#014320:0000000000230000
#0143b0:0000000000000013
#0153b0:23
#014361:0000000000000013
#015361:23
#015381:0000001300230000
#016321:0013230000000000
#016371:0000001300000000
#0163b1:0023
#017351:13
#017321:00003333003300330000000000000000
#017361:0000000000230000
#017370:00000000000000130000000000000000
#0173b0:0000000000332300
#017360:0000000000000013
#018320:23
#0183b0:0000132300000000
#018361:0000001300000000
#018321:0023
#019381:13
#0193b1:00003333003300330000000000000000
#019371:00000000000000000023000000000000
#019360:00000000000000130000000000000000
#019320:00000000000000000033330023000000
#019370:0000000000000013
#0203b0:23
#020380:0013230000000000
#020321:00132300
#020361:0000005300000000
#020370:00001323
#0203b0:0000000000530000
#020321:00000013
#020361:0000000000000053
#021321:23
#0213b0:1300003300000000
#021370:00000033000000002300000000000000
#021361:0000001300000000
#021321:0023
#021371:0000000000130000
#0213b1:00000023
#021361:0000000000000013
#022321:23
#0223b1:0013002300000000
#022360:0000001333000000
#022320:00000023
#023360:0000001300000000
#023320:00000053
#024320:23
#0243b0:0000001300230000
#024370:0053
#024361:0000001300230000
#024321:0053
#0243c1:0000000000001222
#024320:0000000000000012
#025320:22
#0253a1:1222000000000000
#025340:0012220000000000
#025381:0000122200000000
#025360:0000001222000000
#025360:0000000000130000
#025320:00000023
#025371:00000013
#0253b1:0000000000000023
#026321:0000001300230000
#026361:0053
#026370:0000001300230000
#0263b0:0053
#026370:0000000000000012
#027370:0022000000000000
#027350:0000000000130000
#027320:00000023
#027380:0000000000000013
#0273b0:00000000000000000000000000000053
#028380:23
#028380:0013000000000000
#0283b0:00230000
#028350:0000001323000000
#028320:00000000000000530000000000000000
#028370:0000000000130000
#0283b0:00000023
#0283b0:0000000000000013
#029370:23
#029321:1300002300000000
#029351:0000003333000000330000000000000000000000000000000000000000000000
#029361:00000033000000000000000000000000
#029341:00000000003300000000000000000000
#029370:0000001323000000
#029350:0000000000130000
#029320:00000023
#029380:0000000000000013
#0303b0:23
#030350:0000001300000000
#030320:0023
#030380:0000000000130000
#0303b0:00000023
#030350:0000000000000013
#031320:33
#031350:0023000000000000
#031380:00000000001300000000000000000000
#0313b0:0023
#031351:0000001300000000
#031321:0023
#0313b1:0000000000130000
#031371:00000023
#031371:0000000000000013
#0323b1:23
#032321:0013000000000000
#032361:00230000
#032361:0000001300000000
#032321:0023
#032361:0000000000132300
#0323b0:00000013
#032380:0000000000000023
#032351:0000000000000013
#033321:23
#033370:1323000000000000
#033320:00000000000000000000000000130000
#034320:23
#033371:0000000000000013
#034371:23
#0343b1:00000000001300002300000000000000
#034360:0000001323000000
#034350:0000000000130000
#034320:00000023
#034380:0000000000000013
#0353b0:33
#035380:0023000000000000
#035350:00000000001300002300000000000000
#035381:0000001323000000
#035321:0000000000132300
#0353b1:0000000000000013
#0363b1:23
#036321:00130000
#036361:0000002300000000
#0363b0:0000001323000000
#0363b0:00000013
#036370:0000000000000023
#036321:0000000000000013
#037321:23
#037361:00130000
#037321:0000002300000000
#037370:0000001300000000
#0373b0:0023
#0373b0:00000013
#037370:0000000000000023
#037321:0000000000000013
#038361:23
#038381:0000001300000000
#0383b1:0000000000230000
#038350:00000000000000130000000000000000
#038320:0000000000230000
#038320:0000000000000013
#039320:23
#038371:0000000000000013
#039371:23
#039361:00130000
#039341:00000000003300000000000000000000
#039321:0000003300230000
#039370:0000001300230000
#044380:1222
#0443c0:00520000
#044361:0012
#044321:00000052
#045361:22
#0453c0:1222000000000000
#045361:0012220000000000
#0453a0:0000122200000000
#045341:0000001222000000
#045380:0000000012220000
#045321:0000000000122200
#0453c0:00000012
#0463c0:22
