This file was generated by Ched 2.7.0.0.
#TITLE ""
#ARTIST ""
#DESIGNER ""
#DIFFICULTY 0
#PLAYLEVEL
#SONGID ""
#WAVE ""
#WAVEOFFSET 0
#JACKET ""
#REQUEST "ticks_per_beat 480"
#00002: 4
#BPM01: 84
#00008: 01
#TIL00: ""
#VOLUME: ""
#HISPEED 00
#MEASUREHS 00
#0081b:0013000000130000
#00812:0000001300000013
#00815:23130013
#00810:41
#0111b:00230013
#01115:00000000002300000000000000001300
#01112:0013000000130000
#01118:0000002300000000
#02912:13
#02916:00000013000000000000000000000000
#0291b:0000000000130000
#02915:0000003333000000330000000000000000000000000000001300000000000000
#02918:00000000000000000000000000130000
#02914:00000000003300000000000000000000
#03017:00000000000000000000000000003313
#03015:00000023002300000000130000000000
#0301b:0023000000002300
#03018:0000232300000000
#03019:00000000000000000000000000330000
#03315:00000013000000000000000013001300
#03312:13000000001300000000130000000000
#03318:00001300000000000000001300000000
#0331b:13000000130000000000000000130000
#00712:00000013
#00714:12
#00718:0012000000000000
#00716:00120000
#0071a:0000002200000000
#01018:00001300000000130000000013000000
#0101b:0000230000000013
#01015:0000001300000000
#01012:0000230000130000
#01712:000000000000330000331300000000330000000000000000000000000000000000000000000000000000000000000000
#01715:13000013
#01718:00000000000000130000000000130000
#01615:0000130000000013
#0161b:0000001300000000
#01618:00001300000000000000000000000013
#01612:23
#01610:41
#01818:0013000000000013
#01815:00000013000000000000000000000013
#0181b:00130000
#01812:0000001300000000
#02015:0013000013000000
#0201b:23130013
#02018:0000001300000000
#0211b:0000000000130000
#02115:13000000003313000000000013000000
#02118:00000000000000000000000000130000
#02112:00003313000000000000000000000000
#02214:00140014
#02218:0014000000140000
#02212:0014
#0221a:0000001400000000
#02210:41
#02312:0013000000230000
#0231b:13
#02315:0000130000000023
#02318:0000001300002300
#0231f:11
#02415:0013001300000000
#02412:0000000013000014
#02418:00130000
#0241a:00000014
#0241b:23
#02612:13000013
#02618:0013001300000023
#0261b:0013
#02615:00130000
#02712:0000000000130000
#02715:00000000000000000000000000130000
#02718:00000013
#00314:12000012
#00318:0012000000120000
#00316:00121200
#0031a:0000001200000012
#00018:0012000000001200
#00016:1200000000120000
#00014:0012
#0001a:00120000
#00218:0012000000001200
#0021a:00120000
#00216:1200000000120000
#00214:0012
#0011a:0000001200000012
#00114:12000012
#00118:0012000000120000
#00116:00121200
#01212:0013000000130000
#0121b:0000001300000013
#01218:23130013
#01512:00230013
#01518:00000000002300000000000000001300
#0151b:0013000000130000
#01515:0000002300000000
#01415:00001300000000130000000013000000
#01412:0000230000000013
#01418:0000001300000000
#0141b:0000230000130000
#0191b:000000000000330000331300000000330000000000000000000000000000000000000000000000000000000000000000
#01918:13000013
#01915:00000000000000130000000000130000
#01912:00000000000000000033000000000000
#02519:13
#02514:0013000000000000
#02518:0000120000000013
#02516:0000001200000000
#02515:00000013
#0251b:0000000000130000
#02812:0023000000130000
#02815:00000000002300000000000013000000
#02818:0000230000000013
#0281b:0000002300000000
#0281f:21
#02810:0041
#0311b:0000000000130000
#03118:00000000002300000000000000130000
#03115:0000232300001300
#03117:33
#0321b:0023000000130000
#03218:00000000002300000000000013000000
#03215:0000230000000013
#03212:0000002300000000
#03412:00000000002300000000000033331300
#0341b:00002300000000000000000033331300
#03418:0000232300130000
#03415:00000023000000000000230000000000
#03410:41
#03512:3300000000130000
#03518:00000013
#03515:0000000000000013
#0351b:33
#03612:0013000000000000
#03615:0000001300000013
#0361b:23
#03618:00230023
#03815:0000001300000013
#03818:00000000000000130000000023000000
#03812:0000230000130000
#0381b:00230000
#03718:0000001300002300
#03715:0000230000000013
#0091b:0013000000000000
#00915:0000130000000013
#00918:0000001300001300
#00912:0000000000130000
#01312:0013000000000000
#01318:0000130000000013
#0131b:0000000000130000
#01315:0000001300001300
#00616:0012000012000000
#00618:0000120000120000
#0061a:00000012
#00614:12
#00418:0012
#00413:00120000
#00416:12
#0041b:00000012
#00415:0032003200000000
#00419:0000000000320032
#00513:00120000
#00516:12
#00518:0012
#00515:0032003200000000
#00519:0000000000320000
#04714:12
#04716:0012000000000000
#04718:00120000
#0471a:0000002200000000
#04614:0012
#04616:1200000000120000
#04618:0012000000001200
#0461a:00120000
#04018:0012000000001200
#0401a:00120000
#04014:0012
#04016:0000000000120000
#04012:13
#0411a:0000001200000012
#04114:00120012
#04118:0012000000120000
#04116:1212
#04218:0012000000001200
#04216:1200000000120000
#0421a:00120000
#04214:0012
#0431a:0000001200000012
#04314:00120012
#04318:0012000000120000
#04316:1212
#03918:0000002300001300
#03915:00000000002300000000000000001300
#0391b:0000230000130000
#03910:41
#04418:0012
#04413:00120000
#04416:12
#0441b:00000012
#04415:0032003200000000
#04419:0000000000320032
#04513:00120000
#04516:12
#04518:0012
#04515:0032003200000000
#04519:0000000000320000
#00855:13230023
#00852:0000005300000053
#03452:1300000000000023
#0345b:0000000013000023
#03458:0000005300530000
#03455:0000000000630000
#0365b:13
#03655:0000005300000063
#03057:00000000000000000000000000000023
#0305b:00001353
#03052:13
#00752:00000053
#01258:13230023
#0125b:0000006300000063
#01755:53
#01758:00000000000000530000000000000000
#01752:000000000023000000000000000000000000000000000000
#01652:13
#0205b:13000063
#02055:0063
#0245b:13
#02455:0000005300000000
#02452:0023
#02358:0000001300000000
#02652:13
#02658:0000006300000053
#0265b:0023
#02956:00000023000000000000000000000000
#02952:63
#03155:0000005300000000
#0285b:1313
#0105b:0000000000000063
#01058:00000023
#01452:0000000000000053
#01455:00000023
#0195b:000000000023000000000000000000000000000000000000
#01958:63
#01955:00000000000000630000000000000000
#02155:6300006300000000
#02152:00000063000000000000000000000000
#03252:1313
#03355:0000000000000063
#03555:0000001300000000
#03558:0000001300000000
#03758:0000006300000000
#03755:0000000000000063
#00955:0000000000000023
#00958:0000002300000000
#01355:0000002300000000
#01358:0000000000000023
#00458:0052
#00453:00220000
#00456:52
#0045b:00000022
#00553:00220000
#00556:52
#00558:0062
#03855:0000000000000063
#04458:0052
#04453:00220000
#04456:52
#0445b:00000022
#04553:00220000
#04556:52
#04558:0062
#04052:13
#004360:1222
#004350:0032003200000000
#004330:00320000
#004381:0012
#004391:0000000000320032
#0043b1:00000032
#005381:22
#005360:1222
#005350:0032003200000000
#005330:00320000
#005381:0012
#005391:0000000000320000
#0053b1:00000022
#007321:00000013
#008351:23
#008351:00132300
#008321:0000003300000000
#008351:00000013
#008321:0000000000000033
#009351:23
#009381:0000001300000000
#0093b1:0023
#009351:0000000000000013
#010321:23
#010381:00000013
#0103b1:0000000000000033
#011381:23
#012381:00132300
#0123b1:0000003300000000
#012381:00000013
#0123b1:0000000000000033
#013381:23
#013351:0000001300000000
#013321:0023
#013381:0000000000000013
#0143b1:23
#014351:00000013
#014321:0000000000000033
#015351:23
#017351:13000000000000230000000000000000
#017321:000000000000330000335300000000330000000000000000000000000000000000000000000000000000000000000000
#017380:00000000000000130000000000000000
#0173b0:0000000000230000
#017320:0000000000000013
#018320:23
#019380:13000000000000230000000000000000
#0193b0:000000000000330000335300000000330000000000000000000000000000000000000000000000000000000000000000
#019351:00000000000000130000000000000000
#019321:00000000000000000033230000000000
#0193b1:0000000000000013
#0203b1:23
#020351:0013
#020321:0000000000230000
#0203b1:00000013
#020381:0000000000000023
#021351:13000000003333000000000000000000
#021321:00003333000000002300000000000000
#021351:0000000000000013
#022351:23
#024351:0000001300230000
#024321:0053
#026381:0000001300230000
#0263b1:0053
#026381:0000000000000013
#027371:0032322200000000
#0273b1:0000000000000013
#0283b1:23
#0283b1:0000001323000000
#029321:1300003323000000
#029351:0000003333000000330000000000000000000000000000000000000000000000
#029361:00000033000000000000000000000000
#029341:00000000003300000000000000000000
#029351:0000000000000013
#030321:23
#030381:0000001300000000
#0303b1:0023
#0303b1:00000013
#030391:00000000000000000000000000330000
#030371:00000000000000000000000000003353
#031371:33
#0313b1:0023000000000000
#031351:0000001300000000
#031321:0023
#031321:0000000000000013
#032321:23
#032321:0000001323000000
#033381:0000001323000000
#033351:0000000000000013
#034321:23
#034381:0000001300000000
#0343b1:0023
#034351:0000000000130000
#034321:00000000000000000000000033333300
#035321:33
#035351:00003300333323000000000000000000
#034380:0000000000130000
#0343b0:00000000000000000000000033333300
#0353b0:33
#035380:00003300333323000000000000000000
#036350:0000001300000000
#036320:0000000000230000
#036350:0000000000000013
#037320:0023000000000000
#037380:0000001300000000
#0373b0:0000000000230000
#037350:0000000000000013
#038320:0023000000000000
#038350:0000000000000013
#039320:0023000000000000
#044360:1222
#044350:0032003200000000
#044330:00320000
#044381:0012
#044391:0000000000320032
#0443b1:00000032
#045381:22
#045360:1222
#045350:0032003200000000
#045330:00320000
#045381:0012
#045391:0000000000320000
#0453b1:00000022
