This file was generated by Ched 2.7.0.0.
#TITLE ""
#ARTIST ""
#DESIGNER ""
#DIFFICULTY 0
#PLAYLEVEL
#SONGID ""
#WAVE ""
#WAVEOFFSET 0
#JACKET ""
#REQUEST "ticks_per_beat 480"
#00002: 4
#BPM01: 84
#00008: 01
#TIL00: ""
#VOLUME: ""
#HISPEED 00
#MEASUREHS 00
#0231f:11
#02312:0013000000240024
#02319:00000013000000000000000000000000
#02316:13000000000000001212000012000012
#0231b:1300131300000000
#02318:0000000000000012
#02317:0013000000000000
#0231a:00000024
#0251a:0000000000140014
#02512:00000014
#02516:0000000000120012
#02518:00000000000000000000000012000012
#02514:12
#02515:0012000000000000
#04018:0012000012001200
#0401c:00000012
#0401a:0000120000120000
#04014:0012000012000000
#04016:1200120000120000
#04012:12
#02616:00000000130000000000001400000000
#02617:0013000000000000
#02612:1813001300001300
#0261b:13001313
#02618:0000000000000012
#01916:1300000000000000000013000000000000130000000000000000000013000000
#0191b:1300000000000000000013000000000000130000000000000000130013000000
#01917:00000000000000130000130000000000
#01912:00001313000000130000000000000000
#01919:00000000000000000033000000000000
#01914:00000000000000000033000000000000
#00812:1313131300001300
#0081b:0000130013131313
#00816:0000000000130000
#00817:0013000000000000
#00818:26
#00810:41
#0121b:1313131300001300
#01212:2400130013131313
#01217:0000000000130000
#01216:0013000000000000
#01115:0000000013130000
#01118:0000000000000000000000002200001300001300000000000000000000000000
#01117:13000000000000000000001300001414
#0111b:0000000000130000
#01112:13000000000000130000000013001414
#01116:0013220000000000
#0111c:00220000
#0111a:00000000002200000000000000000000
#01114:00000000003200000000000000000000
#00012:0000120012121200
#0001c:1212120000001200
#00018:0012
#0001a:0000000000120000
#00014:0012000000000000
#00016:12
#02417:000000000000000000000000000000000000000000000000000000000000000000000000000000000000000000000000000000000000000000000000000000000000000000000000000000000000000000000000000000000000000000000000000000000000000000000000000000000000000000000000000000000000000000000000000000000000000000000000000000000000000000000000000000000000000000000000000000000000000000000000000000000000000000000000000000000000000000000000000000000000000000000000000000000000000000000000000000000000000000000000130000000000000000000000000000000000000000000000000000000000000000000000000000000000000000000000000000000000000000000000000000000000000000000000000000000000000000000000000000000000000000000000000000000000000000000000000000000000000000000000000000000000000000000000000000000000000000000000000000000000000000000000000000000000000000000000000000000000000000000000000000000000000000000000000000000000000000000000000000000000000000000000000000000000000000000000000000000000000000000013000000000000000000000000000000000000000000000000000000000000000000000000000000000000000000000000000000000000000000000000000000000000000000000000000000000000000000000000000000000000000000000000000000000000000000000000000000000000000000000000000000000000000000000000000000000000000000000000000000000000000000000000000000000000000000000000000000000000000000000000000000000000000000000000000000000000000000000000000000000000000000000000000000000000000000000000000000000000000000000000000000000000000000000000000000000000000000000000000000000000000000000000000000000000000000000000000000000000000000000000000000000000000000000000000000000000000000000000000000000000000000000000000000000000000000000000000000000000000000000000000000000000000000000000000000000000000000000000000000000000000000000000000000000000000000000000000000000000000000000000000000000000000000000000000000000000000000000000000000000000000000000000000000000000000000000000000000000000000000000000
#02416:2813000013000000
#0241b:0013001300000000
#02413:0000000000000012
#02412:0000001300001200
#02112:13000000001313000000130000001300
#02117:0000001300000013
#0211b:00001313000000001300000013000000
#02116:00000013
#02119:00000000000000000000000000130000
#03014:00000013000000000000000000000000
#0301b:0013000023002323
#03012:2300131300230000
#03016:00001300001313001300000000000000
#03017:13000000000000000000230000232300
#03018:00000033000000000000000000000000
#02718:0022222200120000
#02719:00000000000000000000000000120000
#02716:0000000000000013
#0271b:0000000000000013
#02717:00000000000000000000000000000013
#02712:00000024
#02012:2300001313000013
#02017:2300001300000013
#0201b:0013130000131300
#02016:0013000000130000
#0181b:0000000000130013
#01812:0000131300001300
#01817:0013000000131300
#01816:00000000001313000000000000000013
#01612:2300000000130013
#0161b:0013001300001300
#01617:00000013000013000000000000000013
#01616:0000130000131300
#01614:0013000000000000
#0161a:24
#01610:41
#01712:1300000000000000000013000000000000130000000000000000130013000000
#01717:1300000000000000000013000000000000130000000000000000000013000000
#01716:00000000000000130000130000000000
#0171b:00001313000000130000000000000000
#00912:1313130013000000
#0091b:0000000000131300
#00917:0013130013000013
#00916:0000001300001300
#01017:00000000130013130000130000000000
#01016:1300000000000013
#0101b:1300000000001313
#01012:0013002200001300
#0101c:00000000220000220000000000000000
#04516:00120012
#04518:1212
#0451c:0012000000120000
#04512:0000001200000000
#04514:0012000000120000
#0451a:0000001200000000
#04616:1200120000120000
#04614:0012000012000000
#0461a:0000120000120000
#04618:0012000012001200
#0461c:00000012
#04416:0012000012000012
#04412:0000001200120000
#04414:00120012
#04418:1200001200120000
#0441c:0012000000000012
#0441a:00120012
#04314:0012000000001200
#04316:0000120000120000
#04312:12
#04218:1200120000120000
#0421a:0012000012000000
#04216:0012000012001200
#04214:0000120000120000
#04212:00000012
#0411a:0012000000001200
#04118:0000120000120000
#0411c:12
#0131b:1313130013000000
#01312:0000000000131300
#01316:0013130013000013
#01317:0000001300001300
#03912:0000220000130013
#0391b:13000000000000000013000013000000
#03915:0000000000000000000000000000000013000000000000130000000000000000
#03918:00000000000000000000001300000000
#03917:1313000000000000
#03919:00000000000000000000000000130000
#03916:0000182200000014
#0391c:0000002200000000
#03914:00000000002200000000000000000000
#03910:41
#01515:0000000000000000000000000000001300001300000000000000000014001400
#0151b:13000000000000130000000013000000
#01516:13000000000022000000001300000000
#01512:0000220000130000
#0151a:00000000003200000000000000001414
#01518:0000220013130000
#01517:0013000000000000
#01514:00000000002200000000000000000000
#01416:00000000130013130000130000000000
#01417:1300000000000013
#01412:13000000220000220000000013001300
#0141b:0013000000001300
#0141c:0000002200000000
#00518:00120012
#00516:1212
#00512:0012000000120000
#0051c:0000001200000000
#0051a:0012000000120000
#00514:0000001200000000
#00612:1200000012121200
#0061c:0012120000001200
#00616:00120000
#00614:0012000000000000
#0061a:0000000000120000
#00618:0012
#00418:0012000012000012
#0041c:0000001200120000
#0041a:00120012
#00416:1200001200120000
#00412:0012000000000012
#00414:00120012
#03512:23001300002616160000000012000000
#0351c:00000012
#03518:00000000260026160000120000000000
#03516:00130013000000000000120000000000
#03517:0023000000000000
#0381b:0013001300131300
#03812:00000000230000130000000018001300
#03816:14001400180024240000000000000000
#03717:00000000000013001300000000130000
#03716:00001400180000000000000000000013
#03712:0000130013001813
#0371b:0013001300131300
#03616:0014180000140013
#03612:2200130000131813
#0361b:0013001300001300
#03617:0000001300000000
#0361c:22
#03212:1324001400130000
#03216:00000000140000140000000000000000
#03217:0023002300130013
#0321b:0000230023000013
#03219:00000000002300000000000000000000
#03116:00002300000000000000130014001314
#03114:00000000000000000000000000130000
#03112:0000262600001300
#0311a:0000000000140014
#03118:00000000002616000000000000000000
#03117:00130013000000000000000000000000
#0311b:2313000000000000
#03416:00001400240014000000230000232300
#03418:00000014001400000000000000000000
#0341a:00140000
#03412:0024002400002323
#0341b:0000000000230000
#03410:41
#0031a:0012000000001200
#00318:0000120000120000
#0031c:12
#04714:0012000000000000
#04716:12120000
#04712:12
#04718:0012002200000000
#0471a:00120000
#0471c:0000002200000000
#0291b:13000013000013000000130013001300
#02918:0000001300000000130000000000000000000000000000000000000000000000
#02917:00000000000000000000000000131300
#02915:00131300001300000000000000000000
#02912:00000013000013001300130000000000
#03316:1313001300142414
#0331b:0000001300000000
#03317:00131300
#03312:00130014
#03314:00000013000000000000001400140000
#03319:00000000001300000000000000000000
#0331a:0000000000240024
#0071c:1212120000001200
#00712:12000013
#00716:0000120000000014
#00714:0012000000000000
#00718:0000002200000000
#00214:0000000000120000
#00216:0012
#0021a:0012000000000000
#00218:12
#0021c:0000120012121200
#00212:0012120000001200
#00114:0012000000001200
#00116:0000120000120000
#00112:12
#0281b:0023230023130013
#02816:00002300000000130000130000001300
#02812:1300002300001300
#0281f:21
#02818:0000002300000000
#02815:00000000002300000000000000000000
#02810:0041
#02215:00000000000000000013000000000000
#02219:0013
#02217:00000000000000130000130000000000
#0221b:0013001300000000
#02212:00130000
#02216:0013000000000000
#02210:41
#02556:0000001200000000
#02558:0000001200000000
#0115b:0000000000634300
#01156:00520000
#01157:23000000000000000000002300000000
#02356:5300003300000000
#02352:0023000000000000
#0235b:0000006300000000
#0225b:1353000000001300
#02256:13
#02252:00530013
#02255:00000000000000000063000000000000
#02257:0000000000630000
#01552:0000000000533300
#01558:00620000
#01556:23000000000000000000002300000000
#0325a:44
#03252:0054005434000000
#03256:00000000540000240000000000000000
#03257:0000000000530053
#03456:3400006444000023
#03452:0000006444000000
#0345a:34
#0345b:0000000000630000
#03554:0044
#03558:00000000000056263400520000000000
#03552:53005300000056260000000052000000
#0355c:00000052
#03556:00230023000000000000000000000000
#03152:0000006614000000
#0315a:0000000014640064
#0315b:6363000000000000
#03156:00000000000000000000000064000024
#03158:0000006600000000
#03157:00230023000000000000000000000000
#0335b:0013001300000000
#0335a:0000000000000054
#03356:6300002300000054
#03352:00130000
#02852:0000006334002300
#0285a:44
#02856:00002300000000230000000000006300
#0285b:0000000000630000
#02052:1363
#02057:1300006300000063
#0205b:00530053
#02056:0053000000530000
#00858:46
#0085b:0000530000001363
#00852:0000135300006300
#02456:4863000023000000
#02457:000000000000000000000000000000000000000000000000000000000000000000000000000000000000000000000000000000000000000000000000000000000000000000000000000000000000000000000000000000000000000000000000000000000000000000000000000000000000000000000000000000000000000000000000000000000000000000000000000000000000000000000000000000000000000000000000000000000000000000000000000000000000000000000000000000000000000000000000000000000000000000000000000000000000000000000000000000000000000000000000630000000000000000000000000000000000000000000000000000000000000000000000000000000000000000000000000000000000000000000000000000000000000000000000000000000000000000000000000000000000000000000000000000000000000000000000000000000000000000000000000000000000000000000000000000000000000000000000000000000000000000000000000000000000000000000000000000000000000000000000000000000000000000000000000000000000000000000000000000000000000000000000000000000000000000000000000000000000000000000023000000000000000000000000000000000000000000000000000000000000000000000000000000000000000000000000000000000000000000000000000000000000000000000000000000000000000000000000000000000000000000000000000000000000000000000000000000000000000000000000000000000000000000000000000000000000000000000000000000000000000000000000000000000000000000000000000000000000000000000000000000000000000000000000000000000000000000000000000000000000000000000000000000000000000000000000000000000000000000000000000000000000000000000000000000000000000000000000000000000000000000000000000000000000000000000000000000000000000000000000000000000000000000000000000000000000000000000000000000000000000000000000000000000000000000000000000000000000000000000000000000000000000000000000000000000000000000000000000000000000000000000000000000000000000000000000000000000000000000000000000000000000000000000000000000000000000000000000000000000000000000000000000000000000000000000000000000000000000000000000
#0245b:0000005300000000
#02452:0000006300000000
#0395c:0000006200000000
#03957:23
#03956:00480000
#01252:3400630000001353
#0125b:0000136300005300
#02752:00000034
#02758:0000000000520000
#0275b:0000000000000053
#02757:00000000000000000000000000000023
#03052:3300000000530000
#03057:4300000000000023
#0305b:0063000043000000
#03056:0000002333000000
#0365c:12
#03652:1200630000003853
#03656:0000480000000053
#0365b:0000006300005300
#03657:0000006300000000
#0165a:44
#0165b:0053005300000000
#01657:00000023000053000000000000000000
#02656:00530000
#02657:0053000000000000
#02652:3800005300000000
#0265b:0023
#02658:0000000000000012
#01956:0000000000000000000053000000000000230000000000000000000063000000
#0195b:6300000000000000000000000000000000230000000000000000000063000000
#01957:00000000000000530000530000000000
#01952:00000053000000530000000000000000
#02152:6300006300530053
#02157:0000005300000053
#0215b:00000053000000002300000000000000
#02156:00000023
#01852:0000536300000000
#01856:00000000002363000000000000000000
#01752:5300000000000000000000000000000000230000000000000000000053000000
#01757:0000000000000000000063000000000000230000000000000000000053000000
#01756:00000000000000630000630000000000
#0175b:00000063000000630000000000000000
#01057:00000000130000630000000000000000
#0105b:2300000000001363
#0095b:00000013
#00957:0000630000000053
#00956:0000005300006300
#00952:00132300
#04556:00520052
#04558:6262
#0455c:0022000000220000
#04552:0000002200000000
#04456:0000000052000022
#04452:0000000000220000
#04454:00000052
#04458:6200002200000000
#0445c:0022000000000000
#0445a:00620000
#01456:00000000130000530000000000000000
#01452:2300000000001353
#01352:00000013
#01356:0000530000000063
#01357:0000006300005300
#0135b:00132300
#00558:00620062
#00556:5252
#00552:0022000000220000
#0055c:0000002200000000
#00458:0000000062000022
#0045c:0000000000220000
#0045a:00000062
#00456:5200002200000000
#00452:0022000000000000
#00454:00520000
#04056:12
#04052:12
#03852:00000000000000530000000038005300
#03856:00480000
#03757:00000000000063000000000000230000
#03756:00000000480000000000000000000023
#03752:0000630023003853
#0375b:00000063
#0295b:0000006300000000
#02957:0000000000000023
#02952:0000001300530000
#00756:0000000000000024
#0075c:00000062
#00752:00000033
#0013c0:1200002200000000
#001381:0000001222000000
#0013a0:0000000012000022
#001321:0000000000000012
#002321:22
#003321:1200002200000000
#003360:0000001222000000
#003341:0000000012000022
#0033c0:0000000000000012
#0043c0:22
#004361:1200005200000000
#004321:0052000022000000
#004341:00520000
#004380:0000000012000052
#0043c0:0000000000520000
#0043a0:00000052
#0053c0:22
#005361:12220000
#005321:0052000000000000
#005380:00122200
#0053c0:0000005200000000
#005361:00001222
#005321:0000000000520000
#005380:00000012
#0063c0:22
#0073c0:0000001200003200
#007360:0000000000000054
#008380:26
#0083b0:00130000
#008370:0000002300000000
#008321:0000001300000000
#008361:0023
#008321:00000013
#008361:0000000000000023
#0083b0:0000000000000013
#009370:23
#009370:00130000
#0093b0:0000002300000000
#009361:0000001300230000
#009321:0033
#009361:00000013
#009321:0000000000000023
#009370:0000000000000013
#0103b0:33
#010370:0023000000000000
#010370:00000000000000130000000000000000
#010320:0000000000230000
#0103b0:0000000000000013
#011370:33
#0113b0:0023000000000000
#011360:00120000
#011340:00000000003200000000000000000000
#011320:0000002200000000
#0113b0:0000000000132300
#011370:00000000000000000000005300000000
#012320:00130000
#012360:0000002300000000
#0123b1:0000001300000000
#012371:0023
#0123b1:00000013
#012371:0000000000000023
#012320:0000000000000013
#013360:23
#013360:00130000
#013320:0000002300000000
#013371:0000001300230000
#0133b1:0033
#013371:00000013
#0133b1:0000000000000023
#013360:0000000000000013
#014320:33
#014360:0023000000000000
#014360:00000000000000130000000000000000
#0143b0:0000000000230000
#014320:0000000000000013
#015360:33
#015320:0023000000000000
#015380:00120000
#0153a0:00000000003200000000000000000000
#0153c0:0000002200000000
#015320:0000000000132300
#015360:00000000000000000000005300000000
#0163b0:0013333300000000
#016370:00000053000000000000000000000000
#016360:0023
#016371:0000001300000000
#016321:0023
#017321:13
#017361:00000023000000000000000000000000
#0173b0:00000013000000330000230000000000
#017370:0000000000000000000033000000000000530000000000000000000000000000
#017361:00000000000000130000330000000000
#017321:0000000000000000000000000000000000530000000000002300000000000000
#017370:0000000000001333
#0183b0:23
#017321:0000000000000013
#018361:23
#018321:00001323000000000000000000000000
#018370:00000013230000000000000000000000
#018321:0000133300000000
#018361:00000000005300000000000000000000
#018371:0023
#018360:0000001300000000
#0183b0:0023
#0193b0:13
#019370:00000023000000000000000000000000
#019321:00000013000000330000230000000000
#019361:0000000000000000000033000000000000530000000000000000000000000000
#019341:00000000000000000033000000000000
#019370:00000000000000130000330000000000
#0193b0:0000000000000000000000000000000000530000000000002300000000000000
#019390:00000000000000000033000000000000
#019361:0000000000001333
#020321:23
#0193b0:0000000000000013
#020370:23
#020360:0013000000000000
#020320:00230000
#0203b1:00132300
#020371:0000003300000000
#020320:00001323
#020360:0000000000330000
#0203b1:00000013
#020371:0000000000000033
#0213b1:23
#021320:13
#021360:00003323000000000000000000000000
#0213b1:00000013000000003300000000000000
#021371:00000000003333000000230000000000
#021320:0000001300000000
#021360:0023
#021320:0000000000130033
#021360:00000033
#022360:23
#021371:0000000000000013
#0223b1:23
#0223b1:0013000000000000
#022361:00230000
#022320:00130000
#022370:0000002300000000
#022350:00000000000000000013000000000000
#022320:00000023
#022371:0000000000130000
#0223b1:00000023
#023361:1300332300000000
#023321:0033000000000000
#0233b0:0000001300000000
#023380:0000000000220000
#024360:0013000000000000
#024320:00230000
#024371:000000000000000000000000000000000000000000000000000000000000000000000000000000000000000000000000000000000000000000000000000000000000000000000000000000000000000000000000000000000000000000000000000000000000000000000000000000000000000000000000000000000000000000000000000000000000000000000000000000000000000000000000000000000000000000000000000000000000000000000000000000000000000000000000000000000000000000000000000000000000000000000000000000000000000000000000000000000000000000000000130000000000000000000000000000000000000000000000000000000000000000000000000000000000000000000000000000000000000000000000000000000000000000000000000000000000000000000000000000000000000000000000000000000000000000000000000000000000000000000000000000000000000000000000000000000000000000000000000000000000000000000000000000000000000000000000000000000000000000000000000000000000000000000000000000000000000000000000000000000000000000000000000000000000000000000000000000000000000000000053000000000000000000000000000000000000000000000000000000000000000000000000000000000000000000000000000000000000000000000000000000000000000000000000000000000000000000000000000000000000000000000000000000000000000000000000000000000000000000000000000000000000000000000000000000000000000000000000000000000000000000000000000000000000000000000000000000000000000000000000000000000000000000000000000000000000000000000000000000000000000000000000000000000000000000000000000000000000000000000000000000000000000000000000000000000000000000000000000000000000000000000000000000000000000000000000000000000000000000000000000000000000000000000000000000000000000000000000000000000000000000000000000000000000000000000000000000000000000000000000000000000000000000000000000000000000000000000000000000000000000000000000000000000000000000000000000000000000000000000000000000000000000000000000000000000000000000000000000000000000000000000000000000000000000000000000000000000000000000000000
#0243b1:0000003300230000
#024320:0000001300230000
#024360:0053
#0243c0:00000012
#0243b0:0000000000000032
#0253a0:32
#025390:0032000000000000
#025380:0000322200000000
#025361:0000122200000000
#026371:0013000000000000
#0263b1:00230000
#026360:00130000
#026320:0000003300230000
#0263b0:0053
#026361:0000001400240000
#026361:0000000000000012
#027361:0000000000220000
#027380:0000000000120000
#0273c0:00000022
#0273b0:0000000000000013
#027370:00000000000000000000000000000053
#0283a0:24
#028360:0013000000000000
#028320:00230000
#028320:0000001324000000
#028360:00000000000000530000000000000000
#0283b0:0000000000130000
#028370:00000023
#028321:00000013
#028361:0000000000000033
#029321:23
#0293b1:0000001300000000
#029361:0023
#029321:0000000000130000
#029371:00000023
#029371:0000000000000013
#030321:23
#0303b1:0013000000000000
#030381:00000033000000000000000000000000
#030361:00230000
#030361:0000001300000000
#0303b1:0023
#030321:0000000000130000
#030371:00000023
#030371:0000000000000013
#031321:23
#0313b0:1333230000000000
#031370:00530053000000000000000000000000
#031380:0000001600000000
#031320:0024
#031321:0000001600000000
#0313a1:0024
#0313a1:0000000000140034
#031361:00000000000000000000000034000054
#0323a1:24
#032321:0014003424000000
#032361:00000000340000540000000000000000
#032371:0000000000130000
#0323b1:00000023
#032370:0000000000001333
#033320:23
#033361:13
#0333b1:0023000000000000
#033361:0000001300000000
#033321:0023
#0333a1:0000000000000014
#034361:24
#033360:0000000000000014
#0343a0:24
#034320:0000001400000000
#034360:0024
#034361:0000001400000000
#034321:0024
#0343b1:0000000000130000
#034361:00000023
#034361:0000000000000013
#0353b1:23
#035320:1333230000000000
#035360:00530053000000000000000000000000
#035380:0000001600000000
#035320:00000000000000560000000000000000
#035340:0024
#035321:0000001600000000
#035381:00000000000000562400000000000000
#035381:0000000000120032
#0353c1:0000000000000000000000000000000000000000000000003200000000520000
#0363c1:22
#035320:0000000000000000000000000000000000000000000000001200000000520000
#035360:0000000000000032
#036320:22
#036320:00132300
#036370:0000003300000000
#0363b1:0000001300000000
#036361:0023
#0363b1:00000013
#036361:0000000000000033
#0373b1:23
#036320:0000000000000013
#037370:23
#037320:00133300
#037370:0000003300230000
#0373b0:0000000000001323
#037370:00000000000000000000000000530000
#037321:0000000000000013
#037361:00000000000000000000000000000053
#038321:23
#038321:00000000000000130000000000000000
#038371:0000000000230000
#038321:0000000000000013
#039371:33
#039321:0023000000000000
#0393c1:0000001200000000
#039381:0022
#041321:1200002200000000
#041360:0000001222000000
#041341:0000000012000022
#0413c0:0000000000000012
#0423c0:22
#0433c0:1200002200000000
#043381:0000001222000000
#0433a0:0000000012000022
#043321:0000000000000012
#044321:22
#044380:1200005200000000
#0443c0:0052000022000000
#0443a0:00520000
#044361:0000000012000052
#044321:0000000000520000
#044341:00000052
#045321:22
#045380:12220000
#0453c0:0052000000000000
#045361:00122200
#045321:0000005200000000
#045380:00001222
#0453c0:0000000000520000
#045361:00000012
#046321:22
