This file was generated by Ched 2.7.0.0.
#TITLE ""
#ARTIST ""
#DESIGNER ""
#DIFFICULTY 0
#PLAYLEVEL
#SONGID ""
#WAVE ""
#WAVEOFFSET 0
#JACKET ""
#REQUEST "ticks_per_beat 480"
#00002: 4
#BPM01: 84
#00008: 01
#TIL00: ""
#VOLUME: ""
#HISPEED 00
#MEASUREHS 00
#0001a:14
#00012:0014
#00118:14
#00114:0014
#0021a:14
#00212:0014
#00318:14
#00314:0014
#00618:14
#00614:0014
#00814:00140000
#0081a:24001414
#00810:41
#00912:14001414
#00918:00140000
#0101a:14
#01012:00140000
#01018:0014
#01014:00000014
#0111a:14
#01112:00140000
#01212:14001414
#01218:00140000
#0131a:14001414
#01314:00140000
#01412:14
#0141a:00140000
#01414:0014
#01418:00000014
#01512:14
#0151a:00140000
#01812:14140000
#01818:00001414
#0161a:24140000
#01614:00001414
#01610:41
#02114:00140000
#02118:14
#02212:14140000
#02218:00001414
#02210:41
#0201a:14
#02014:00140000
#02018:0014
#02012:00000014
#0261a:14
#02612:00140000
#02618:0014
#02812:00140014
#0281a:2414
#0281f:21
#02810:0041
#02918:1414
#02914:00140000
#03012:1414
#0301a:00140014
#03114:1414
#03118:00140000
#03312:00140000
#0331a:1414
#00718:0000001400000000
#0071a:00000034
#01718:0000341434000000
#0171a:14
#01914:0000341434000000
#01912:14
#02312:14
#0231f:11
#02313:0034000000000000
#02314:00340000
#02412:00140014
#0241a:2414
#02518:1414
#02514:00140014
#02714:0014343400000000
#03218:24140000
#03214:00001414
#0351a:00140000
#03512:1414
#03414:24140000
#03418:00001414
#03410:41
#0361a:24001414
#03614:00140000
#03712:14001414
#03718:00140000
#0381a:14
#03812:00140000
#03818:0014
#03814:00000014
#0391a:14
#03912:00140000
#03910:41
#0401a:0014
#04012:24
#04114:14
#04118:0014
#04212:14
#0421a:0014
#04314:14
#04318:0014
#04614:14
#04618:0014
#00512:0034
#00513:00340000
#00418:0034
#00419:00340000
#0451a:0034
#04519:00340000
#04414:0034
#04413:00340000
#0085a:14
#01252:14
#0285a:14
#02958:0054
#03154:0064
#0335a:0054
#00758:0000005400000000
#0175a:54
#01758:0000002400000000
#01954:0000002400000000
#01952:64
#02352:64
#02752:00000014
#02754:0064000000000000
#03552:0064
#03052:14
#0365a:14
#0043a0:14
#004390:00340000
#004380:00003424
#005340:14
#005330:00340000
#005320:00003424
#007380:1434343400000000
#0073a0:00000034
#0083a0:24
#011380:00001424
#015340:00001424
#0173a0:14000024
#017380:0000345434000000
#019320:14000024
#019340:0000345434000000
#0213a0:00001424
#023320:14
#023330:0034000000000000
#023340:00340000
#023350:0000003400002400
#026340:0000000000001434
#027340:0034343400000000
#027320:00000024
#029380:0014
#0293a0:00000024
#031340:0014
#031320:00000024
#0333a0:0014
#033380:00000024
#035320:0014
#035340:00000024
#039380:00001424
#044320:14
#044330:00340000
#044340:00003424
#045380:14
#045390:00340000
#0453a0:00003424
#047340:1434342400000000
